osu file format v11

[General]
AudioFilename: Time to get Away - LCD Soundsystem.mp3
AudioLeadIn: 0
PreviewTime: -1
Countdown: 1
SampleSet: Soft
StackLeniency: 0.7
Mode: 0
LetterboxInBreaks: 1

[Editor]
Bookmarks: 83233,171553,173593
DistanceSpacing: 1
BeatDivisor: 4
GridSize: 4

[Metadata]
Title:Time to get away
TitleUnicode:Time to get away
Artist:LCD Soundsystem
ArtistUnicode:LCD Soundsystem
Creator:xRayne
Version:Hard
Source:
Tags:get away sound system
BeatmapID:193215
BeatmapSetID:64883

[Difficulty]
HPDrainRate:6
CircleSize:4
OverallDifficulty:6
ApproachRate:7
SliderMultiplier:1.6
SliderTickRate:2

[Events]
//Background and Video events
0,0,"LCD_Soundsystem-Sound_Of_Silver-Frontal.jpg"
//Break Periods
2,55593,60733
2,107673,114493
2,153752,160573
//Storyboard Layer 0 (Background)
//Storyboard Layer 1 (Fail)
//Storyboard Layer 2 (Pass)
//Storyboard Layer 3 (Foreground)
//Storyboard Sound Samples
//Background Colour Transformations
3,100,163,162,255

[TimingPoints]
15553,480,4,2,0,45,1,0
61633,-100,4,2,0,100,0,1
76993,-100,4,2,0,100,0,0
92353,-100,4,2,0,100,0,1
107713,-100,4,2,0,100,0,0
138433,-100,4,2,0,100,0,1
153793,-100,4,2,0,100,0,0

[Colours]
Combo1 : 128,0,64
Combo2 : 255,255,255
Combo3 : 0,0,0

[HitObjects]
92,60,15553,2,0,P|68:104|56:136|64:176|104:220,1,160,0|8,0:0|0:0,0:0:0
176,208,16273,1,0,0:0:0
212,280,16513,2,0,P|244:248|256:204,2,80,0|0|8,0:0|0:0|0:0,0:0:0
420,60,17473,6,0,P|444:104|456:136|448:176|408:220,1,160,0|8,0:0|0:0,0:0:0
336,208,18193,1,0,0:0:0
300,280,18433,2,0,P|268:248|256:204,2,80,0|0|8,0:0|0:0|0:0,0:0:0
300,280,19153,1,0,0:0:0
360,332,19393,6,0,P|388:304|388:260,2,80,0|0|8,0:0|0:0|0:0,0:0:0
300,280,20113,1,0,0:0:0
220,280,20353,1,0,0:0:0
220,280,20593,1,0,0:0:0
140,280,20833,1,8,0:0:0
16,180,21313,6,0,P|56:148|92:172|132:200|184:156,1,160,0|8,0:0|0:0,0:0:0
248,168,22033,1,0,0:0:0
480,88,22273,2,0,P|440:56|404:80|364:108|312:64,1,160,0|8,0:0|0:0,0:0:0
248,76,22993,1,0,0:0:0
168,76,23233,5,0,0:0:0
112,132,23473,2,0,P|88:100|88:56,2,80,0|8|0,0:0|0:0|0:0,0:0:0
116,212,24193,1,0,0:0:0
112,132,24433,2,0,P|160:144|184:180,1,80,0|8,0:0|0:0,0:0:0
332,120,25153,6,0,P|364:160|376:192|364:228|328:264,1,160,0|8,0:0|0:0,0:0:0
252,268,25873,1,0,0:0:0
196,212,26113,2,0,P|172:256|180:304,2,80,2|0|8,0:0|0:0|0:0,0:0:0
196,212,26833,1,0,0:0:0
124,176,27073,2,0,P|152:132|188:120|224:128|260:160,1,160,0|8,0:0|0:0,0:0:0
340,152,27793,1,0,0:0:0
420,152,28033,1,2,0:0:0
420,152,28273,1,0,0:0:0
500,152,28513,5,8,0:0:0
484,316,28993,2,0,P|444:284|408:308|368:336|316:292,1,160,0|8,0:0|0:0,0:0:0
252,304,29713,1,0,0:0:0
20,224,29953,2,0,P|60:192|96:216|136:244|188:200,1,160,2|8,0:0|0:0,0:0:0
252,120,30673,1,0,0:0:0
252,120,30793,1,0,0:0:0
252,120,30913,6,0,P|252:16,2,80,0|0|8,0:0|0:0|0:0,0:0:0
252,212,31633,1,0,0:0:0
192,268,31873,1,2,0:0:0
252,320,32113,1,0,0:0:0
312,268,32353,1,8,0:0:0
392,268,32593,1,0,0:0:0
408,348,32833,6,0,P|464:336|480:296|480:252|456:216,1,160,0|8,0:0|0:0,0:0:0
456,144,33553,1,0,0:0:0
376,144,33793,2,0,P|284:144,3,80,0|0|8|0,0:0|0:0|0:0|0:0,0:0:0
296,144,34753,5,0,0:0:0
296,144,34993,1,0,0:0:0
216,144,35233,1,8,0:0:0
216,144,35473,1,0,0:0:0
136,144,35713,2,0,P|56:144,2,80,0|0|8,0:0|0:0|0:0,0:0:0
136,144,36433,1,0,0:0:0
216,144,36673,6,0,P|260:116|296:96|336:120|376:152,1,160,0|8,0:0|0:0,0:0:0
412,200,37393,1,0,0:0:0
364,264,37633,2,0,P|320:292|284:312|244:288|204:256,1,160,0|8,0:0|0:0,0:0:0
172,200,38353,1,0,0:0:0
216,268,38593,2,0,P|160:304|124:288|76:240|104:196,1,160,0|8,0:0|0:0,0:0:0
96,140,39313,1,0,0:0:0
172,200,39553,2,0,P|88:224,2,80,0|0|8,0:0|0:0|0:0,0:0:0
172,200,40273,1,0,0:0:0
176,120,40513,6,0,P|196:68|240:68|288:68|312:136,1,160,0|8,0:0|0:0,0:0:0
300,112,41233,1,0,0:0:0
304,192,41473,2,0,P|304:280,2,80,0|0|8,0:0|0:0|0:0,0:0:0
300,112,42193,1,0,0:0:0
300,112,42433,2,0,P|329:70|369:50|401:70|433:102,1,160,0|8,0:0|0:0,0:0:0
436,20,43153,1,0,0:0:0
432,180,43393,2,0,P|432:92,2,80,0|0|8,0:0|0:0|0:0,0:0:0
472,248,44113,1,0,0:0:0
468,328,44353,6,0,P|428:296|396:320|352:348|300:304,1,160,0|8,0:0|0:0,0:0:0
236,320,45073,1,0,0:0:0
4,252,45313,2,0,P|44:220|80:244|120:272|172:228,1,160,0|8,0:0|0:0,0:0:0
236,240,46033,1,0,0:0:0
312,280,46273,6,0,P|332:244|328:196|300:164|248:156,1,160,0|8,0:0|0:0,0:0:0
176,132,46993,1,0,0:0:0
104,96,47233,2,0,P|136:44|160:32,2,80,0|0|8,0:0|0:0|0:0,0:0:0
104,96,47953,1,0,0:0:0
332,108,48193,5,0,0:0:0
360,36,48433,2,0,P|376:45|408:97,2,80,0|8|0,0:0|0:0|0:0,0:0:0
332,108,49153,1,0,0:0:0
264,152,49393,2,0,P|228:192|228:244,2,80,0|8|0,0:0|0:0|0:0,0:0:0
304,220,50113,5,0,0:0:0
368,176,50353,2,0,P|340:116|312:100,2,80,0|8|0,0:0|0:0|0:0,0:0:0
372,256,51073,2,0,P|372:340,1,80
296,308,51553,1,8,0:0:0
216,304,51793,1,0,0:0:0
140,332,52033,6,0,P|140:240,1,80
80,200,52513,2,0,P|116:160|148:152|184:156|216:212,1,160,8|0,0:0|0:0,0:0:0
211,205,53233,1,0,0:0:0
292,204,53473,1,8,0:0:0
292,204,53713,1,0,0:0:0
256,192,53953,12,4,55393,0:0:0
256,180,61633,5,0,0:0:0
332,208,61873,2,0,P|312:240|264:260,1,80,0|8,0:0|0:0,0:0:0
236,264,62233,1,0,0:0:0
200,244,62353,1,0,0:0:0
120,244,62593,1,0,0:0:0
120,244,62833,1,0,0:0:0
48,208,63073,2,0,P|40:256|56:292,1,80,8|0,0:0|0:0,0:0:0
384,328,63553,5,0,0:0:0
452,288,63793,2,0,P|460:236|444:208,1,80,0|8,0:0|0:0,0:0:0
448,213,64153,1,0,0:0:0
372,236,64273,1,0,0:0:0
296,260,64513,2,0,P|256:268|208:244,1,80
256,180,64993,2,0,P|256:88,1,80,8|0,0:0|0:0,0:0:0
256,100,65473,5,0,0:0:0
180,72,65713,2,2,P|156:92|144:148|152:192|184:220,1,160
108,40,66433,1,0,0:0:0
108,40,66673,1,0,0:0:0
40,84,66913,2,0,P|28:120|36:172,1,80,8|0,0:0|0:0,0:0:0
256,100,67393,5,0,0:0:0
332,72,67633,2,2,P|356:92|368:148|360:192|330:217,1,160
404,40,68353,1,0,0:0:0
404,40,68593,1,0,0:0:0
472,84,68833,2,0,P|484:120|476:172,1,80,8|0,0:0|0:0,0:0:0
476,240,69313,1,0,0:0:0
468,320,69553,6,0,P|416:332|388:320,1,80,0|8,0:0|0:0,0:0:0
392,322,70033,1,0,0:0:0
316,300,70273,1,0,0:0:0
316,300,70513,1,0,0:0:0
240,328,70753,2,0,P|232:292|252:248,1,80,8|0,0:0|0:0,0:0:0
160,280,71233,5,0,0:0:0
92,320,71473,2,0,P|80:276|96:224,1,80,0|8,0:0|0:0,0:0:0
100,204,71833,1,0,0:0:0
132,180,71953,1,0,0:0:0
132,180,72193,1,0,0:0:0
284,148,72433,2,0,P|184:148,2,80,0|8|0,0:0|0:0|0:0,0:0:0
360,148,73153,5,0,0:0:0
440,156,73393,2,0,P|472:176|496:224,1,80,0|8,0:0|0:0,0:0:0
496,252,73753,1,0,0:0:0
492,292,73873,1,0,0:0:0
492,292,74113,1,0,0:0:0
336,320,74353,2,0,P|444:320,2,80,0|8|0,0:0|0:0|0:0,0:0:0
256,320,75073,5,0,0:0:0
176,316,75313,2,0,P|172:268|196:232,1,80,0|8,0:0|0:0,0:0:0
216,212,75673,1,0,0:0:0
252,192,75793,1,0,0:0:0
332,188,76033,1,0,0:0:0
388,128,76273,2,0,P|408:156|404:204,2,80,0|8|0,0:0|0:0|0:0,0:0:0
320,88,76993,5,0,0:0:0
160,84,77233,2,0,P|252:84,2,80,0|8|0,0:0|0:0|0:0,0:0:0
160,84,77953,1,0,0:0:0
80,84,78193,2,0,P|80:168,1,80,0|8,0:0|0:0,0:0:0
160,180,78673,2,0,P|160:268,1,80
232,296,79153,1,0,0:0:0
296,344,79393,2,0,P|312:304|304:264,1,80,8|0,0:0|0:0,0:0:0
384,252,79873,2,0,P|384:156,1,80
464,164,80353,2,0,P|464:72,1,80,8|0,0:0|0:0,0:0:0
464,84,80833,5,0,0:0:0
384,80,81073,2,2,P|344:48|308:72|268:100|216:56,1,160
230,66,81793,1,0,0:0:0
36,132,82033,2,2,P|73:165|113:137|149:113|189:145,1,160,2|2,0:0|0:0,0:0:0
164,220,82753,5,0,0:0:0
164,220,82993,1,0,0:0:0
88,232,83233,2,0,P|80:268|104:316|148:332|208:304,1,160,0|8,0:0|0:0,0:0:0
272,312,83953,1,0,0:0:0
352,316,84193,2,0,P|448:316,1,80,8|0,0:0|0:0,0:0:0
416,236,84673,6,0,P|400:208|376:164|388:112|404:76,1,160,0|8,0:0|0:0,0:0:0
308,156,85393,1,0,0:0:0
308,156,85633,1,0,0:0:0
300,76,85873,2,0,P|264:84|232:136,1,80,0|8,0:0|0:0,0:0:0
160,88,86353,2,0,P|128:108|104:160,1,80
188,252,86833,2,0,P|188:148,2,80,0|8|0,0:0|0:0|0:0,0:0:0
192,328,87553,2,0,P|228:320|260:268,1,80
332,316,88033,2,0,P|364:296|388:244,1,80,8|0,0:0|0:0,0:0:0
308,232,88513,5,0,0:0:0
252,288,88753,2,0,P|232:240|232:212,2,80,0|8|0,0:0|0:0|0:0,0:0:0
308,232,89473,2,0,P|340:200|348:144,2,80,0|0|8,0:0|0:0|0:0,0:0:0
148,232,90433,5,0,0:0:0
68,224,90673,2,0,P|84:176|124:152,2,80,0|8|0,0:0|0:0|0:0,0:0:0
148,232,91393,2,0,P|200:232,2,40
236,152,91873,2,0,P|192:152,2,40,8|0|0,0:0|0:0|0:0,0:0:0
260,232,92353,5,0,0:0:0
336,232,92593,2,0,P|380:232,2,40,0|0|8,0:0|0:0|0:0,0:0:0
408,152,92953,2,0,P|368:152,2,40
448,160,93313,1,0,0:0:0
348,76,93553,2,0,P|444:76,2,80,0|8|0,0:0|0:0|0:0,0:0:0
268,76,94273,5,0,0:0:0
188,76,94513,2,0,P|120:76,2,40,0|0|8,0:0|0:0|0:0,0:0:0
196,160,94873,2,0,P|260:160,2,40
156,160,95233,1,0,0:0:0
84,124,95473,2,0,P|72:172|88:216,1,80,0|8,0:0|0:0,0:0:0
79,200,95953,1,0,0:0:0
76,280,96193,5,0,0:0:0
104,308,96313,2,0,P|144:324|180:316,1,80
208,288,96673,1,8,0:0:0
240,312,96793,2,0,P|274:319|314:303,1,80
348,280,97153,1,0,0:0:0
428,204,97393,2,0,P|428:284,2,80,0|8|0,0:0|0:0|0:0,0:0:0
428,124,98113,5,0,0:0:0
420,44,98353,1,0,0:0:0
420,44,98593,1,8,0:0:0
340,40,98833,1,0,0:0:0
340,40,99073,1,0,0:0:0
260,40,99313,2,0,P|172:40,1,80,0|8,0:0|0:0,0:0:0
180,40,99793,1,0,0:0:0
104,68,100033,6,0,P|88:108|96:148,1,80
172,120,100513,2,0,P|180:164|168:200,1,80,8|0,0:0|0:0,0:0:0
96,228,100993,1,0,0:0:0
172,308,101233,2,0,P|76:308,2,80,0|8|0,0:0|0:0|0:0,0:0:0
244,272,101953,5,0,0:0:0
312,312,102193,2,0,P|408:312,2,80,0|8|0,0:0|0:0|0:0,0:0:0
244,272,102913,1,0,0:0:0
244,112,103153,2,0,P|244:192,2,80,0|8|0,0:0|0:0|0:0,0:0:0
244,112,103873,1,0,0:0:0
176,72,104113,2,2,P|204:28|240:16|280:24|312:68,1,160
307,62,104833,1,0,0:0:0
244,112,105073,2,2,P|272:152|312:156|360:144|380:88,1,160
328,216,105793,5,0,0:0:0
400,248,106033,2,0,P|380:300|344:312|288:308|264:264,1,160
192,276,106753,2,0,P|88:276,2,80,0|0|8,0:0|0:0|0:0,0:0:0
272,276,107473,1,4,0:0:0
412,96,115393,5,0,0:0:0
340,60,115633,2,2,P|320:104|332:144|356:176|408:180,1,160
403,179,116353,1,0,0:0:0
480,204,116593,2,2,P|464:248|428:272|388:272|352:240,1,160
68,92,117313,1,0,0:0:0
140,56,117552,2,2,P|160:100|148:140|124:172|76:175,1,160
76,175,118273,1,0,0:0:0
0,200,118513,2,2,P|16:244|52:268|92:268|128:236,1,160
208,240,119233,5,0,0:0:0
288,240,119473,1,0,0:0:0
368,240,119713,2,0,P|404:272|444:272|480:248|496:204,1,160,8|0,0:0|0:0,0:0:0
495,204,120433,1,0,0:0:0
420,180,120673,2,8,P|420:84,1,80
232,56,121153,5,0,0:0:0
152,56,121393,2,2,P|116:24|76:24|40:48|24:92,1,160
25,92,122113,1,0,0:0:0
100,116,122353,2,0,P|100:196,1,80,0|8,0:0|0:0,0:0:0
100,196,122833,1,0,0:0:0
60,264,123073,5,0,0:0:0
84,340,123313,1,0,0:0:0
164,344,123553,1,8,0:0:0
200,272,123793,1,0,0:0:0
176,196,124033,1,0,0:0:0
100,196,124273,1,0,0:0:0
60,264,124513,1,8,0:0:0
84,340,124753,1,0,0:0:0
164,344,124993,5,0,0:0:0
200,272,125233,1,0,0:0:0
176,196,125473,6,0,P|216:192|252:212,1,80,8|0,0:0|0:0,0:0:0
284,284,125953,1,0,0:0:0
364,292,126193,2,0,P|356:248|336:216,1,80,0|8,0:0|0:0,0:0:0
296,148,126673,1,0,0:0:0
296,148,126913,1,0,0:0:0
376,64,127153,2,0,P|288:64,1,80,0|8,0:0|0:0,0:0:0
216,64,127633,2,0,P|120:64,1,80
64,32,128113,2,2,P|48:72|56:120|88:140|140:140,1,160
220,148,128833,5,0,0:0:0
136,224,129073,2,0,P|232:224,1,80,0|8,0:0|0:0,0:0:0
296,224,129553,2,0,P|388:224,1,80
440,268,130033,2,2,P|472:228|464:188|444:148|388:148,1,160
390,148,130753,5,0,0:0:0
420,76,130993,1,0,0:0:0
376,12,131233,1,8,0:0:0
296,8,131473,1,0,0:0:0
248,72,131713,1,0,0:0:0
260,152,131953,1,0,0:0:0
324,200,132193,1,8,0:0:0
324,200,132433,1,0,0:0:0
324,200,132673,5,0,0:0:0
400,224,132913,6,2,P|396:264|356:304|300:304|260:268,1,160
276,280,133633,1,0,0:0:0
260,360,133873,2,2,P|192:348|192:312|180:272|212:236,1,160
207,241,134593,1,0,0:0:0
296,164,134833,2,0,P|184:164,1,80,0|8,0:0|0:0,0:0:0
136,168,135313,2,0,P|44:168,1,80
12,232,135793,2,2,P|-32:208|-40:164|-28:124|12:96,1,160
164,76,136513,6,0,P|72:76,2,80,0|0|8,0:0|0:0|0:0,0:0:0
164,76,137233,1,0,0:0:0
244,80,137473,2,0,P|332:80,2,80,0|0|8,0:0|0:0|0:0,0:0:0
244,80,138193,1,0,0:0:0
164,76,138433,2,0,P|140:104|132:156|140:204|156:232,1,160,0|8,0:0|0:0,0:0:0
216,176,139153,1,0,0:0:0
288,140,139393,2,0,P|312:168|320:220|312:268|296:296,1,160,0|8,0:0|0:0,0:0:0
224,324,140113,1,0,0:0:0
224,324,140353,5,0,0:0:0
100,328,140593,2,0,P|152:328,2,40,0|0|8,0:0|0:0|0:0,0:0:0
64,244,140953,2,0,P|-4:244,2,40
104,240,141313,1,0,0:0:0
104,160,141553,1,0,0:0:0
68,88,141793,2,0,P|112:80|152:92,1,80,8|0,0:0|0:0,0:0:0
224,96,142273,5,0,0:0:0
304,92,142513,2,0,P|337:83|381:91,1,80,0|8,0:0|0:0,0:0:0
388,132,142873,2,0,P|388:220,1,80
388,212,143233,1,0,0:0:0
360,332,143473,1,0,0:0:0
360,332,143713,2,0,P|404:332,2,40,8|0|0,0:0|0:0|0:0,0:0:0
264,328,144193,5,0,0:0:0
184,328,144433,2,0,P|124:328,2,40,0|0|8,0:0|0:0|0:0,0:0:0
264,328,144793,1,0,0:0:0
264,328,144913,2,0,P|264:216,1,80
264,92,145393,2,0,P|264:196,2,80,0|8|0,0:0|0:0|0:0,0:0:0
184,96,146113,5,0,0:0:0
124,44,146353,2,2,P|96:64|84:124|104:164|156:180,1,160
44,248,147073,2,0,P|156:248,1,80
204,244,147553,1,8,0:0:0
244,244,147673,1,0,0:0:0
284,244,147793,1,0,0:0:0
324,244,147913,1,0,0:0:0
364,244,148033,5,0,0:0:0
352,128,148273,2,0,P|356:88|344:48,1,80,0|8,0:0|0:0,0:0:0
276,8,148753,2,0,P|264:48|280:88,1,80
248,164,149233,2,2,P|200:172|168:116|168:76|192:44,1,160
189,48,149953,5,0,0:0:0
108,48,150193,2,0,P|48:48,2,40,0|0|8,0:0|0:0|0:0,0:0:0
64,128,150553,2,0,P|8:128,2,40
104,128,150913,1,0,0:0:0
104,292,151153,2,0,P|104:188,2,80,0|8|0,0:0|0:0|0:0,0:0:0
172,332,151873,5,0,0:0:0
264,264,152113,2,0,P|204:264,2,40,0|0|8,0:0|0:0|0:0,0:0:0
264,264,152473,1,0,0:0:0
264,264,152593,1,0,0:0:0
328,140,152833,2,0,P|316:176|336:224,1,80
392,176,153313,2,0,P|404:132|387:100,1,80,8|4,0:0|0:0,0:0:0
44,96,161473,6,0,P|68:140|112:140|152:140|176:96,1,160,0|8,0:0|0:0,0:0:0
256,100,162193,1,0,0:0:0
468,96,162433,2,0,P|444:140|400:140|360:140|336:96,1,160,0|8,0:0|0:0,0:0:0
256,100,163153,1,0,0:0:0
256,180,163393,1,0,0:0:0
196,232,163633,2,2,P|212:280|256:280|308:280|320:232,1,160
364,300,164353,2,2,P|360:304|304:360|256:360|220:340|164:328|148:292,1,240
76,272,165313,5,0,0:0:0
0,300,165553,2,2,P|-16:268|8:208|52:180|104:192,1,160
244,188,166273,2,0,P|136:188,2,80,0|0|8,0:0|0:0|0:0,0:0:0
336,276,167233,1,0,0:0:0
412,296,167473,2,2,P|424:264|404:212|356:176|316:192,1,160
325,190,168193,1,0,0:0:0
256,152,168433,2,0,P|216:140|176:148,1,80,0|8,0:0|0:0,0:0:0
212,216,168793,2,0,P|172:224|128:208,1,80
135,212,169153,5,0,0:0:0
56,256,169393,2,0,P|44:216|52:176,2,80,0|8|0,0:0|0:0|0:0,0:0:0
116,96,170113,1,0,0:0:0
220,112,170593,2,0,P|257:145|297:117|333:93|373:125,1,160,8|0,0:0|0:0,0:0:0
408,52,171313,2,2,P|444:56|460:112|456:176|408:196,1,160
423,186,172033,1,0,0:0:0
368,248,172273,2,2,P|331:215|291:243|255:267|215:235,1,160
216,236,172993,5,0,0:0:0
124,304,173233,2,0,P|188:304,2,40,0|0|8,0:0|0:0|0:0,0:0:0
80,224,173593,2,0,P|40:224,2,40
120,224,173953,1,0,0:0:0
120,64,174433,1,8,0:0:0
120,64,174673,1,0,0:0:0
200,60,174913,5,0,0:0:0
324,64,175153,2,0,P|284:64,2,40,0|0|8,0:0|0:0|0:0,0:0:0
376,140,175513,2,0,P|448:140,2,40
336,144,175873,1,0,0:0:0
332,304,176353,1,8,0:0:0
332,304,176593,1,0,0:0:0
252,308,176833,5,0,0:0:0
212,308,176953,2,0,P|104:308,1,80
132,268,177313,1,8,0:0:0
132,228,177433,2,0,P|36:228,1,80
52,228,177793,1,0,0:0:0
196,160,178273,1,8,0:0:0
196,160,178513,1,0,0:0:0
276,160,178753,5,0,0:0:0
320,92,178993,2,2,P|360:104|368:160|360:216|316:224,1,160
260,272,179713,1,0,0:0:0
304,340,179953,2,0,P|260:352|228:344,2,80,0|8|0,0:0|0:0|0:0,0:0:0
380,320,180673,5,0,0:0:0
440,268,180913,2,0,P|448:224|432:176,1,80,0|8,0:0|0:0,0:0:0
368,224,181273,2,0,P|360:180|384:140,1,80
376,148,181633,1,0,0:0:0
240,56,182113,1,8,0:0:0
240,56,182353,1,0,0:0:0
172,96,182593,5,0,0:0:0
108,48,182833,2,2,P|84:80|76:132|116:176|152:176,1,160
100,240,183553,1,0,0:0:0
108,280,183673,1,0,0:0:0
136,308,183793,1,0,0:0:0
176,312,183913,1,0,0:0:0
212,296,184033,1,8,0:0:0
236,264,184153,1,0,0:0:0
240,224,184273,1,0,0:0:0
220,192,184393,1,0,0:0:0
256,192,184513,12,4,185953,0:0:0
