osu file format v12

[General]
AudioFilename: Time to get Away - LCD Soundsystem.mp3
AudioLeadIn: 0
PreviewTime: -1
Countdown: 1
SampleSet: Soft
StackLeniency: 0.7
Mode: 0
LetterboxInBreaks: 1

[Editor]
Bookmarks: 96193
DistanceSpacing: 1
BeatDivisor: 2
GridSize: 4

[Metadata]
Title:Time to get away
TitleUnicode:Time to get away
Artist:LCD Soundsystem
ArtistUnicode:LCD Soundsystem
Creator:xRayne
Version:Easy
Source:
Tags:get away sound system
BeatmapID:190545
BeatmapSetID:64883

[Difficulty]
HPDrainRate:2
CircleSize:3
OverallDifficulty:3
ApproachRate:3
SliderMultiplier:1
SliderTickRate:1

[Events]
//Background and Video events
0,0,"LCD_Soundsystem-Sound_Of_Silver-Frontal.jpg",0,0
//Break Periods
2,77193,90913
2,153513,163873
//Storyboard Layer 0 (Background)
//Storyboard Layer 1 (Fail)
//Storyboard Layer 2 (Pass)
//Storyboard Layer 3 (Foreground)
//Storyboard Sound Samples
//Background Colour Transformations
3,100,163,162,255

[TimingPoints]
15553,480,4,2,0,45,1,0
61633,-100,4,2,0,60,0,1
76993,-100,4,2,0,60,0,0
92353,-100,4,2,0,60,0,1
107713,-100,4,2,0,60,0,0
138433,-100,4,2,0,60,0,1
153793,-100,4,2,0,60,0,0

[Colours]
Combo1 : 128,0,64
Combo2 : 255,255,255
Combo3 : 0,0,0

[HitObjects]
256,124,15553,1,0,0:0:0:0:
204,36,16033,2,0,P|156:112|208:212,1,200
284,256,17473,1,0,0:0:0:0:
336,168,17963,2,0,P|384:248|332:344,1,200
244,344,19393,6,0,P|204:316|188:264,3,100,0|8|0|8,0:0|0:0|0:0|0:0,0:0:0:0:
104,212,21313,2,0,P|88:165|48:137,3,100,0|8|0|8,0:0|0:0|0:0|0:0,0:0:0:0:
92,48,23233,2,0,P|171:103|203:197,2,200
116,248,26113,6,0,P|148:288|200:300,1,100
204,200,27073,2,0,P|260:204|296:180,2,100
236,104,28513,1,0,0:0:0:0:
332,80,28993,5,0,0:0:0:0:
392,160,29473,2,0,B|440:208|432:256|404:304|344:312,1,200,8|8,0:0|0:0,0:0:0:0:
276,240,30913,2,0,L|236:292,2,50,0|0|2,0:0|0:0|0:0,0:0:0:0:
184,200,31872,1,2,0:0:0:0:
168,100,32353,1,0,0:0:0:0:
256,48,32833,5,0,0:0:0:0:
344,92,33313,1,2,0:0:0:0:
352,192,33793,2,0,L|408:204,2,50,0|0|8,0:0|0:0|0:0,0:0:0:0:
284,264,34753,5,0,0:0:0:0:
244,356,35233,1,2,0:0:0:0:
152,312,35713,2,0,L|112:376,2,50,0|0|2,0:0|0:0|0:0,0:0:0:0:
132,212,36673,5,0,0:0:0:0:
224,176,37153,2,0,P|200:136|208:84,1,100,2|0,0:0|0:0,0:0:0:0:
300,124,38113,2,0,P|304:77|341:43,1,100,8|0,0:0|0:0,0:0:0:0:
396,128,39073,2,0,P|440:108|492:116,1,100,8|0,0:0|0:0,0:0:0:0:
452,208,40033,1,8,0:0:0:0:
372,272,40513,5,0,0:0:0:0:
316,188,40993,2,0,B|312:144|268:100|196:96|152:148,1,200,8|8,0:0|0:0,0:0:0:0:
224,216,42433,1,0,0:0:0:0:
128,248,42913,2,0,B|132:292|176:336|248:340|292:288,1,200,8|8,0:0|0:0,0:0:0:0:
224,216,44353,6,0,L|256:116,3,100,0|8|0|8,0:0|0:0|0:0|0:0,0:0:0:0:
184,52,46273,6,0,L|156:148,1,100,0|8,0:0|0:0,0:0:0:0:
144,248,47233,1,0,0:0:0:0:
232,292,47713,1,8,0:0:0:0:
312,228,48193,5,0,0:0:0:0:
284,132,48673,1,8,0:0:0:0:
192,96,49153,2,0,B|140:100|140:100|104:132,1,100,0|8,0:0|0:0,0:0:0:0:
116,232,50113,5,0,0:0:0:0:
64,316,50593,2,0,B|108:344|168:336|208:296|220:240,1,200,8|8,0:0|0:0,0:0:0:0:
256,152,52033,5,0,0:0:0:0:
293,244,52513,2,0,B|304:296|344:336|404:344|448:312,1,200,8|8,0:0|0:0,0:0:0:0:
396,224,53953,5,0,0:0:0:0:
360,132,54433,1,2,0:0:0:0:
260,144,54913,1,0,0:0:0:0:
292,240,55393,1,2,0:0:0:0:
312,336,55873,6,0,B|260:356|200:316|184:272|192:208,1,200,0|0,0:0|0:0,0:0:0:0:
260,148,57313,1,2,0:0:0:0:
232,52,57793,1,0,0:0:0:0:
132,48,58273,1,2,0:0:0:0:
96,140,58753,1,0,0:0:0:0:
176,200,59233,1,2,0:0:0:0:
260,148,59713,6,8,P|272:200|260:248,1,100
332,172,60673,2,0,P|372:208|392:252,1,100,0|8,0:0|0:0,0:0:0:0:
412,152,61633,6,0,P|464:160|504:184,2,100,0|8|0,0:0|0:0|0:0,0:0:0:0:
332,208,63073,1,8,0:0:0:0:
244,164,63553,2,0,P|196:160|152:132,2,100,0|8|0,0:0|0:0|0:0,0:0:0:0:
220,64,64993,1,8,0:0:0:0:
120,48,65473,6,0,B|76:58|44:95|30:166|74:216,1,200
156,264,66913,1,8,0:0:0:0:
256,260,67393,2,0,B|312:240|332:188|332:128|288:96,1,200
344,12,68833,1,8,0:0:0:0:
244,12,69313,6,0,L|148:48,3,100,0|8|0|8,0:0|0:0|0:0|0:0,0:0:0:0:
56,80,71233,5,0,0:0:0:0:
4,164,71713,1,8,0:0:0:0:
64,244,72193,1,0,0:0:0:0:
160,212,72673,1,8,0:0:0:0:
152,112,73153,5,0,0:0:0:0:
256,124,73633,2,0,P|284:164|296:216,2,100,0|2|0,0:0|0:0|0:0,0:0:0:0:
324,48,75073,1,0,0:0:0:0:
416,92,75553,1,2,0:0:0:0:
404,192,76033,5,0,0:0:0:0:
308,216,76513,1,2,0:0:0:0:
260,128,76993,1,0,0:0:0:0:
140,44,92353,6,0,P|184:60|212:102,2,100,0|8|0,0:0|0:0|0:0,0:0:0:0:
132,144,93793,1,8,0:0:0:0:
120,244,94273,2,0,P|76:228|47:185,2,100,0|8|0,0:0|0:0|0:0,0:0:0:0:
220,236,95713,1,8,0:0:0:0:
250,338,96193,6,0,B|293:328|325:291|339:220|300:176,1,200
204,148,97633,1,8,0:0:0:0:
100,176,98113,2,0,B|60:131|74:60|106:23|149:13,1,200
240,60,99553,1,8,0:0:0:0:
324,116,100033,6,0,P|354:77|400:60,2,100,0|8|0,0:0|0:0|0:0,0:0:0:0:
256,192,101473,1,8,0:0:0:0:
196,272,101953,2,0,P|165:310|120:328,2,100
256,192,103393,1,8,0:0:0:0:
316,112,103873,6,0,P|312:56|268:8,1,100,0|8,0:0|0:0,0:0:0:0:
212,84,104833,2,0,P|192:36|132:32,1,100,0|8,0:0|0:0,0:0:0:0:
108,116,105793,2,0,P|68:80|24:80,1,100,0|8,0:0|0:0,0:0:0:0:
32,180,106753,1,0,0:0:0:0:
92,260,107233,1,8,0:0:0:0:
184,296,107713,6,0,P|224:268|240:216,3,100,0|8|0|8,0:0|0:0|0:0|0:0,0:0:0:0:
324,164,109633,2,0,P|340:117|380:89,3,100,0|8|0|8,0:0|0:0|0:0|0:0,0:0:0:0:
336,0,111553,2,0,P|257:55|225:149,2,200
368,196,114433,2,0,P|352:236|296:260,1,100,0|8,0:0|0:0,0:0:0:0:
216,312,115393,6,0,P|168:336|120:316,3,100,0|8|0|8,0:0|0:0|0:0|0:0,0:0:0:0:
160,228,117313,1,0,0:0:0:0:
104,144,117793,1,8,0:0:0:0:
8,112,118273,2,0,P|80:48|184:64,1,200
272,96,119713,6,0,L|320:0,2,100,0|8|0,0:0|0:0|0:0,0:0:0:0:
340,172,121153,1,0,0:0:0:0:
388,260,121633,2,0,L|504:220,2,100,0|0|8,0:0|0:0|0:0,0:0:0:0:
404,360,123073,5,0,0:0:0:0:
304,348,123553,1,0,0:0:0:0:
260,256,124033,1,0,0:0:0:0:
304,164,124513,1,0,0:0:0:0:
408,152,124993,5,0,0:0:0:0:
408,52,125473,2,0,L|464:40,2,50,8|0|8,0:0|0:0|0:0,0:0:0:0:
312,84,126433,5,8,0:0:0:0:
256,0,126913,1,2,0:0:0:0:
192,76,127393,2,0,L|152:12,2,50,8|0|10,0:0|0:0|0:0,0:0:0:0:
132,156,128353,1,0,0:0:0:0:
44,204,128833,6,0,P|20:244|28:296,1,100,10|0,0:0|0:0,0:0:0:0:
120,256,129793,2,0,P|124:303|161:337,1,100,8|8,0:0|0:0,0:0:0:0:
216,252,130753,2,0,P|260:272|312:264,1,100,8|8,0:0|0:0,0:0:0:0:
372,344,131713,1,0,0:0:0:0:
388,244,132193,1,8,0:0:0:0:
332,160,132673,5,0,0:0:0:0:
416,104,133153,2,0,P|336:52|240:108,1,200,0|8,0:0|0:0,0:0:0:0:
236,192,134593,2,0,P|156:244|60:188,1,200
152,148,136033,1,8,0:0:0:0:
152,148,136513,6,0,L|152:292,3,100,0|8|0|8,0:0|0:0|0:0|0:0,0:0:0:0:
228,312,138433,2,0,P|180:288|148:240,2,100,0|8|0,0:0|0:0|0:0,0:0:0:0:
252,216,139873,1,8,0:0:0:0:
280,120,140353,2,0,P|324:136|353:179,2,100,0|8|0,0:0|0:0|0:0,0:0:0:0:
180,136,141793,1,8,0:0:0:0:
148,40,142273,6,0,B|105:50|73:87|59:158|98:202,1,200
196,216,143713,1,8,0:0:0:0:
296,208,144193,2,0,B|336:253|322:324|290:361|247:371,1,200
200,284,145633,1,8,0:0:0:0:
104,256,146113,6,0,P|74:295|28:312,2,100,0|8|0,0:0|0:0|0:0,0:0:0:0:
176,188,147553,1,8,0:0:0:0:
244,116,148033,2,0,P|275:78|320:60,2,100
176,188,149473,1,8,0:0:0:0:
140,280,149953,6,0,P|144:336|188:384,1,100,0|8,0:0|0:0,0:0:0:0:
240,300,150913,2,0,P|260:348|320:352,1,100,0|8,0:0|0:0,0:0:0:0:
340,264,151873,2,0,P|380:300|424:300,1,100,0|8,0:0|0:0,0:0:0:0:
416,200,152833,1,0,0:0:0:0:
336,140,153313,1,8,0:0:0:0:
224,168,165313,6,0,L|256:268,3,100,0|8|0|8,0:0|0:0|0:0|0:0,0:0:0:0:
184,332,167233,6,0,L|156:236,1,100,0|8,0:0|0:0,0:0:0:0:
144,136,168193,1,0,0:0:0:0:
232,92,168673,1,8,0:0:0:0:
312,156,169153,5,0,0:0:0:0:
284,252,169633,1,8,0:0:0:0:
192,288,170113,2,0,B|140:284|140:284|104:252,1,100,0|8,0:0|0:0,0:0:0:0:
116,152,171073,5,0,0:0:0:0:
64,68,171553,2,0,B|108:40|168:48|208:88|220:144,1,200,8|8,0:0|0:0,0:0:0:0:
256,232,172993,5,0,0:0:0:0:
293,140,173473,2,0,B|304:88|344:48|404:40|448:72,1,200,8|8,0:0|0:0,0:0:0:0:
396,160,174913,5,0,0:0:0:0:
360,252,175393,1,2,0:0:0:0:
260,240,175873,1,0,0:0:0:0:
292,144,176353,1,2,0:0:0:0:
312,48,176833,6,0,B|260:28|200:68|184:112|192:176,1,200,0|0,0:0|0:0,0:0:0:0:
260,236,178273,1,2,0:0:0:0:
232,332,178753,1,0,0:0:0:0:
132,336,179233,1,2,0:0:0:0:
96,244,179713,1,0,0:0:0:0:
176,184,180193,1,2,0:0:0:0:
260,236,180673,6,8,P|272:184|260:136,1,100
328,212,181633,6,0,P|368:176|388:132,1,100,0|8,0:0|0:0,0:0:0:0:
256,192,182593,12,4,184513,0:0:0:0:
