osu file format v13

[General]
AudioFilename: HNI Op.mp3
AudioLeadIn: 0
PreviewTime: 45598
Countdown: 0
SampleSet: Normal
StackLeniency: 0.7
Mode: 3
LetterboxInBreaks: 0
SpecialStyle: 0
WidescreenStoryboard: 1

[Editor]
Bookmarks: 60769
DistanceSpacing: 1
BeatDivisor: 4
GridSize: 8
TimelineZoom: 0.8999999

[Metadata]
Title:HEKIREKI (TV Size)
TitleUnicode:HEKIREKI (TV Size)
Artist:LAST ALLIANCE
ArtistUnicode:ラスト・アライアンス
Creator:Miyamoto Usagi
Version:7K NM 'Mitt Hitting'
Source:はじめの一歩: New Challenger
Tags:Hajime no Ippo Anime Opening Boxing Rock
BeatmapID:384383
BeatmapSetID:156937

[Difficulty]
HPDrainRate:7
CircleSize:7
OverallDifficulty:7
ApproachRate:5
SliderMultiplier:1.4
SliderTickRate:1

[Events]
//Background and Video events
0,0,"hajime-no-ippo-2551135-1920x1200.jpg",0,0
Video,0,"Hajime no Ippo New Challenger Opening.flv"
//Break Periods
//Storyboard Layer 0 (Background)
//Storyboard Layer 1 (Fail)
//Storyboard Layer 2 (Pass)
//Storyboard Layer 3 (Foreground)
//Storyboard Sound Samples
//Background Colour Transformations
3,100,163,162,255

[TimingPoints]
1250,465.116279069767,4,1,1,80,1,0
38447,465.116279069767,4,1,1,80,1,0
53324,465.116279069767,4,1,1,80,1,1
65300,-100,4,1,1,80,0,0

[HitObjects]
402,192,785,5,0,0:0:0:73:
109,192,901,1,0,0:0:0:73:
329,192,1017,1,0,0:0:0:73:
182,192,1133,128,4,1482:0:0:0:73:
475,192,1482,1,8,0:0:0:73:
36,192,1715,1,0,0:0:0:73:
109,192,1947,1,8,0:0:0:73:
475,192,2064,128,0,2413:0:0:0:73:
402,192,2413,1,0,0:0:0:73:
109,192,2645,1,0,0:0:0:73:
256,192,2878,1,0,0:0:0:73:
36,192,2994,128,0,3343:0:0:0:73:
475,192,3343,128,8,3575:0:0:0:73:
329,192,3575,128,0,3808:0:0:0:73:
182,192,3808,128,8,4273:0:0:0:73:
109,192,4273,1,8,0:0:0:73:
36,192,4506,5,0,0:0:0:73:
475,192,4622,1,0,0:0:0:73:
329,192,4738,1,8,0:0:0:73:
182,192,4854,128,0,5203:0:0:0:73:
475,192,5203,1,8,0:0:0:73:
109,192,5436,1,0,0:0:0:73:
109,192,5668,1,8,0:0:0:73:
475,192,5785,128,0,6133:0:0:0:73:
256,192,6133,1,8,0:0:0:73:
256,192,6366,1,0,0:0:0:73:
256,192,6599,1,8,0:0:0:73:
182,192,6715,128,0,7064:0:0:0:73:
402,192,7064,128,0,7296:0:0:0:73:
256,192,7296,128,0,7529:0:0:0:73:
109,192,7529,128,8,8226:0:0:0:73:
36,192,8226,128,8,8692:0:0:0:73:
256,192,8692,1,4,0:0:0:73:
402,192,8924,1,8,0:0:0:36:
109,192,8924,1,8,0:0:0:36:
256,192,9157,1,0,0:0:0:73:
109,192,9389,1,8,0:0:0:36:
402,192,9389,1,8,0:0:0:36:
256,192,9622,1,0,0:0:0:73:
402,192,9854,1,8,0:0:0:36:
109,192,9854,1,0,0:0:0:36:
256,192,10087,1,0,0:0:0:73:
402,192,10319,1,8,0:0:0:36:
109,192,10319,1,8,0:0:0:36:
36,192,10552,128,0,10901:0:0:0:36:
256,192,10552,1,0,0:0:0:36:
475,192,10901,128,0,11250:0:0:0:36:
402,192,10901,1,0,0:0:0:36:
329,192,11250,128,8,11598:0:0:0:36:
256,192,11250,1,0,0:0:0:36:
182,192,11598,128,0,12180:0:0:0:36:
109,192,11598,1,0,0:0:0:36:
329,192,12180,1,8,0:0:0:73:
256,192,12412,1,0,0:0:0:73:
109,192,12645,1,8,0:0:0:36:
402,192,12645,1,8,0:0:0:36:
256,192,12878,1,0,0:0:0:73:
182,192,13110,1,8,0:0:0:36:
475,192,13110,1,0,0:0:0:36:
256,192,13343,1,0,0:0:0:73:
36,192,13575,1,8,0:0:0:36:
329,192,13575,1,8,0:0:0:36:
256,192,13808,1,0,0:0:0:73:
182,192,14040,1,8,0:0:0:36:
402,192,14040,1,8,0:0:0:36:
36,192,14273,128,0,14622:0:0:0:36:
109,192,14273,1,0,0:0:0:36:
182,192,14622,128,0,14971:0:0:0:36:
256,192,14622,1,0,0:0:0:36:
329,192,14971,128,0,15436:0:0:0:36:
402,192,14971,1,0,0:0:0:36:
402,192,15436,128,8,15901:0:0:0:36:
475,192,15436,1,8,0:0:0:36:
109,192,15901,1,8,0:0:0:73:
256,192,16133,1,0,0:0:0:73:
329,192,16366,1,8,0:0:0:36:
475,192,16366,1,0,0:0:0:36:
256,192,16598,1,0,0:0:0:73:
182,192,16831,1,8,0:0:0:36:
475,192,16831,1,8,0:0:0:36:
256,192,17064,1,0,0:0:0:73:
329,192,17296,1,8,0:0:0:36:
36,192,17296,1,8,0:0:0:36:
256,192,17529,1,0,0:0:0:73:
182,192,17761,1,8,0:0:0:36:
329,192,17761,1,8,0:0:0:36:
36,192,17994,128,0,18343:0:0:0:36:
109,192,17994,1,0,0:0:0:36:
475,192,18343,128,0,18692:0:0:0:36:
402,192,18343,1,0,0:0:0:36:
329,192,18692,128,8,19157:0:0:0:36:
256,192,18692,1,8,0:0:0:36:
182,192,19157,128,8,19622:0:0:0:36:
109,192,19157,1,8,0:0:0:36:
475,192,19622,1,8,0:0:0:73:
256,192,19854,1,0,0:0:0:73:
36,192,20087,1,8,0:0:0:36:
329,192,20087,1,0,0:0:0:36:
256,192,20319,1,0,0:0:0:73:
182,192,20552,1,8,0:0:0:36:
475,192,20552,1,0,0:0:0:36:
256,192,20785,1,0,0:0:0:73:
36,192,21017,1,8,0:0:0:36:
329,192,21017,1,0,0:0:0:36:
256,192,21250,1,0,0:0:0:73:
182,192,21482,1,8,0:0:0:36:
475,192,21482,1,0,0:0:0:36:
329,192,21715,128,0,22064:0:0:0:36:
256,192,21715,1,0,0:0:0:36:
36,192,22064,128,0,22412:0:0:0:36:
109,192,22064,1,0,0:0:0:36:
182,192,22412,128,0,22878:0:0:0:36:
256,192,22412,1,0,0:0:0:36:
329,192,22878,128,0,23343:0:0:0:36:
402,192,22878,1,0,0:0:0:36:
36,192,23343,1,8,0:0:0:73:
475,192,23575,128,12,24505:0:0:0:73:
256,192,23808,1,8,0:0:0:73:
256,192,24273,1,8,0:0:0:73:
329,192,24505,128,0,25436:0:0:0:73:
109,192,24738,1,8,0:0:0:73:
109,192,25203,1,8,0:0:0:73:
36,192,25436,1,0,0:0:0:73:
109,192,25552,1,0,0:0:0:73:
182,192,25668,1,8,0:0:0:73:
475,192,25901,1,0,0:0:0:73:
402,192,26017,1,0,0:0:0:73:
329,192,26133,1,8,0:0:0:73:
36,192,26366,1,0,0:0:0:73:
109,192,26482,1,0,0:0:0:73:
182,192,26598,1,8,0:0:0:73:
475,192,26831,1,0,0:0:0:73:
402,192,26947,1,0,0:0:0:73:
329,192,27064,1,8,0:0:0:73:
109,192,27296,128,0,28226:0:0:0:73:
329,192,27529,1,8,0:0:0:73:
329,192,27994,1,8,0:0:0:73:
36,192,28226,128,0,29157:0:0:0:73:
256,192,28459,1,8,0:0:0:73:
256,192,28924,1,8,0:0:0:73:
329,192,29157,1,0,0:0:0:73:
402,192,29273,1,0,0:0:0:73:
475,192,29389,1,8,0:0:0:73:
36,192,29622,1,0,0:0:0:73:
109,192,29738,1,0,0:0:0:73:
182,192,29854,1,8,0:0:0:73:
329,192,30087,1,0,0:0:0:73:
402,192,30203,1,0,0:0:0:73:
475,192,30319,1,8,0:0:0:73:
36,192,30552,1,0,0:0:0:73:
109,192,30668,1,0,0:0:0:73:
182,192,30785,1,8,0:0:0:73:
402,192,31017,128,0,31947:0:0:0:73:
256,192,31250,1,8,0:0:0:73:
256,192,31715,1,8,0:0:0:73:
475,192,31947,128,0,32878:0:0:0:73:
329,192,32180,1,8,0:0:0:73:
329,192,32645,1,8,0:0:0:73:
36,192,32878,1,0,0:0:0:73:
256,192,32994,1,0,0:0:0:73:
402,192,33110,1,8,0:0:0:73:
36,192,33343,1,0,0:0:0:73:
256,192,33459,1,0,0:0:0:73:
402,192,33575,1,8,0:0:0:73:
109,192,33808,1,0,0:0:0:73:
256,192,33924,1,0,0:0:0:73:
402,192,34040,1,8,0:0:0:73:
109,192,34273,1,0,0:0:0:73:
256,192,34389,1,0,0:0:0:73:
402,192,34505,1,8,0:0:0:73:
475,192,34738,128,0,35668:0:0:0:73:
182,192,34970,1,8,0:0:0:73:
182,192,35436,1,8,0:0:0:73:
36,192,35668,128,0,36598:0:0:0:73:
256,192,35901,1,8,0:0:0:73:
256,192,36366,1,8,0:0:0:73:
329,192,36598,1,0,0:0:0:73:
402,192,36715,1,8,0:0:0:73:
475,192,36831,1,8,0:0:0:73:
182,192,37064,1,0,0:0:0:73:
109,192,37180,1,0,0:0:0:73:
36,192,37296,1,8,0:0:0:73:
36,192,37529,1,0,0:0:0:73:
182,192,37645,1,0,0:0:0:73:
329,192,37761,1,8,0:0:0:73:
475,192,37994,1,0,0:0:0:73:
329,192,38110,1,0,0:0:0:73:
182,192,38226,1,0,0:0:0:73:
256,192,38447,1,4,0:0:0:73:
329,192,38912,1,8,0:0:0:36:
475,192,38912,1,0,0:0:0:36:
36,192,39377,1,0,0:0:0:36:
182,192,39377,1,0,0:0:0:36:
329,192,39842,1,8,0:0:0:36:
475,192,39842,1,0,0:0:0:36:
256,192,40307,1,0,0:0:0:73:
402,192,40656,1,0,0:0:0:73:
109,192,41005,1,0,0:0:0:73:
402,192,41237,1,2,0:0:0:73:
402,192,41586,1,2,0:0:0:73:
256,192,41935,1,2,0:0:0:73:
109,192,42167,1,0,0:0:0:73:
36,192,42633,1,8,0:0:0:36:
182,192,42633,1,0,0:0:0:36:
475,192,43098,1,0,0:0:0:36:
329,192,43098,1,0,0:0:0:36:
182,192,43563,1,8,0:0:0:36:
329,192,43563,1,0,0:0:0:36:
182,192,43795,1,8,0:0:0:36:
329,192,43795,1,0,0:0:0:36:
109,192,44028,1,0,0:0:0:36:
402,192,44028,1,0,0:0:0:36:
256,192,44260,1,0,0:0:0:73:
109,192,44493,1,8,0:0:0:36:
402,192,44493,1,8,0:0:0:36:
256,192,44726,1,0,0:0:0:73:
329,192,44958,1,8,0:0:0:73:
182,192,45074,1,0,0:0:0:73:
36,192,45191,1,0,0:0:0:73:
475,192,45423,1,8,0:0:0:73:
329,192,45540,1,8,0:0:0:73:
182,192,45656,1,0,0:0:0:73:
36,192,45772,1,8,0:0:0:73:
256,192,45888,1,4,0:0:0:73:
182,192,46120,1,8,0:0:0:36:
109,192,46120,1,0,0:0:0:36:
256,192,46353,1,0,0:0:0:73:
402,192,46585,1,8,0:0:0:36:
329,192,46585,1,8,0:0:0:36:
256,192,46818,1,0,0:0:0:73:
36,192,47050,1,8,0:0:0:36:
182,192,47050,1,8,0:0:0:36:
256,192,47283,1,0,0:0:0:73:
329,192,47515,1,8,0:0:0:36:
475,192,47515,1,8,0:0:0:36:
256,192,47748,1,0,0:0:0:73:
402,192,47981,1,8,0:0:0:36:
475,192,47981,1,8,0:0:0:36:
256,192,48213,1,0,0:0:0:73:
109,192,48446,1,8,0:0:0:36:
36,192,48446,1,8,0:0:0:36:
256,192,48678,1,0,0:0:0:73:
182,192,48911,1,8,0:0:0:36:
329,192,48911,1,0,0:0:0:36:
256,192,49143,1,0,0:0:0:73:
36,192,49376,1,8,0:0:0:36:
475,192,49376,1,0,0:0:0:36:
256,192,49608,1,0,0:0:0:73:
36,192,49841,1,8,0:0:0:36:
182,192,49841,1,8,0:0:0:36:
256,192,50074,1,0,0:0:0:73:
329,192,50306,5,8,0:0:0:36:
475,192,50306,1,0,0:0:0:36:
256,192,50539,1,0,0:0:0:73:
36,192,50771,1,8,0:0:0:36:
402,192,50771,1,8,0:0:0:36:
256,192,51004,1,0,0:0:0:73:
109,192,51236,1,8,0:0:0:36:
475,192,51236,1,0,0:0:0:36:
256,192,51469,1,0,0:0:0:73:
256,192,51701,1,8,0:0:0:73:
256,192,51934,1,8,0:0:0:73:
109,192,52283,1,8,0:0:0:73:
182,192,52399,1,8,0:0:0:73:
329,192,52515,1,8,0:0:0:73:
402,192,52632,1,8,0:0:0:73:
36,192,53324,1,4,0:0:0:36:
475,192,53324,1,12,0:0:0:36:
402,192,53556,1,0,0:0:0:73:
402,192,53789,1,8,0:0:0:36:
109,192,53789,1,8,0:0:0:36:
329,192,54021,1,0,0:0:0:73:
329,192,54254,1,0,0:0:0:73:
182,192,54486,1,0,0:0:0:73:
182,192,54719,1,8,0:0:0:36:
329,192,54719,1,8,0:0:0:36:
36,192,54951,1,0,0:0:0:73:
109,192,55184,1,4,0:0:0:36:
402,192,55184,1,0,0:0:0:36:
475,192,55417,1,0,0:0:0:73:
329,192,55649,1,8,0:0:0:36:
182,192,55649,1,8,0:0:0:36:
402,192,55882,1,0,0:0:0:73:
402,192,56114,1,0,0:0:0:36:
109,192,56114,1,0,0:0:0:36:
256,192,56347,1,0,0:0:0:73:
182,192,56579,1,8,0:0:0:36:
329,192,56579,1,0,0:0:0:36:
36,192,56812,1,0,0:0:0:73:
329,192,57044,1,4,0:0:0:36:
182,192,57044,1,4,0:0:0:36:
402,192,57277,1,0,0:0:0:73:
36,192,57510,1,8,0:0:0:36:
475,192,57510,1,8,0:0:0:36:
402,192,57742,1,0,0:0:0:73:
329,192,57975,1,0,0:0:0:36:
256,192,57975,1,0,0:0:0:36:
182,192,58207,1,0,0:0:0:73:
109,192,58440,1,8,0:0:0:36:
402,192,58440,1,8,0:0:0:36:
36,192,58672,1,0,0:0:0:73:
182,192,58905,1,4,0:0:0:36:
329,192,58905,1,4,0:0:0:36:
402,192,59137,1,0,0:0:0:73:
329,192,59370,1,8,0:0:0:36:
475,192,59370,1,0,0:0:0:36:
36,192,59603,1,8,0:0:0:36:
182,192,59603,1,0,0:0:0:36:
109,192,59835,1,8,0:0:0:36:
402,192,59835,1,4,0:0:0:36:
475,192,60068,1,8,0:0:0:73:
402,192,60184,1,8,0:0:0:73:
329,192,60300,1,4,0:0:0:73:
182,192,60417,1,8,0:0:0:73:
256,192,60533,1,8,0:0:0:73:
109,192,60649,1,8,0:0:0:73:
36,192,60765,1,4,0:0:0:73:
402,192,60997,1,8,0:0:0:36:
475,192,60997,1,0,0:0:0:36:
256,192,61230,1,0,0:0:0:73:
329,192,61462,1,8,0:0:0:36:
402,192,61462,1,8,0:0:0:36:
256,192,61695,1,0,0:0:0:73:
109,192,61927,1,8,0:0:0:36:
36,192,61927,1,8,0:0:0:36:
256,192,62160,1,0,0:0:0:73:
182,192,62392,1,8,0:0:0:36:
109,192,62392,1,0,0:0:0:36:
256,192,62625,1,0,0:0:0:73:
475,192,62858,1,8,0:0:0:36:
182,192,62858,1,8,0:0:0:36:
256,192,63090,1,0,0:0:0:73:
402,192,63323,1,8,0:0:0:36:
109,192,63323,1,8,0:0:0:36:
256,192,63555,1,0,0:0:0:73:
329,192,63788,1,8,0:0:0:36:
36,192,63788,1,8,0:0:0:36:
256,192,64020,1,0,0:0:0:73:
256,192,64253,1,8,0:0:0:36:
475,192,64253,1,8,0:0:0:36:
36,192,64485,1,0,0:0:0:73:
475,192,64718,1,8,0:0:0:73:
109,192,64951,5,0,0:0:0:73:
402,192,65183,1,8,0:0:0:73:
182,192,65648,1,0,0:0:0:100:
329,192,65881,1,0,0:0:0:100:
402,192,66113,128,4,69369:0:0:0:0:
109,192,66113,128,4,69369:0:0:0:0:
256,192,66113,1,0,0:0:0:0:
