osu file format v13

[General]
AudioFilename: HNI Op.mp3
AudioLeadIn: 0
PreviewTime: 45598
Countdown: 0
SampleSet: Normal
StackLeniency: 0.7
Mode: 3
LetterboxInBreaks: 0
SpecialStyle: 0
WidescreenStoryboard: 1

[Editor]
Bookmarks: 60769
DistanceSpacing: 1
BeatDivisor: 4
GridSize: 8
TimelineZoom: 0.9999997

[Metadata]
Title:HEKIREKI (TV Size)
TitleUnicode:HEKIREKI (TV Size)
Artist:LAST ALLIANCE
ArtistUnicode:ラスト・アライアンス
Creator:Miyamoto Usagi
Version:7K EZ 'Roadwork'
Source:はじめの一歩: New Challenger
Tags:Hajime no Ippo Anime Opening Boxing Rock
BeatmapID:384382
BeatmapSetID:156937

[Difficulty]
HPDrainRate:6
CircleSize:7
OverallDifficulty:7
ApproachRate:5
SliderMultiplier:1.4
SliderTickRate:1

[Events]
//Background and Video events
0,0,"hajime-no-ippo-2551135-1920x1200.jpg",0,0
Video,0,"Hajime no Ippo New Challenger Opening.flv"
//Break Periods
//Storyboard Layer 0 (Background)
//Storyboard Layer 1 (Fail)
//Storyboard Layer 2 (Pass)
//Storyboard Layer 3 (Foreground)
//Storyboard Sound Samples
//Background Colour Transformations
3,100,163,162,255

[TimingPoints]
1250,465.116279069767,4,1,1,80,1,0
38447,465.116279069767,4,1,1,80,1,0
53324,465.116279069767,4,1,1,80,1,1
65300,-100,4,1,1,80,0,0

[HitObjects]
402,192,785,5,0,0:0:0:0:
256,192,1133,128,4,1482:0:0:0:0:
36,192,1482,1,8,0:0:0:0:
475,192,1947,128,8,2413:0:0:0:0:
109,192,2413,1,0,0:0:0:0:
36,192,2878,128,0,3343:0:0:0:0:
329,192,3343,1,8,0:0:0:0:
402,192,3575,1,0,0:0:0:0:
182,192,3808,128,8,4273:0:0:0:0:
475,192,4273,1,8,0:0:0:0:
329,192,4506,5,0,0:0:0:0:
256,192,4854,128,0,5203:0:0:0:0:
36,192,5203,1,8,0:0:0:0:
475,192,5668,128,8,6133:0:0:0:0:
109,192,6133,1,8,0:0:0:0:
109,192,6598,128,8,7063:0:0:0:0:
402,192,7063,1,0,0:0:0:0:
182,192,7296,1,0,0:0:0:0:
475,192,7529,128,8,8226:0:0:0:0:
36,192,8226,128,8,8692:0:0:0:0:
256,192,8692,1,4,0:0:0:0:
475,192,8924,1,8,0:0:0:0:
475,192,9389,1,8,0:0:0:0:
475,192,9854,1,8,0:0:0:0:
475,192,10319,1,8,0:0:0:0:
36,192,10552,128,0,10901:0:0:0:0:
475,192,10901,128,0,11250:0:0:0:0:
329,192,11250,128,8,11598:0:0:0:0:
182,192,11598,128,0,12412:0:0:0:0:
256,192,12412,1,0,0:0:0:0:
36,192,12645,1,8,0:0:0:0:
36,192,13110,1,8,0:0:0:0:
36,192,13575,1,8,0:0:0:0:
36,192,14040,1,8,0:0:0:0:
36,192,14273,128,0,14622:0:0:0:0:
182,192,14622,128,0,14971:0:0:0:0:
329,192,14971,128,0,15436:0:0:0:0:
475,192,15436,128,8,16133:0:0:0:0:
256,192,16133,1,0,0:0:0:0:
182,192,16366,1,8,0:0:0:0:
329,192,16831,1,8,0:0:0:0:
182,192,17296,1,8,0:0:0:0:
329,192,17761,1,8,0:0:0:0:
36,192,17994,128,0,18343:0:0:0:0:
475,192,18343,128,0,18692:0:0:0:0:
329,192,18692,128,8,19157:0:0:0:0:
36,192,19157,128,8,19622:0:0:0:0:
475,192,19622,1,8,0:0:0:0:
256,192,19854,1,0,0:0:0:0:
36,192,20087,1,8,0:0:0:0:
475,192,20552,1,8,0:0:0:0:
36,192,21017,1,8,0:0:0:0:
475,192,21482,1,8,0:0:0:0:
36,192,21715,128,0,22064:0:0:0:0:
182,192,22064,128,0,22412:0:0:0:0:
329,192,22412,128,0,22878:0:0:0:0:
475,192,22878,128,0,23343:0:0:0:0:
36,192,23343,1,8,0:0:0:0:
329,192,23575,128,12,24505:0:0:0:0:
182,192,24505,128,0,25436:0:0:0:0:
36,192,25436,1,0,0:0:0:0:
475,192,25668,1,8,0:0:0:0:
36,192,26133,1,8,0:0:0:0:
475,192,26598,1,8,0:0:0:0:
36,192,27064,1,8,0:0:0:0:
182,192,27296,128,0,28226:0:0:0:0:
109,192,28226,128,0,29157:0:0:0:0:
182,192,29157,1,0,0:0:0:0:
329,192,29389,1,8,0:0:0:0:
182,192,29854,1,8,0:0:0:0:
329,192,30319,1,8,0:0:0:0:
182,192,30785,1,8,0:0:0:0:
402,192,31017,128,0,31947:0:0:0:0:
475,192,31947,128,0,32878:0:0:0:0:
109,192,32877,1,0,0:0:0:0:
402,192,33110,1,8,0:0:0:0:
109,192,33575,1,8,0:0:0:0:
402,192,34040,1,8,0:0:0:0:
109,192,34505,1,8,0:0:0:0:
182,192,34738,128,0,35668:0:0:0:0:
36,192,35668,128,0,36598:0:0:0:0:
475,192,36598,1,0,0:0:0:0:
329,192,36831,1,8,0:0:0:0:
36,192,37296,1,8,0:0:0:0:
182,192,37761,1,8,0:0:0:0:
475,192,38226,1,0,0:0:0:0:
256,192,38447,1,4,0:0:0:0:
109,192,38912,1,8,0:0:0:0:
402,192,38912,1,0,0:0:0:0:
256,192,39377,1,0,0:0:0:0:
109,192,39842,1,8,0:0:0:0:
402,192,39842,1,0,0:0:0:0:
182,192,40307,1,0,0:0:0:0:
109,192,40656,1,0,0:0:0:0:
36,192,41005,1,0,0:0:0:0:
475,192,41237,1,2,0:0:0:0:
402,192,41586,1,2,0:0:0:0:
329,192,41935,1,2,0:0:0:0:
256,192,42167,1,0,0:0:0:0:
36,192,42633,1,8,0:0:0:0:
182,192,42633,1,0,0:0:0:0:
182,192,43098,1,0,0:0:0:0:
329,192,43098,1,0,0:0:0:0:
329,192,43563,1,8,0:0:0:0:
475,192,43563,1,0,0:0:0:0:
36,192,44028,1,0,0:0:0:0:
475,192,44377,1,0,0:0:0:0:
329,192,44726,1,0,0:0:0:0:
256,192,44958,1,8,0:0:0:0:
182,192,45191,1,0,0:0:0:0:
36,192,45423,1,8,0:0:0:0:
475,192,45423,1,8,0:0:0:0:
256,192,45888,1,4,0:0:0:0:
475,192,46120,1,8,0:0:0:0:
402,192,46585,1,8,0:0:0:0:
329,192,47050,1,8,0:0:0:0:
182,192,47515,1,8,0:0:0:0:
256,192,47748,1,0,0:0:0:0:
36,192,47981,1,8,0:0:0:0:
109,192,48446,1,8,0:0:0:0:
182,192,48911,1,8,0:0:0:0:
329,192,49376,1,8,0:0:0:0:
182,192,49841,1,8,0:0:0:0:
329,192,50306,5,8,0:0:0:0:
36,192,50771,1,8,0:0:0:0:
402,192,50771,1,8,0:0:0:0:
109,192,51236,1,8,0:0:0:0:
475,192,51236,1,0,0:0:0:0:
256,192,51701,1,8,0:0:0:0:
256,192,51934,1,8,0:0:0:0:
109,192,52283,1,8,0:0:0:0:
402,192,52399,1,8,0:0:0:0:
109,192,52515,1,8,0:0:0:0:
402,192,52632,1,8,0:0:0:0:
36,192,53324,1,4,0:0:0:0:
475,192,53324,1,12,0:0:0:0:
402,192,53789,1,8,0:0:0:0:
329,192,54254,1,0,0:0:0:0:
182,192,54719,1,8,0:0:0:0:
36,192,54951,1,0,0:0:0:0:
109,192,55184,1,4,0:0:0:0:
402,192,55184,1,0,0:0:0:0:
475,192,55649,1,8,0:0:0:0:
402,192,56114,1,0,0:0:0:0:
182,192,56579,1,8,0:0:0:0:
36,192,56812,1,0,0:0:0:0:
329,192,57044,1,4,0:0:0:0:
182,192,57044,1,4,0:0:0:0:
475,192,57510,1,8,0:0:0:0:
329,192,57975,1,0,0:0:0:0:
182,192,58440,1,8,0:0:0:0:
36,192,58672,1,0,0:0:0:0:
329,192,58905,1,4,0:0:0:0:
182,192,58905,1,4,0:0:0:0:
475,192,59370,1,8,0:0:0:0:
329,192,59835,1,8,0:0:0:0:
36,192,60300,1,4,0:0:0:0:
475,192,60533,1,8,0:0:0:0:
256,192,60765,1,4,0:0:0:0:
36,192,60765,1,4,0:0:0:0:
475,192,60997,1,8,0:0:0:0:
402,192,61462,1,8,0:0:0:0:
36,192,61927,1,8,0:0:0:0:
109,192,62392,1,8,0:0:0:0:
475,192,62858,1,8,0:0:0:0:
182,192,62858,1,8,0:0:0:0:
402,192,63323,1,8,0:0:0:0:
109,192,63323,1,8,0:0:0:0:
329,192,63788,1,8,0:0:0:0:
36,192,63788,1,8,0:0:0:0:
256,192,64253,1,8,0:0:0:0:
475,192,64253,1,8,0:0:0:0:
36,192,64718,1,8,0:0:0:0:
182,192,64951,5,0,0:0:0:0:
329,192,65183,1,8,0:0:0:0:
475,192,65648,1,0,0:0:0:0:
329,192,65881,1,0,0:0:0:0:
256,192,66113,128,4,69369:0:0:0:0:
