osu file format v13

[General]
AudioFilename: HNI Op.mp3
AudioLeadIn: 0
PreviewTime: 45598
Countdown: 0
SampleSet: Normal
StackLeniency: 0.7
Mode: 3
LetterboxInBreaks: 0
SpecialStyle: 0
WidescreenStoryboard: 1

[Editor]
Bookmarks: 60769
DistanceSpacing: 1
BeatDivisor: 4
GridSize: 8
TimelineZoom: 1.3

[Metadata]
Title:HEKIREKI (TV Size)
TitleUnicode:HEKIREKI (TV Size)
Artist:LAST ALLIANCE
ArtistUnicode:ラスト・アライアンス
Creator:Miyamoto Usagi
Version:7K Burst! 'Cruel Shower'
Source:はじめの一歩: New Challenger
Tags:Hajime no Ippo Anime Opening Boxing Rock
BeatmapID:384381
BeatmapSetID:156937

[Difficulty]
HPDrainRate:8.5
CircleSize:7
OverallDifficulty:8
ApproachRate:5
SliderMultiplier:1.4
SliderTickRate:1

[Events]
//Background and Video events
0,0,"hajime-no-ippo-2551135-1920x1200.jpg",0,0
Video,0,"Hajime no Ippo New Challenger Opening.flv"
//Break Periods
//Storyboard Layer 0 (Background)
//Storyboard Layer 1 (Fail)
//Storyboard Layer 2 (Pass)
//Storyboard Layer 3 (Foreground)
//Storyboard Sound Samples
//Background Colour Transformations
3,100,163,162,255

[TimingPoints]
1250,465.116279069767,4,1,1,80,1,0
38447,465.116279069767,4,1,1,80,1,0
52749,-333.333333333333,4,1,1,80,0,0
53098,-68.9655172413793,4,1,1,80,0,0
53324,465.116279069767,4,1,1,80,1,1
53324,-100,4,1,1,80,0,1
65300,-100,4,1,1,80,0,0

[HitObjects]
256,192,785,5,0,0:0:0:36:
402,192,785,1,0,0:0:0:36:
329,192,901,1,0,0:0:0:36:
475,192,901,1,0,0:0:0:36:
109,192,1017,1,0,0:0:0:36:
256,192,1017,1,0,0:0:0:36:
182,192,1133,1,0,0:0:0:18:
36,192,1133,1,0,0:0:0:18:
402,192,1133,1,4,0:0:0:18:
475,192,1133,1,4,0:0:0:18:
109,192,1250,1,0,0:0:0:73:
182,192,1366,1,0,0:0:0:73:
256,192,1482,1,0,0:0:0:24:
402,192,1482,1,8,0:0:0:24:
475,192,1482,1,0,0:0:0:24:
329,192,1599,1,0,0:0:0:73:
36,192,1715,1,0,0:0:0:73:
256,192,1831,1,0,0:0:0:73:
329,192,1947,1,8,0:0:0:24:
109,192,1947,1,0,0:0:0:24:
475,192,1947,1,0,0:0:0:24:
402,192,2064,1,0,0:0:0:73:
36,192,2180,1,0,0:0:0:73:
182,192,2296,1,0,0:0:0:73:
109,192,2412,1,0,0:0:0:73:
329,192,2413,1,8,0:0:0:36:
475,192,2413,1,0,0:0:0:36:
256,192,2529,1,0,0:0:0:73:
36,192,2645,1,0,0:0:0:73:
402,192,2761,1,0,0:0:0:73:
475,192,2877,1,0,0:0:0:73:
329,192,2878,1,0,0:0:0:36:
182,192,2878,1,8,0:0:0:36:
402,192,2994,1,0,0:0:0:73:
36,192,3110,1,0,0:0:0:73:
475,192,3226,1,0,0:0:0:73:
329,192,3343,1,8,0:0:0:24:
182,192,3343,1,0,0:0:0:24:
36,192,3343,1,0,0:0:0:24:
256,192,3459,1,0,0:0:0:73:
36,192,3575,1,0,0:0:0:73:
402,192,3692,1,0,0:0:0:73:
475,192,3808,1,0,0:0:0:24:
329,192,3808,1,0,0:0:0:24:
109,192,3808,1,8,0:0:0:24:
256,192,3924,1,0,0:0:0:73:
36,192,4040,1,0,0:0:0:73:
329,192,4157,1,0,0:0:0:73:
402,192,4273,1,0,0:0:0:24:
109,192,4273,1,8,0:0:0:24:
256,192,4273,1,0,0:0:0:24:
36,192,4389,1,0,0:0:0:73:
402,192,4505,1,0,0:0:0:36:
256,192,4505,1,0,0:0:0:36:
329,192,4622,1,0,0:0:0:36:
475,192,4622,1,0,0:0:0:36:
402,192,4738,1,0,0:0:0:24:
256,192,4738,1,8,0:0:0:24:
109,192,4738,1,0,0:0:0:24:
182,192,4854,1,0,0:0:0:36:
36,192,4854,1,0,0:0:0:36:
256,192,4971,1,0,0:0:0:73:
329,192,5087,1,0,0:0:0:73:
109,192,5203,1,0,0:0:0:24:
475,192,5203,1,0,0:0:0:24:
182,192,5203,1,8,0:0:0:24:
329,192,5319,1,0,0:0:0:73:
256,192,5436,1,0,0:0:0:73:
182,192,5552,1,0,0:0:0:73:
402,192,5668,1,0,0:0:0:24:
36,192,5668,1,0,0:0:0:24:
256,192,5668,1,8,0:0:0:24:
182,192,5785,1,0,0:0:0:73:
256,192,5901,1,0,0:0:0:73:
329,192,6017,1,0,0:0:0:73:
109,192,6133,1,0,0:0:0:24:
256,192,6133,1,8,0:0:0:24:
475,192,6133,1,0,0:0:0:24:
329,192,6250,1,0,0:0:0:73:
256,192,6366,1,0,0:0:0:73:
182,192,6482,1,0,0:0:0:73:
256,192,6598,1,8,0:0:0:73:
402,192,6599,1,0,0:0:0:36:
36,192,6599,1,0,0:0:0:36:
475,192,6715,1,0,0:0:0:73:
329,192,6831,1,0,0:0:0:73:
402,192,6947,1,0,0:0:0:73:
475,192,7063,1,0,0:0:0:73:
256,192,7064,1,8,0:0:0:36:
109,192,7064,1,0,0:0:0:36:
329,192,7180,1,0,0:0:0:73:
182,192,7296,1,0,0:0:0:73:
256,192,7413,1,0,0:0:0:73:
109,192,7529,1,0,0:0:0:18:
475,192,7529,1,0,0:0:0:18:
329,192,7529,1,8,0:0:0:18:
402,192,7529,1,4,0:0:0:18:
182,192,7645,1,0,0:0:0:73:
36,192,7761,1,0,0:0:0:73:
109,192,7878,1,0,0:0:0:73:
36,192,7994,1,0,0:0:0:24:
402,192,7994,1,0,0:0:0:24:
256,192,7994,1,0,0:0:0:24:
182,192,8110,1,8,0:0:0:36:
109,192,8110,1,0,0:0:0:36:
475,192,8226,1,0,0:0:0:24:
329,192,8226,1,8,0:0:0:24:
402,192,8226,1,0,0:0:0:24:
256,192,8343,1,0,0:0:0:36:
109,192,8343,1,0,0:0:0:36:
36,192,8459,1,0,0:0:0:36:
182,192,8459,1,0,0:0:0:36:
256,192,8575,1,0,0:0:0:73:
329,192,8633,1,0,0:0:0:73:
402,192,8691,1,0,0:0:0:24:
109,192,8691,1,4,0:0:0:24:
36,192,8691,1,0,0:0:0:24:
475,192,8692,1,0,0:0:0:73:
256,192,8924,1,0,0:0:0:24:
402,192,8924,1,8,0:0:0:24:
36,192,8924,1,0,0:0:0:24:
182,192,9040,1,0,0:0:0:73:
256,192,9156,1,0,0:0:0:73:
109,192,9157,1,0,0:0:0:73:
36,192,9273,1,0,0:0:0:73:
329,192,9389,1,0,0:0:0:24:
475,192,9389,1,8,0:0:0:24:
109,192,9389,1,0,0:0:0:24:
182,192,9505,1,0,0:0:0:73:
109,192,9622,1,0,0:0:0:36:
256,192,9622,1,0,0:0:0:36:
109,192,9854,1,0,0:0:0:24:
256,192,9854,1,0,0:0:0:24:
329,192,9854,1,8,0:0:0:24:
182,192,9971,1,0,0:0:0:73:
36,192,10087,1,0,0:0:0:36:
256,192,10087,1,0,0:0:0:36:
182,192,10203,1,0,0:0:0:73:
256,192,10319,1,0,0:0:0:24:
402,192,10319,1,8,0:0:0:24:
475,192,10319,1,0,0:0:0:24:
109,192,10436,1,0,0:0:0:73:
36,192,10552,1,0,0:0:0:24:
182,192,10552,1,0,0:0:0:24:
329,192,10552,1,0,0:0:0:24:
109,192,10668,1,0,0:0:0:73:
36,192,10784,1,0,0:0:0:36:
329,192,10784,1,0,0:0:0:36:
182,192,10785,1,8,0:0:0:73:
256,192,10901,1,0,0:0:0:36:
402,192,10901,1,0,0:0:0:36:
329,192,11017,1,0,0:0:0:73:
402,192,11133,1,0,0:0:0:73:
329,192,11250,1,8,0:0:0:24:
475,192,11250,1,0,0:0:0:24:
182,192,11250,1,0,0:0:0:24:
256,192,11366,1,0,0:0:0:73:
182,192,11482,1,0,0:0:0:73:
109,192,11598,1,0,0:0:0:36:
256,192,11598,1,0,0:0:0:36:
475,192,11715,1,0,0:0:0:24:
36,192,11715,1,0,0:0:0:24:
329,192,11715,1,8,0:0:0:24:
402,192,11831,1,0,0:0:0:73:
329,192,11947,1,0,0:0:0:73:
256,192,12064,1,0,0:0:0:73:
475,192,12180,1,0,0:0:0:24:
182,192,12180,1,8,0:0:0:24:
109,192,12180,1,0,0:0:0:24:
402,192,12296,1,0,0:0:0:73:
475,192,12412,1,0,0:0:0:36:
36,192,12412,1,0,0:0:0:36:
182,192,12645,1,0,0:0:0:24:
256,192,12645,1,8,0:0:0:24:
36,192,12645,1,0,0:0:0:24:
329,192,12761,1,0,0:0:0:73:
256,192,12877,1,0,0:0:0:73:
402,192,12878,1,0,0:0:0:73:
109,192,12994,1,0,0:0:0:73:
475,192,13110,1,0,0:0:0:24:
402,192,13110,1,0,0:0:0:24:
182,192,13110,1,8,0:0:0:24:
256,192,13226,1,0,0:0:0:73:
109,192,13343,1,0,0:0:0:36:
329,192,13343,1,0,0:0:0:36:
182,192,13575,1,0,0:0:0:24:
256,192,13575,1,8,0:0:0:24:
475,192,13575,1,0,0:0:0:24:
402,192,13692,1,0,0:0:0:73:
329,192,13808,1,0,0:0:0:36:
36,192,13808,1,0,0:0:0:36:
109,192,13924,1,0,0:0:0:73:
402,192,14040,1,0,0:0:0:24:
256,192,14040,1,8,0:0:0:24:
475,192,14040,1,0,0:0:0:24:
109,192,14157,1,0,0:0:0:73:
36,192,14273,1,0,0:0:0:24:
329,192,14273,1,0,0:0:0:24:
182,192,14273,1,0,0:0:0:24:
402,192,14389,1,0,0:0:0:73:
475,192,14505,1,0,0:0:0:24:
256,192,14505,1,8,0:0:0:24:
36,192,14505,1,0,0:0:0:24:
182,192,14622,1,0,0:0:0:36:
329,192,14622,1,0,0:0:0:36:
256,192,14738,1,0,0:0:0:73:
329,192,14854,1,0,0:0:0:73:
402,192,14970,1,0,0:0:0:36:
475,192,14970,1,0,0:0:0:36:
182,192,14971,1,8,0:0:0:73:
109,192,15087,1,0,0:0:0:73:
182,192,15203,1,0,0:0:0:73:
256,192,15319,1,0,0:0:0:73:
475,192,15436,5,0,0:0:0:24:
329,192,15436,1,8,0:0:0:24:
182,192,15436,1,0,0:0:0:24:
109,192,15552,1,0,0:0:0:73:
36,192,15668,1,0,0:0:0:73:
109,192,15785,1,0,0:0:0:73:
36,192,15901,1,0,0:0:0:24:
402,192,15901,1,0,0:0:0:24:
256,192,15901,1,8,0:0:0:24:
182,192,16017,1,0,0:0:0:73:
109,192,16133,1,0,0:0:0:36:
256,192,16133,1,0,0:0:0:36:
256,192,16366,1,8,0:0:0:24:
329,192,16366,1,0,0:0:0:24:
475,192,16366,1,0,0:0:0:24:
109,192,16482,1,0,0:0:0:73:
36,192,16598,1,0,0:0:0:36:
329,192,16598,1,0,0:0:0:36:
256,192,16715,1,0,0:0:0:73:
109,192,16831,1,0,0:0:0:24:
182,192,16831,1,8,0:0:0:24:
475,192,16831,1,0,0:0:0:24:
329,192,16947,1,0,0:0:0:73:
36,192,17063,1,0,0:0:0:73:
256,192,17064,1,0,0:0:0:73:
475,192,17296,1,0,0:0:0:24:
402,192,17296,1,8,0:0:0:24:
36,192,17296,1,0,0:0:0:24:
182,192,17412,1,0,0:0:0:73:
109,192,17529,1,0,0:0:0:36:
329,192,17529,1,0,0:0:0:36:
402,192,17645,1,0,0:0:0:73:
109,192,17761,1,0,0:0:0:24:
329,192,17761,1,8,0:0:0:24:
475,192,17761,1,0,0:0:0:24:
36,192,17878,1,0,0:0:0:73:
475,192,17994,1,0,0:0:0:24:
329,192,17994,1,0,0:0:0:24:
109,192,17994,1,0,0:0:0:24:
402,192,18110,1,0,0:0:0:73:
256,192,18226,1,8,0:0:0:24:
109,192,18226,1,0,0:0:0:24:
475,192,18226,1,0,0:0:0:24:
36,192,18343,1,0,0:0:0:36:
329,192,18343,1,0,0:0:0:36:
402,192,18459,1,0,0:0:0:73:
329,192,18575,1,0,0:0:0:73:
256,192,18691,1,0,0:0:0:36:
182,192,18691,1,8,0:0:0:36:
402,192,18692,1,0,0:0:0:73:
36,192,18808,1,0,0:0:0:73:
475,192,18924,1,0,0:0:0:73:
256,192,19040,1,0,0:0:0:73:
109,192,19157,1,0,0:0:0:24:
182,192,19157,1,8,0:0:0:24:
475,192,19157,1,0,0:0:0:24:
36,192,19273,1,0,0:0:0:73:
329,192,19389,1,0,0:0:0:73:
402,192,19505,1,0,0:0:0:73:
329,192,19622,1,8,0:0:0:24:
256,192,19622,1,0,0:0:0:24:
475,192,19622,1,0,0:0:0:24:
109,192,19738,1,0,0:0:0:73:
475,192,19854,1,0,0:0:0:36:
36,192,19854,1,0,0:0:0:36:
109,192,20087,1,0,0:0:0:24:
182,192,20087,1,0,0:0:0:24:
329,192,20087,1,8,0:0:0:24:
256,192,20203,1,0,0:0:0:73:
36,192,20319,1,0,0:0:0:36:
402,192,20319,1,0,0:0:0:36:
329,192,20436,1,0,0:0:0:73:
36,192,20552,1,0,0:0:0:24:
109,192,20552,1,0,0:0:0:24:
475,192,20552,1,8,0:0:0:24:
402,192,20668,1,0,0:0:0:73:
329,192,20784,1,0,0:0:0:73:
182,192,20785,1,0,0:0:0:73:
329,192,21017,1,0,0:0:0:24:
475,192,21017,1,0,0:0:0:24:
402,192,21017,1,8,0:0:0:24:
182,192,21133,1,0,0:0:0:73:
36,192,21250,1,0,0:0:0:36:
256,192,21250,1,0,0:0:0:36:
475,192,21366,1,0,0:0:0:73:
109,192,21482,1,0,0:0:0:24:
256,192,21482,1,0,0:0:0:24:
329,192,21482,1,8,0:0:0:24:
182,192,21598,1,0,0:0:0:73:
402,192,21715,1,0,0:0:0:24:
109,192,21715,1,0,0:0:0:24:
36,192,21715,1,0,0:0:0:24:
475,192,21831,1,0,0:0:0:73:
402,192,21889,1,0,0:0:0:73:
329,192,21947,1,8,0:0:0:36:
36,192,21947,1,0,0:0:0:36:
256,192,22064,1,0,0:0:0:73:
109,192,22180,1,0,0:0:0:73:
36,192,22296,1,8,0:0:0:36:
329,192,22296,1,0,0:0:0:36:
182,192,22412,1,0,0:0:0:73:
36,192,22529,1,0,0:0:0:73:
109,192,22587,1,0,0:0:0:73:
182,192,22645,1,8,0:0:0:36:
329,192,22645,1,0,0:0:0:36:
402,192,22761,1,0,0:0:0:73:
475,192,22878,1,0,0:0:0:36:
256,192,22878,1,0,0:0:0:36:
329,192,22994,1,8,0:0:0:36:
109,192,22994,1,0,0:0:0:36:
36,192,23110,1,0,0:0:0:36:
402,192,23110,1,0,0:0:0:36:
109,192,23226,1,0,0:0:0:36:
475,192,23226,1,0,0:0:0:36:
182,192,23343,1,8,0:0:0:36:
402,192,23343,1,0,0:0:0:36:
256,192,23459,1,0,0:0:0:73:
329,192,23517,1,0,0:0:0:73:
36,192,23575,1,0,0:0:0:14:
402,192,23575,1,0,0:0:0:14:
109,192,23575,1,4,0:0:0:14:
475,192,23575,1,0,0:0:0:14:
182,192,23575,1,8,0:0:0:14:
256,192,23808,1,8,0:0:0:24:
182,192,23808,1,0,0:0:0:24:
402,192,23808,1,0,0:0:0:24:
256,192,24040,1,0,0:0:0:73:
256,192,24157,1,0,0:0:0:73:
182,192,24273,1,0,0:0:0:24:
329,192,24273,1,0,0:0:0:24:
256,192,24273,1,8,0:0:0:24:
475,192,24505,1,0,0:0:0:18:
182,192,24505,1,0,0:0:0:18:
36,192,24505,1,0,0:0:0:18:
402,192,24505,1,0,0:0:0:18:
256,192,24738,1,8,0:0:0:24:
109,192,24738,1,0,0:0:0:24:
329,192,24738,1,0,0:0:0:24:
256,192,24971,1,0,0:0:0:73:
256,192,25087,1,0,0:0:0:73:
329,192,25203,1,0,0:0:0:24:
182,192,25203,1,0,0:0:0:24:
256,192,25203,1,8,0:0:0:24:
36,192,25319,1,0,0:0:0:73:
109,192,25436,1,0,0:0:0:36:
475,192,25436,1,0,0:0:0:36:
402,192,25552,1,0,0:0:0:73:
475,192,25668,1,8,0:0:0:36:
36,192,25668,1,0,0:0:0:36:
329,192,25785,1,0,0:0:0:73:
402,192,25901,1,0,0:0:0:36:
109,192,25901,1,0,0:0:0:36:
256,192,26017,1,0,0:0:0:73:
36,192,26133,1,0,0:0:0:36:
329,192,26133,1,8,0:0:0:36:
182,192,26250,1,0,0:0:0:73:
256,192,26366,1,0,0:0:0:36:
402,192,26366,1,0,0:0:0:36:
109,192,26482,1,0,0:0:0:73:
475,192,26598,1,0,0:0:0:36:
182,192,26598,1,8,0:0:0:36:
36,192,26715,1,0,0:0:0:73:
109,192,26831,1,0,0:0:0:36:
402,192,26831,1,0,0:0:0:36:
36,192,26947,1,0,0:0:0:73:
182,192,27064,1,0,0:0:0:36:
475,192,27064,1,8,0:0:0:36:
329,192,27180,1,0,0:0:0:73:
256,192,27296,1,0,0:0:0:18:
475,192,27296,1,0,0:0:0:18:
36,192,27296,1,0,0:0:0:18:
402,192,27296,1,0,0:0:0:18:
182,192,27529,1,0,0:0:0:24:
256,192,27529,1,8,0:0:0:24:
402,192,27529,1,0,0:0:0:24:
256,192,27761,1,0,0:0:0:73:
256,192,27878,1,0,0:0:0:73:
402,192,27994,1,0,0:0:0:24:
109,192,27994,1,0,0:0:0:24:
256,192,27994,1,8,0:0:0:24:
36,192,28226,1,0,0:0:0:18:
329,192,28226,1,0,0:0:0:18:
475,192,28226,1,0,0:0:0:18:
109,192,28226,1,0,0:0:0:18:
402,192,28459,1,0,0:0:0:24:
256,192,28459,1,0,0:3:0:24:
182,192,28459,1,8,0:0:0:24:
256,192,28692,1,0,0:0:0:73:
256,192,28808,1,0,0:0:0:73:
109,192,28924,1,0,0:0:0:24:
402,192,28924,1,8,0:0:0:24:
256,192,28924,1,0,0:3:0:24:
329,192,29040,1,0,0:0:0:73:
475,192,29157,1,0,0:0:0:36:
36,192,29157,1,0,0:0:0:36:
109,192,29273,1,0,0:0:0:73:
36,192,29389,1,0,0:0:0:36:
475,192,29389,1,8,0:0:0:36:
182,192,29505,1,0,0:0:0:73:
109,192,29622,1,0,0:0:0:36:
402,192,29622,1,0,0:0:0:36:
256,192,29738,1,0,0:0:0:73:
475,192,29854,1,8,0:0:0:36:
182,192,29854,1,0,0:0:0:36:
329,192,29971,1,0,0:0:0:73:
256,192,30087,1,0,0:0:0:36:
36,192,30087,1,0,0:0:0:36:
402,192,30203,1,0,0:0:0:73:
36,192,30319,1,8,0:0:0:36:
329,192,30319,1,0,0:0:0:36:
475,192,30436,1,0,0:0:0:73:
402,192,30552,1,0,0:0:0:36:
109,192,30552,1,0,0:0:0:36:
475,192,30668,1,0,0:0:0:73:
329,192,30785,1,0,0:0:0:36:
36,192,30785,1,8,0:0:0:36:
256,192,30901,1,0,0:0:0:73:
182,192,31017,1,0,0:0:0:18:
36,192,31017,1,0,0:0:0:18:
475,192,31017,1,0,0:0:0:18:
329,192,31017,1,0,0:0:0:18:
256,192,31250,1,0,0:0:0:24:
402,192,31250,1,8,0:0:0:24:
329,192,31250,1,0,0:0:0:24:
256,192,31482,1,0,0:0:0:73:
256,192,31598,1,0,0:0:0:73:
182,192,31715,1,0,0:0:0:24:
329,192,31715,1,0,0:0:0:24:
109,192,31715,1,8,0:0:0:24:
475,192,31947,1,0,0:0:0:18:
36,192,31947,1,0,0:0:0:18:
329,192,31947,1,0,0:0:0:18:
402,192,31947,1,0,0:0:0:18:
182,192,32180,1,0,0:0:0:24:
256,192,32180,1,8,0:0:0:24:
109,192,32180,1,0,0:0:0:24:
256,192,32412,1,0,0:0:0:73:
256,192,32529,1,0,0:0:0:73:
182,192,32645,1,0,0:0:0:24:
329,192,32645,1,0,0:0:0:24:
109,192,32645,1,8,0:0:0:24:
256,192,32761,1,0,0:0:0:73:
402,192,32877,1,0,0:0:0:36:
475,192,32877,1,0,0:0:0:36:
182,192,32878,1,0,0:0:0:73:
256,192,32994,1,0,0:0:0:73:
329,192,33110,1,0,0:0:0:36:
402,192,33110,1,8,0:0:0:36:
256,192,33226,1,0,0:0:0:73:
182,192,33343,1,0,0:0:0:36:
109,192,33343,1,0,0:0:0:36:
256,192,33459,1,0,0:0:0:73:
36,192,33575,1,0,0:0:0:36:
109,192,33575,1,8,0:0:0:36:
256,192,33692,1,0,0:0:0:73:
329,192,33808,1,0,0:0:0:36:
475,192,33808,1,0,0:0:0:36:
256,192,33924,1,0,0:0:0:73:
182,192,34040,1,0,0:0:0:36:
402,192,34040,1,8,0:0:0:36:
256,192,34157,1,0,0:0:0:73:
109,192,34273,1,0,0:0:0:36:
329,192,34273,1,0,0:0:0:36:
256,192,34389,1,0,0:0:0:73:
182,192,34505,1,8,0:0:0:36:
36,192,34505,1,0,0:0:0:36:
256,192,34622,1,0,0:0:0:73:
36,192,34738,1,0,0:0:0:18:
402,192,34738,1,0,0:0:0:18:
475,192,34738,1,0,0:0:0:18:
109,192,34738,1,0,0:0:0:18:
109,192,34971,1,0,0:0:0:24:
402,192,34971,1,0,0:0:0:24:
256,192,34971,1,8,0:0:0:24:
256,192,35203,1,0,0:0:0:73:
256,192,35319,1,0,0:0:0:73:
329,192,35436,1,0,0:0:0:24:
182,192,35436,1,0,0:0:0:24:
256,192,35436,1,8,0:0:0:24:
402,192,35668,1,0,0:0:0:18:
36,192,35668,1,0,0:0:0:18:
109,192,35668,1,0,0:0:0:18:
475,192,35668,1,0,0:0:0:18:
402,192,35901,1,0,0:0:0:24:
109,192,35901,1,0,0:0:0:24:
256,192,35901,1,8,0:0:0:24:
256,192,36133,1,0,0:0:0:73:
256,192,36250,1,0,0:0:0:73:
402,192,36366,1,0,0:0:0:24:
109,192,36366,1,0,0:0:0:24:
256,192,36366,1,8,0:0:0:24:
256,192,36482,1,0,0:0:0:73:
475,192,36598,1,0,0:0:0:24:
402,192,36598,1,0,0:0:0:24:
36,192,36598,1,0,0:0:0:24:
329,192,36715,1,8,0:0:0:73:
256,192,36831,1,8,0:0:0:36:
182,192,36831,1,0,0:0:0:36:
109,192,36947,1,0,0:0:0:24:
402,192,36947,1,0,0:0:0:24:
329,192,36947,1,0,0:0:0:24:
256,192,37063,1,0,0:0:0:73:
475,192,37180,1,0,0:0:0:24:
36,192,37180,1,0,0:0:0:24:
109,192,37180,1,0,0:0:0:24:
256,192,37296,1,8,0:0:0:73:
109,192,37412,1,0,0:0:0:24:
402,192,37412,1,0,0:0:0:24:
475,192,37412,1,0,0:0:0:24:
36,192,37529,1,0,0:0:0:36:
182,192,37529,1,0,0:0:0:36:
36,192,37645,1,0,0:0:0:73:
329,192,37761,1,8,0:0:0:36:
402,192,37761,1,0,0:0:0:36:
402,192,37877,1,0,0:0:0:36:
329,192,37877,1,8,0:0:0:36:
256,192,37994,1,0,0:0:0:73:
256,192,38110,1,0,0:0:0:73:
475,192,38226,1,0,0:0:0:36:
36,192,38226,1,0,0:0:0:36:
475,192,38343,1,0,0:0:0:73:
402,192,38401,1,0,0:0:0:73:
36,192,38447,1,0,0:0:0:18:
109,192,38447,1,0,0:0:0:18:
329,192,38447,1,0,0:0:0:18:
182,192,38447,1,4,0:0:0:18:
182,192,38679,1,0,0:0:0:36:
402,192,38679,1,0,0:0:0:36:
109,192,38795,1,0,0:0:0:36:
329,192,38795,1,0,0:0:0:36:
402,192,38912,1,0,0:0:0:24:
475,192,38912,1,0,0:0:0:24:
256,192,38912,1,8,0:0:0:24:
402,192,39144,1,0,0:0:0:36:
256,192,39144,1,0,0:0:0:36:
475,192,39260,1,0,0:0:0:36:
329,192,39260,1,0,0:0:0:36:
36,192,39377,1,0,0:0:0:24:
256,192,39377,1,0,0:0:0:24:
182,192,39377,1,0,0:0:0:24:
256,192,39609,1,0,0:0:0:36:
402,192,39609,1,0,0:0:0:36:
109,192,39726,1,0,0:0:0:36:
36,192,39726,1,0,0:0:0:36:
402,192,39842,1,0,0:0:0:24:
475,192,39842,1,0,0:0:0:24:
256,192,39842,1,8,0:0:0:24:
329,192,39958,1,0,0:0:0:73:
182,192,40074,1,0,0:0:0:36:
256,192,40074,1,0,0:0:0:36:
109,192,40191,1,0,0:0:0:73:
36,192,40307,1,0,0:0:0:24:
475,192,40307,1,0,0:0:0:24:
256,192,40307,1,0,0:0:0:24:
329,192,40540,1,0,0:0:0:24:
109,192,40540,1,0,0:0:0:24:
36,192,40540,1,0,0:0:0:24:
475,192,40656,1,0,0:0:0:18:
402,192,40656,1,0,0:0:0:18:
182,192,40656,1,0,0:0:0:18:
256,192,40656,1,0,0:0:0:18:
36,192,41005,1,0,0:0:0:18:
256,192,41005,1,0,0:0:0:18:
329,192,41005,1,0,0:0:0:18:
109,192,41005,1,0,0:0:0:18:
36,192,41237,1,0,0:0:0:18:
182,192,41237,1,0,0:0:0:18:
329,192,41237,1,0,0:0:0:18:
475,192,41237,1,2,0:0:0:18:
109,192,41586,1,0,0:0:0:24:
256,192,41586,1,0,0:0:0:24:
402,192,41586,1,2,0:0:0:24:
182,192,41935,1,0,0:0:0:36:
329,192,41935,1,2,0:0:0:36:
36,192,42167,1,0,0:0:0:24:
109,192,42167,1,0,0:0:0:24:
256,192,42167,1,0,0:0:0:24:
256,192,42400,1,0,0:0:0:36:
109,192,42400,1,0,0:0:0:36:
329,192,42516,1,0,0:0:0:36:
36,192,42516,1,0,0:0:0:36:
402,192,42633,1,0,0:0:0:24:
475,192,42633,1,0,0:0:0:24:
182,192,42633,1,8,0:0:0:24:
402,192,42865,1,0,0:0:0:36:
36,192,42865,1,0,0:0:0:36:
329,192,42981,1,0,0:0:0:36:
109,192,42981,1,0,0:0:0:36:
36,192,43098,1,0,0:0:0:24:
182,192,43098,1,0,0:0:0:24:
256,192,43098,1,0,0:0:0:24:
329,192,43330,1,0,0:0:0:36:
36,192,43330,1,0,0:0:0:36:
256,192,43446,1,0,0:0:0:36:
109,192,43446,1,0,0:0:0:36:
402,192,43563,1,8,0:0:0:24:
475,192,43563,1,0,0:0:0:24:
36,192,43563,1,0,0:0:0:24:
109,192,43679,1,0,0:0:0:36:
329,192,43679,1,0,0:0:0:36:
182,192,43795,1,8,0:0:0:24:
256,192,43795,1,0,0:0:0:24:
402,192,43795,1,0,0:0:0:24:
329,192,43912,1,0,0:0:0:36:
475,192,43912,1,0,0:0:0:36:
36,192,44028,1,0,0:0:0:24:
402,192,44028,1,0,0:0:0:24:
182,192,44028,1,0,0:0:0:24:
109,192,44144,1,0,0:0:0:36:
256,192,44144,1,0,0:0:0:36:
36,192,44260,1,0,0:0:0:36:
329,192,44260,1,0,0:0:0:36:
109,192,44377,1,0,0:0:0:36:
402,192,44377,1,0,0:0:0:36:
182,192,44493,1,0,0:0:0:24:
475,192,44493,1,8,0:0:0:24:
256,192,44493,1,0,0:0:0:24:
36,192,44726,1,0,0:3:0:24:
109,192,44726,1,0,0:3:0:24:
475,192,44726,1,0,0:0:0:24:
36,192,44958,1,0,0:0:0:24:
475,192,44958,1,0,0:0:0:24:
256,192,44958,1,8,0:0:0:24:
329,192,45074,1,0,0:0:0:36:
109,192,45074,1,0,0:0:0:36:
182,192,45191,1,0,0:0:0:36:
402,192,45191,1,0,0:0:0:36:
109,192,45307,1,0,0:0:0:36:
329,192,45307,1,0,0:0:0:36:
36,192,45423,1,0,0:0:0:24:
256,192,45423,1,8,0:0:0:24:
475,192,45423,1,0,0:0:0:24:
402,192,45540,1,0,0:0:0:36:
182,192,45540,1,8,0:0:0:36:
329,192,45656,1,0,0:0:0:36:
109,192,45656,1,0,0:0:0:36:
402,192,45772,1,0,0:0:0:36:
182,192,45772,1,8,0:0:0:36:
256,192,45830,1,0,0:0:0:73:
329,192,45888,1,4,0:0:0:18:
109,192,45888,1,0,0:0:0:18:
475,192,45888,1,0,0:0:0:18:
36,192,45888,1,0,0:0:0:18:
109,192,46004,1,0,0:0:0:73:
256,192,46120,1,0,0:0:0:24:
329,192,46120,1,0,0:0:0:24:
475,192,46120,1,8,0:0:0:24:
109,192,46236,1,0,0:0:0:73:
182,192,46353,1,0,0:0:0:24:
256,192,46353,1,0,0:0:0:24:
402,192,46353,1,0,0:0:0:24:
36,192,46469,1,0,0:0:0:73:
256,192,46585,1,0,0:0:0:24:
329,192,46585,1,8,0:0:0:24:
475,192,46585,1,0,0:0:0:24:
182,192,46701,1,0,0:0:0:73:
329,192,46818,1,0,0:0:0:24:
109,192,46818,1,0,0:0:0:24:
256,192,46818,1,0,0:0:0:24:
36,192,46934,1,0,0:0:0:73:
182,192,47050,1,0,0:0:0:24:
256,192,47050,1,8,0:0:0:24:
475,192,47050,1,0,0:0:0:24:
402,192,47167,1,0,0:0:0:73:
329,192,47283,1,0,0:0:0:24:
256,192,47283,1,0,0:0:0:24:
109,192,47283,1,0,0:0:0:24:
36,192,47399,1,0,0:0:0:73:
329,192,47515,1,0,0:0:0:24:
256,192,47515,1,8,0:0:0:24:
475,192,47515,1,0,0:0:0:24:
36,192,47632,1,0,0:0:0:73:
402,192,47748,1,0,0:0:0:24:
182,192,47748,1,0,0:0:0:24:
109,192,47748,1,0,0:0:0:24:
36,192,47864,1,0,0:0:0:73:
475,192,47981,1,0,0:0:0:24:
256,192,47981,1,8,0:0:0:24:
109,192,47981,1,0,0:0:0:24:
402,192,48097,1,0,0:0:0:73:
256,192,48213,1,0,0:0:0:24:
329,192,48213,1,0,0:0:0:24:
182,192,48213,1,0,0:0:0:24:
36,192,48329,1,0,0:0:0:73:
475,192,48446,1,0,0:0:0:24:
256,192,48446,1,8,0:0:0:24:
109,192,48446,1,0,0:0:0:24:
329,192,48562,1,0,0:0:0:73:
36,192,48678,1,0,0:0:0:24:
109,192,48678,1,0,0:0:0:24:
256,192,48678,1,0,0:0:0:24:
329,192,48794,1,0,0:0:0:73:
402,192,48911,1,8,0:0:0:24:
475,192,48911,1,0,0:0:0:24:
182,192,48911,1,0,0:0:0:24:
329,192,49027,1,0,0:0:0:73:
109,192,49143,1,0,0:0:0:24:
256,192,49143,1,0,0:0:0:24:
36,192,49143,1,0,0:0:0:24:
402,192,49260,1,0,0:0:0:73:
182,192,49376,1,8,0:0:0:24:
329,192,49376,1,0,0:0:0:24:
36,192,49376,1,0,0:0:0:24:
109,192,49492,1,0,0:0:0:73:
475,192,49608,1,0,0:0:0:24:
182,192,49608,1,0,0:0:0:24:
256,192,49608,1,0,0:0:0:24:
36,192,49725,1,0,0:0:0:73:
109,192,49841,1,0,0:0:0:24:
329,192,49841,1,8,0:0:0:24:
475,192,49841,1,0,0:0:0:24:
256,192,49957,1,0,0:0:0:73:
182,192,50074,1,0,0:0:0:24:
475,192,50074,1,0,0:0:0:24:
36,192,50074,1,0,0:0:0:24:
256,192,50190,1,0,0:0:0:73:
402,192,50306,1,0,0:0:0:24:
329,192,50306,1,0,0:0:0:24:
109,192,50306,1,8,0:0:0:24:
256,192,50422,1,0,0:0:0:73:
36,192,50539,1,0,0:0:0:24:
182,192,50539,1,0,0:0:0:24:
402,192,50539,1,0,0:0:0:24:
256,192,50655,1,0,0:0:0:73:
109,192,50771,1,0,0:0:0:24:
329,192,50771,1,8,0:0:0:24:
475,192,50771,1,0,0:0:0:24:
256,192,50888,1,0,0:0:0:73:
182,192,51004,1,0,0:0:0:24:
475,192,51004,1,0,0:0:0:24:
36,192,51004,1,0,0:0:0:24:
256,192,51120,1,0,0:0:0:73:
109,192,51236,1,8,0:0:0:24:
329,192,51236,1,0,0:0:0:24:
475,192,51236,1,0,0:0:0:24:
256,192,51353,1,0,0:0:0:73:
109,192,51469,1,0,0:0:0:18:
182,192,51469,1,0,0:0:0:18:
475,192,51469,1,0,0:0:0:18:
402,192,51469,1,0,0:0:0:18:
256,192,51585,1,0,0:0:0:73:
36,192,51701,1,0,0:0:0:18:
109,192,51701,1,0,0:0:0:18:
402,192,51701,1,0,0:0:0:18:
329,192,51701,1,8,0:0:0:18:
256,192,51818,1,0,0:0:0:36:
182,192,51818,1,0,0:0:0:36:
109,192,51934,1,0,0:0:0:18:
475,192,51934,1,0,0:0:0:18:
402,192,51934,1,0,0:0:0:18:
329,192,51934,1,8,0:0:0:18:
256,192,52050,1,0,0:0:0:73:
182,192,52167,1,8,0:0:0:24:
109,192,52167,1,0,0:0:0:24:
36,192,52167,1,0,0:0:0:24:
402,192,52283,1,8,0:0:0:24:
475,192,52283,1,0,0:0:0:24:
329,192,52283,1,8,0:0:0:24:
36,192,52399,1,0,0:0:0:24:
109,192,52399,1,8,0:0:0:24:
182,192,52399,1,8,0:0:0:24:
402,192,52515,1,8,0:0:0:24:
475,192,52515,1,0,0:0:0:24:
329,192,52515,1,8,0:0:0:24:
109,192,52632,1,8,0:0:0:24:
36,192,52632,1,0,0:0:0:24:
182,192,52632,1,8,0:0:0:24:
402,192,52748,1,8,0:0:0:24:
329,192,52748,1,8,0:0:0:24:
475,192,52748,1,0,0:0:0:24:
329,192,53324,1,8,0:0:0:12:
109,192,53324,1,4,0:0:0:12:
402,192,53324,1,4,0:0:0:12:
36,192,53324,1,0,0:0:0:12:
475,192,53324,1,0,0:0:0:12:
182,192,53324,1,8,0:0:0:12:
256,192,53440,1,0,0:0:0:73:
182,192,53556,1,0,0:0:0:73:
36,192,53672,1,0,0:0:0:73:
109,192,53730,1,0,0:0:0:73:
182,192,53789,1,0,0:0:0:18:
402,192,53789,1,8,0:0:0:18:
475,192,53789,1,0,0:0:0:18:
256,192,53789,1,8,0:0:0:18:
329,192,53905,1,0,0:0:0:73:
256,192,54021,1,0,0:0:0:73:
109,192,54137,1,0,0:0:0:24:
329,192,54137,1,0,0:0:0:24:
475,192,54137,1,0,0:0:0:24:
36,192,54254,1,0,0:0:0:36:
256,192,54254,1,0,0:0:0:36:
182,192,54370,1,0,0:0:0:36:
402,192,54370,1,0,0:0:0:36:
109,192,54486,1,0,0:0:0:36:
329,192,54486,1,0,0:0:0:36:
402,192,54603,1,0,0:0:0:36:
36,192,54603,1,0,0:0:0:36:
329,192,54719,1,0,0:0:0:24:
182,192,54719,1,8,0:0:0:24:
475,192,54719,1,0,0:0:0:24:
256,192,54835,1,0,0:0:0:36:
109,192,54835,1,0,0:0:0:36:
329,192,54951,1,0,0:0:0:36:
182,192,54951,1,0,0:0:0:36:
402,192,55068,1,0,0:0:0:36:
256,192,55068,1,0,0:0:0:36:
475,192,55184,1,0,0:0:0:18:
182,192,55184,1,0,0:0:0:18:
109,192,55184,1,4,0:0:0:18:
36,192,55184,1,0,0:0:0:18:
256,192,55300,1,0,0:0:0:73:
329,192,55417,1,0,0:0:0:73:
475,192,55533,1,0,0:0:0:73:
402,192,55591,1,0,0:0:0:73:
36,192,55649,1,0,0:0:0:24:
182,192,55649,1,8,0:0:0:24:
329,192,55649,1,8,0:0:0:24:
256,192,55765,1,0,0:0:0:36:
109,192,55765,1,0,0:0:0:36:
329,192,55882,1,0,0:0:0:36:
182,192,55882,1,0,0:0:0:36:
402,192,55998,1,0,0:0:0:24:
109,192,55998,1,0,0:0:0:24:
475,192,55998,1,0,0:0:0:24:
36,192,56114,1,0,0:0:0:36:
256,192,56114,1,0,0:0:0:36:
182,192,56230,1,0,0:0:0:36:
402,192,56230,1,0,0:0:0:36:
109,192,56347,1,0,0:0:0:36:
329,192,56347,1,0,0:0:0:36:
402,192,56463,1,0,0:0:0:36:
36,192,56463,1,0,0:0:0:36:
182,192,56579,1,8,0:0:0:24:
475,192,56579,1,0,0:0:0:24:
329,192,56579,1,8,0:0:0:24:
256,192,56696,1,0,0:0:0:36:
402,192,56696,1,0,0:0:0:36:
182,192,56812,1,0,0:0:0:36:
329,192,56812,1,0,0:0:0:36:
109,192,56928,1,0,0:0:0:36:
256,192,56928,1,0,0:0:0:36:
36,192,57044,1,0,0:0:0:18:
402,192,57044,1,4,0:0:0:18:
475,192,57044,1,0,0:0:0:18:
329,192,57044,1,0,0:0:0:18:
256,192,57161,1,0,0:0:0:73:
182,192,57277,1,0,0:0:0:73:
36,192,57393,1,0,0:0:0:73:
109,192,57451,1,0,0:0:0:73:
182,192,57510,1,0,0:0:0:24:
402,192,57510,1,8,0:0:0:24:
475,192,57510,1,8,0:0:0:24:
329,192,57626,1,0,0:0:0:36:
109,192,57626,1,0,0:0:0:36:
256,192,57742,1,0,0:0:0:36:
36,192,57742,1,0,0:0:0:36:
475,192,57858,1,0,0:0:0:24:
329,192,57858,1,0,0:0:0:24:
109,192,57858,1,0,0:0:0:24:
402,192,57975,1,0,0:0:0:36:
182,192,57975,1,0,0:0:0:36:
256,192,58091,1,0,0:0:0:36:
36,192,58091,1,0,0:0:0:36:
329,192,58207,1,0,0:0:0:36:
109,192,58207,1,0,0:0:0:36:
402,192,58323,1,0,0:0:0:36:
36,192,58323,1,0,0:0:0:36:
329,192,58440,1,8,0:0:0:24:
475,192,58440,1,8,0:0:0:24:
182,192,58440,1,0,0:0:0:24:
402,192,58556,1,0,0:0:0:36:
256,192,58556,1,0,0:0:0:36:
182,192,58672,1,0,0:0:0:36:
329,192,58672,1,0,0:0:0:36:
109,192,58789,1,0,0:0:0:36:
256,192,58789,1,0,0:0:0:36:
182,192,58905,1,4,0:0:0:18:
475,192,58905,1,0,0:0:0:18:
36,192,58905,1,0,0:0:0:18:
329,192,58905,1,4,0:0:0:18:
256,192,59021,1,0,0:0:0:36:
109,192,59021,1,0,0:0:0:36:
329,192,59137,1,0,0:0:0:36:
36,192,59137,1,0,0:0:0:36:
402,192,59196,1,0,0:0:0:36:
109,192,59196,1,0,0:0:0:36:
475,192,59254,1,0,0:0:0:36:
182,192,59254,1,0,0:0:0:36:
402,192,59370,1,8,0:0:0:24:
109,192,59370,1,0,0:0:0:24:
256,192,59370,1,8,0:0:0:24:
329,192,59486,1,0,0:0:0:73:
182,192,59603,1,8,0:0:0:24:
36,192,59603,1,0,0:0:0:24:
109,192,59603,1,8,0:0:0:24:
402,192,59719,1,8,0:0:0:24:
329,192,59719,1,8,0:0:0:24:
475,192,59719,1,0,0:0:0:24:
256,192,59835,1,8,0:0:0:18:
109,192,59835,1,4,0:0:0:18:
36,192,59835,1,0,0:0:0:18:
182,192,59835,1,4,0:0:0:18:
329,192,59951,1,8,0:0:0:73:
256,192,60068,1,8,0:0:0:73:
36,192,60184,1,8,0:0:0:73:
109,192,60242,1,0,0:0:0:73:
182,192,60300,1,0,0:0:0:18:
475,192,60300,1,4,0:0:0:18:
402,192,60300,1,4,0:0:0:18:
256,192,60300,1,0,0:0:0:18:
329,192,60417,1,8,0:0:0:73:
256,192,60533,1,8,0:0:0:73:
329,192,60649,1,8,0:0:0:36:
36,192,60649,1,0,0:0:0:36:
256,192,60765,1,4,0:0:0:18:
402,192,60765,1,4,0:0:0:18:
182,192,60765,1,0,0:0:0:18:
475,192,60765,1,4,0:0:0:18:
109,192,60881,1,0,0:0:0:73:
256,192,60997,1,8,0:0:0:24:
182,192,60997,1,0,0:0:0:24:
402,192,60997,1,8,0:0:0:24:
475,192,61113,1,0,0:0:0:36:
329,192,61113,1,0,0:0:0:36:
182,192,61230,1,0,0:0:0:36:
109,192,61230,1,0,0:0:0:36:
329,192,61346,1,0,0:0:0:36:
36,192,61346,1,0,0:0:0:36:
109,192,61462,1,0,0:0:0:24:
475,192,61462,1,8,0:0:0:24:
256,192,61462,1,8,0:0:0:24:
182,192,61578,1,0,0:0:0:36:
36,192,61578,1,0,0:0:0:36:
329,192,61695,1,0,0:0:0:36:
402,192,61695,1,0,0:0:0:36:
36,192,61811,1,0,0:0:0:73:
109,192,61927,1,0,0:0:0:24:
329,192,61927,1,8,0:0:0:24:
475,192,61927,1,8,0:0:0:24:
402,192,62044,1,0,0:0:0:36:
36,192,62044,1,0,0:0:0:36:
256,192,62160,1,0,0:0:0:36:
182,192,62160,1,0,0:0:0:36:
109,192,62276,1,0,0:0:0:36:
329,192,62276,1,0,0:0:0:36:
402,192,62392,1,8,0:0:0:24:
36,192,62392,1,0,0:0:0:24:
182,192,62392,1,8,0:0:0:24:
475,192,62509,1,0,0:0:0:36:
256,192,62509,1,0,0:0:0:36:
182,192,62625,1,0,0:0:0:36:
109,192,62625,1,0,0:0:0:36:
329,192,62741,1,0,0:0:0:36:
36,192,62741,1,0,0:0:0:36:
256,192,62858,1,8,0:0:0:24:
475,192,62858,1,8,0:0:0:24:
109,192,62858,1,0,0:0:0:24:
182,192,62974,1,0,0:0:0:36:
402,192,62974,1,0,0:0:0:36:
329,192,63090,1,0,0:0:0:36:
256,192,63090,1,0,0:0:0:36:
36,192,63206,1,0,0:0:0:36:
182,192,63206,1,0,0:0:0:36:
109,192,63323,1,8,0:0:0:24:
256,192,63323,1,8,0:0:0:24:
475,192,63323,1,0,0:0:0:24:
36,192,63439,1,0,0:0:0:36:
329,192,63439,1,0,0:0:0:36:
402,192,63555,1,0,0:0:0:36:
475,192,63555,1,0,0:0:0:36:
36,192,63671,1,0,0:0:0:36:
329,192,63671,1,0,0:0:0:36:
402,192,63788,1,8,0:0:0:24:
256,192,63788,1,8,0:0:0:24:
182,192,63788,1,0,0:0:0:24:
475,192,63904,1,0,0:0:0:36:
329,192,63904,1,0,0:0:0:36:
109,192,64020,1,0,0:0:0:36:
36,192,64020,1,0,0:0:0:36:
475,192,64137,1,0,0:0:0:36:
329,192,64137,1,0,0:0:0:36:
36,192,64253,1,0,0:0:0:24:
182,192,64253,1,8,0:0:0:24:
256,192,64253,1,8,0:0:0:24:
475,192,64369,1,0,0:0:0:36:
109,192,64369,1,0,0:0:0:36:
36,192,64485,1,0,0:0:0:36:
256,192,64485,1,0,0:0:0:36:
329,192,64602,1,0,0:0:0:36:
109,192,64602,1,0,0:0:0:36:
182,192,64718,1,8,0:0:0:36:
402,192,64718,1,8,0:0:0:36:
329,192,64834,1,0,0:0:0:36:
109,192,64834,1,0,0:0:0:36:
36,192,64951,1,0,0:0:0:24:
256,192,64951,1,0,0:0:0:24:
475,192,64951,1,0,0:0:0:24:
182,192,65067,1,0,0:0:0:36:
402,192,65067,1,0,0:0:0:36:
329,192,65183,1,8,0:0:0:36:
109,192,65183,1,8,0:0:0:36:
256,192,65299,1,8,0:0:0:24:
36,192,65299,1,0,0:0:0:24:
475,192,65299,1,0,0:0:0:24:
109,192,65648,1,0,0:0:0:100:
402,192,65881,1,0,0:0:0:100:
182,192,66113,1,4,0:0:0:0:
329,192,66113,1,4,0:0:0:0:
36,192,66113,128,0,69369:0:0:0:0:
475,192,66113,128,0,69369:0:0:0:0:
256,192,66113,128,0,68323:0:0:0:0:
