osu file format v12

[General]
AudioFilename: ungo.mp3
AudioLeadIn: 2000
PreviewTime: 40116
Countdown: 0
SampleSet: Normal
StackLeniency: 0.7
Mode: 1
LetterboxInBreaks: 0

[Editor]
DistanceSpacing: 1.5
BeatDivisor: 4
GridSize: 32

[Metadata]
Title:Fantasy (TV Size)
TitleUnicode:Fantasy (TV Size)
Artist:LAMA
ArtistUnicode:LAMA
Creator:Elly-chan
Version:Kantan
Source:UN-GO
Tags:ending
BeatmapID:224528
BeatmapSetID:80756

[Difficulty]
HPDrainRate:3
CircleSize:5
OverallDifficulty:3
ApproachRate:5
SliderMultiplier:1.4
SliderTickRate:1

[Events]
//Background and Video events
0,0,"UN-GO.png",1,1
//Break Periods
//Storyboard Layer 0 (Background)
//Storyboard Layer 1 (Fail)
//Storyboard Layer 2 (Pass)
//Storyboard Layer 3 (Foreground)
//Storyboard Sound Samples
//Background Colour Transformations
3,100,163,162,255

[TimingPoints]
116,500,4,1,0,60,1,0
40116,-100,4,1,0,60,0,1
56116,-100,4,1,0,60,0,0
72116,-100,4,1,0,60,0,1
87866,-100,4,1,0,60,0,0

[Colours]
Combo1 : 128,128,128
Combo2 : 192,192,192

[HitObjects]
256,192,116,1,0,0:0:0:0:
256,192,1116,1,8,0:0:0:0:
256,192,2116,1,0,0:0:0:0:
256,192,3116,1,8,0:0:0:0:
256,192,3616,1,8,0:0:0:0:
256,192,4116,1,0,0:0:0:0:
256,192,5116,1,8,0:0:0:0:
256,192,6116,1,0,0:0:0:0:
256,192,7116,1,8,0:0:0:0:
256,192,8116,1,4,0:0:0:0:
256,192,9116,1,8,0:0:0:0:
256,192,9616,1,8,0:0:0:0:
256,192,10116,1,0,0:0:0:0:
256,192,11116,1,8,0:0:0:0:
256,192,11616,1,0,0:0:0:0:
256,192,12116,1,8,0:0:0:0:
256,192,13116,1,0,0:0:0:0:
256,192,13616,1,0,0:0:0:0:
256,192,14116,1,8,0:0:0:0:
256,192,15116,1,8,0:0:0:0:
256,192,15616,1,8,0:0:0:0:
256,192,16116,1,0,0:0:0:0:
256,192,17116,1,8,0:0:0:0:
256,192,17616,1,8,0:0:0:0:
256,192,18116,1,0,0:0:0:0:
256,192,19116,1,8,0:0:0:0:
256,192,19616,1,0,0:0:0:0:
256,192,20116,1,8,0:0:0:0:
256,192,21116,1,0,0:0:0:0:
256,192,21616,1,8,0:0:0:0:
256,192,22116,1,0,0:0:0:0:
256,192,23116,1,0,0:0:0:0:
256,192,23616,1,8,0:0:0:0:
256,192,24116,1,8,0:0:0:0:
256,192,25116,1,0,0:0:0:0:
256,192,25616,1,8,0:0:0:0:
256,192,26116,1,0,0:0:0:0:
256,192,26616,1,0,0:0:0:0:
256,192,27116,1,8,0:0:0:0:
256,192,27616,1,8,0:0:0:0:
256,192,28116,1,0,0:0:0:0:
256,192,29116,1,0,0:0:0:0:
256,192,29616,1,8,0:0:0:0:
256,192,30116,1,0,0:0:0:0:
256,192,30616,1,8,0:0:0:0:
256,192,31116,1,8,0:0:0:0:
256,192,31616,1,8,0:0:0:0:
256,192,32116,1,0,0:0:0:0:
256,192,33116,1,8,0:0:0:0:
256,192,33616,1,8,0:0:0:0:
256,192,34116,1,0,0:0:0:0:
256,192,34616,1,8,0:0:0:0:
256,192,35116,1,0,0:0:0:0:
256,192,35616,1,8,0:0:0:0:
256,192,36116,1,0,0:0:0:0:
256,192,37116,1,8,0:0:0:0:
256,192,38116,1,0,0:0:0:0:
256,192,38866,1,0,0:0:0:0:
256,192,39116,1,8,0:0:0:0:
256,192,39616,1,8,0:0:0:0:
256,192,40116,1,4,0:0:0:0:
256,192,40616,1,8,0:0:0:0:
256,192,41616,1,8,0:0:0:0:
256,192,42616,1,8,0:0:0:0:
256,192,43116,1,0,0:0:0:0:
256,192,43616,1,8,0:0:0:0:
256,192,44116,1,0,0:0:0:0:
256,192,44616,1,8,0:0:0:0:
256,192,45616,1,8,0:0:0:0:
256,192,46616,1,8,0:0:0:0:
256,192,47116,1,0,0:0:0:0:
256,192,47616,1,8,0:0:0:0:
256,192,48116,1,0,0:0:0:0:
256,192,48616,1,8,0:0:0:0:
256,192,49616,1,8,0:0:0:0:
256,192,50616,1,8,0:0:0:0:
256,192,51616,1,8,0:0:0:0:
256,192,52116,1,0,0:0:0:0:
256,192,52616,1,8,0:0:0:0:
256,192,53616,1,8,0:0:0:0:
256,192,54116,1,0,0:0:0:0:
256,192,54616,1,8,0:0:0:0:
256,192,55116,1,8,0:0:0:0:
256,192,55616,1,0,0:0:0:0:
256,192,56116,1,4,0:0:0:0:
256,192,57116,1,8,0:0:0:0:
256,192,58116,1,0,0:0:0:0:
256,192,59116,1,0,0:0:0:0:
256,192,59616,1,8,0:0:0:0:
256,192,60116,1,0,0:0:0:0:
256,192,61116,1,8,0:0:0:0:
256,192,62116,1,8,0:0:0:0:
256,192,63116,1,0,0:0:0:0:
256,192,64116,1,4,0:0:0:0:
256,192,64616,1,8,0:0:0:0:
256,192,65616,1,8,0:0:0:0:
256,192,66616,1,8,0:0:0:0:
256,192,67616,1,8,0:0:0:0:
256,192,68116,1,0,0:0:0:0:
256,192,68616,1,8,0:0:0:0:
256,192,69616,1,8,0:0:0:0:
256,192,70616,1,8,0:0:0:0:
256,192,71616,1,8,0:0:0:0:
256,192,72116,1,4,0:0:0:0:
256,192,72616,1,8,0:0:0:0:
256,192,73116,1,0,0:0:0:0:
256,192,74116,1,0,0:0:0:0:
256,192,74616,1,8,0:0:0:0:
256,192,75116,1,0,0:0:0:0:
256,192,75616,1,8,0:0:0:0:
256,192,76116,1,0,0:0:0:0:
256,192,76616,1,8,0:0:0:0:
96,320,77116,1,8,0:0:0:0:
96,320,78116,1,0,0:0:0:0:
256,192,78616,1,8,0:0:0:0:
256,192,79116,1,0,0:0:0:0:
256,192,79616,1,8,0:0:0:0:
256,192,80116,1,4,0:0:0:0:
256,192,80616,1,8,0:0:0:0:
256,192,81116,1,8,0:0:0:0:
256,192,82116,1,0,0:0:0:0:
256,192,82616,1,8,0:0:0:0:
256,192,83616,1,8,0:0:0:0:
256,192,84616,1,8,0:0:0:0:
256,192,85116,1,8,0:0:0:0:
256,192,86116,1,0,0:0:0:0:
256,192,86616,1,8,0:0:0:0:
256,192,87116,1,0,0:0:0:0:
256,192,87616,1,8,0:0:0:0:
256,192,87866,1,8,0:0:0:0:
