osu file format v14

[General]
AudioFilename: Magic.mp3
AudioLeadIn: 1300
PreviewTime: 57320
Countdown: 0
SampleSet: Soft
StackLeniency: 0.7
Mode: 0
LetterboxInBreaks: 0
WidescreenStoryboard: 0

[Editor]
Bookmarks: 9287
DistanceSpacing: 0.5
BeatDivisor: 4
GridSize: 4
TimelineZoom: 1

[Metadata]
Title:Kimi no Matsu Sekai (TV Size)
TitleUnicode:君の待つ世界 (TVサイズ)
Artist:LAGOON
ArtistUnicode:LAGOON
Creator:HabiHolic
Version:Insane
Source:まじっく快斗1412
Tags:opening Kuroba Kaito 1412 IamKwaN Zan_-
BeatmapID:653326
BeatmapSetID:289900

[Difficulty]
HPDrainRate:7
CircleSize:4
OverallDifficulty:7
ApproachRate:9
SliderMultiplier:1.9
SliderTickRate:2

[Events]
//Background and Video events
0,0,"BG.jpg",0,0
Video,0,"Video.avi"
//Break Periods
//Storyboard Layer 0 (Background)
//Storyboard Layer 1 (Fail)
//Storyboard Layer 2 (Pass)
//Storyboard Layer 3 (Foreground)
//Storyboard Sound Samples

[TimingPoints]
100,338.983050847458,4,2,2,50,1,0
100,-133.333333333333,4,2,2,50,0,0
5354,327.868852459016,4,2,1,50,1,0
5517,327.868852459016,4,2,1,80,1,0
16008,-133.333333333333,4,2,1,80,0,0
21090,-100,4,2,1,80,0,0
26500,-133.333333333333,4,2,1,80,0,0
31582,-100,4,2,1,80,0,0
57484,-200,4,2,1,80,0,0
57812,-100,4,2,1,80,0,1
78795,-100,4,2,1,80,0,0

[Colours]
Combo1 : 255,128,128
Combo2 : 141,235,202
Combo3 : 226,91,46
Combo4 : 30,174,236

[HitObjects]
80,176,100,5,2,0:0:0:0:
148,108,269,2,0,L|144:36,1,71.2500027179719,0|2,0:0|0:0,0:0:0:0:
88,188,608,2,0,P|152:208|224:168,1,142.500005435944
272,100,1116,1,2,0:0:0:0:
352,156,1286,2,0,L|348:304,1,142.500005435944
256,348,1794,1,2,0:0:0:0:
103,272,1964,2,0,P|166:240|235:254,1,142.500005435944
256,348,2472,1,2,0:0:0:0:
256,348,2811,5,2,0:0:0:0:
340,256,2981,2,0,L|336:180,1,71.2500027179719,0|2,0:0|0:0,0:0:0:0:
271,120,3320,2,0,P|334:90|399:115,1,142.500005435944
464,196,3828,1,2,0:0:0:0:
328,268,3998,1,4,0:0:0:0:
256,192,4167,12,6,5354,0:0:0:0:
120,216,5680,5,2,0:0:0:0:
188,128,5844,2,0,L|184:32,1,95,8|0,0:0|0:0,0:0:0:0:
80,196,6172,1,2,0:0:0:0:
212,264,6336,2,0,P|268:272|304:256,1,95,2|8,0:0|0:0,0:0:0:0:
496,136,6664,6,0,L|304:124,1,190,2|2,0:0|0:0,0:0:0:0:
104,68,7156,1,8,0:0:0:0:
236,152,7320,1,0,0:0:0:0:
44,208,7484,1,2,0:0:0:0:
212,168,7648,2,0,L|208:72,1,95,2|8,0:0|0:0,0:0:0:0:
132,236,7976,6,0,P|208:272|300:220,1,190,2|2,0:0|0:0,0:0:0:0:
332,96,8467,1,8,0:0:0:0:
296,226,8631,1,0,0:0:0:0:
400,160,8795,2,0,P|448:164|492:148,1,95,2|2,0:0|0:0,0:0:0:0:
504,28,9123,1,8,0:0:0:0:
320,64,9287,6,0,L|220:68,1,95,0|2,0:0|0:0,0:0:0:0:
88,164,9615,2,0,L|188:168,1,95,2|8,0:0|0:0,0:0:0:0:
480,208,9943,2,0,P|488:160|480:108,1,95,0|2,0:0|0:0,0:0:0:0:
412,32,10271,1,8,0:0:0:0:
368,224,10435,1,2,0:0:0:0:
272,260,10598,6,0,P|336:316|440:288,1,190,4|2,0:0|0:0,0:0:0:0:
480,148,11090,1,8,0:0:0:0:
431,295,11254,1,2,0:0:0:0:
296,164,11418,2,0,L|200:168,1,95,2|2,0:0|0:0,0:0:0:0:
116,228,11746,1,8,0:0:0:0:
360,248,11910,6,0,P|400:176|348:72,1,190,2|2,0:0|0:0,0:0:0:0:
272,24,12402,1,8,0:0:0:0:
160,180,12566,1,0,0:0:0:0:
88,112,12730,2,0,L|84:16,1,95,2|2,0:0|0:0,0:0:0:0:
144,208,13057,1,8,0:0:0:0:
68,276,13221,6,0,P|144:308|232:256,1,190,4|2,0:0|0:0,0:0:0:0:
288,108,13713,1,8,0:0:0:0:
368,156,13877,2,0,B|372:228|372:228|356:268|356:268|359:342,1,190,4|2,0:0|0:0,0:0:0:0:
448,292,14369,1,8,0:0:0:0:
240,240,14533,2,0,P|136:224|68:276,1,190,4|2,0:0|0:0,0:0:0:0:
68,360,15025,1,8,0:0:0:0:
296,320,15189,2,0,L|284:128,1,190,4|2,0:0|0:0,0:0:0:0:
248,32,15680,1,8,0:0:0:0:
188,136,15844,1,0,0:0:0:0:
188,136,15926,1,0,0:0:0:0:
188,136,16008,6,0,P|152:144|112:140,1,71.2500027179719,2|0,0:0|0:0,0:0:0:0:
40,80,16336,1,8,0:0:0:0:
16,216,16500,1,2,0:0:0:0:
30,214,16582,1,2,0:0:0:0:
44,213,16664,1,8,0:0:0:0:
132,272,16828,1,2,0:0:0:0:
196,156,16992,1,8,0:0:0:0:
132,272,17156,1,2,0:0:0:0:
288,168,17320,6,0,L|284:96,1,71.2500027179719,8|2,0:0|0:0,0:0:0:0:
276,84,17812,1,8,0:0:0:0:
416,152,17976,1,2,0:0:0:0:
416,152,18057,1,8,0:0:0:0:
416,152,18139,1,2,0:0:0:0:
251,247,18303,2,0,P|286:256|321:249,1,71.2500027179719,8|0,0:0|0:0,0:0:0:0:
364,80,18631,5,2,0:0:0:0:
180,180,18795,1,0,0:0:0:0:
236,104,18959,2,0,L|232:32,1,71.2500027179719,8|0,0:0|0:0,0:0:0:0:
232,32,19205,1,0,0:0:0:0:
232,32,19287,1,2,0:0:0:0:
152,156,19451,1,2,0:0:0:0:
36,84,19615,2,0,P|72:72|112:72,1,71.2500027179719,8|0,0:0|0:0,0:0:0:0:
216,208,19943,6,0,P|160:244|84:212,1,142.500005435944,2|0,0:0|0:0,0:0:0:0:
4,172,20435,2,0,L|8:320,1,142.500005435944,8|2,0:0|0:0,0:0:0:0:
88,360,20926,1,8,0:0:0:0:
296,164,21090,6,0,P|216:119|135:162,1,190,4|0,0:0|0:0,0:0:0:0:
324,248,21582,2,0,L|420:244,1,95,8|0,0:0|0:0,0:0:0:0:
276,176,21910,1,2,0:0:0:0:
248,312,22074,2,0,L|152:308,1,95,2|8,0:0|0:0,0:0:0:0:
36,260,22402,6,0,B|29:188|29:188|41:143|41:143|35:67,1,190,2|2,0:0|0:0,0:0:0:0:
35,72,22894,1,8,0:0:0:0:
124,216,23057,1,0,0:0:0:0:
216,144,23221,2,0,L|212:48,1,95,2|2,0:0|0:0,0:0:0:0:
124,16,23549,1,8,0:0:0:0:
140,236,23713,6,0,P|220:268|308:216,1,190,2|2,0:0|0:0,0:0:0:0:
328,88,24205,1,8,0:0:0:0:
305,220,24369,1,0,0:0:0:0:
336,108,24533,2,0,L|436:104,1,95,2|2,0:0|0:0,0:0:0:0:
484,28,24861,1,8,0:0:0:0:
240,48,25025,6,0,P|156:20|76:88,1,190,2|2,0:0|0:0,0:0:0:0:
20,168,25517,1,8,0:0:0:0:
296,212,25680,2,0,L|300:116,1,95,0|2,0:0|0:0,0:0:0:0:
144,208,26008,2,0,L|147:302,1,95,2|8,0:0|0:0,0:0:0:0:
240,356,26336,1,0,0:0:0:0:
260,164,26500,5,4,0:0:0:0:
388,208,26664,2,0,L|468:204,1,71.2500027179719,0|8,0:0|0:0,0:0:0:0:
504,120,26992,1,0,0:0:0:0:
504,120,27074,1,0,0:0:0:0:
504,120,27156,1,2,0:0:0:0:
276,152,27320,2,0,L|272:72,1,71.2500027179719,2|8,0:0|0:0,0:0:0:0:
200,24,27648,1,0,0:0:0:0:
220,220,27812,5,8,0:0:0:0:
220,220,27976,2,0,P|284:240|348:196,1,142.500005435944,2|8,0:0|0:0,0:0:0:0:
376,104,28467,1,2,0:0:0:0:
156,120,28631,1,2,0:0:0:0:
157,137,28713,1,2,0:0:0:0:
158,155,28795,1,8,0:0:0:0:
204,256,28959,1,0,0:0:0:0:
360,224,29123,6,0,L|280:220,1,71.2500027179719,2|0,0:0|0:0,0:0:0:0:
428,296,29451,2,0,L|508:292,1,71.2500027179719,8|2,0:0|0:0,0:0:0:0:
499,292,29697,1,2,0:0:0:0:
499,292,29779,1,2,0:0:0:0:
336,320,29943,1,2,0:0:0:0:
460,204,30107,2,0,L|456:128,1,71.2500027179719,8|0,0:0|0:0,0:0:0:0:
396,48,30435,5,0,0:0:0:0:
228,152,30598,2,0,P|284:172|364:132,2,142.500005435944,2|2|2,0:0|0:0|0:0,0:0:0:0:
228,152,31418,1,8,0:0:0:0:
128,36,31582,6,0,L|136:232,1,190,4|2,0:0|0:0,0:0:0:0:
144,336,32074,2,0,P|192:344|240:328,1,95,8|0,0:0|0:0,0:0:0:0:
328,264,32402,1,2,0:0:0:0:
216,136,32566,2,0,L|220:240,1,95,2|8,0:0|0:0,0:0:0:0:
292,92,32894,6,0,P|208:51|131:100,1,190,2|2,0:0|0:0,0:0:0:0:
296,176,33385,2,0,P|344:184|388:172,1,95,8|0,0:0|0:0,0:0:0:0:
440,80,33713,1,2,0:0:0:0:
288,188,33877,2,0,L|296:296,1,95,2|8,0:0|0:0,0:0:0:0:
184,340,34205,2,0,P|80:352|16:296,1,190,2|2,0:0|0:0,0:0:0:0:
44,144,34697,1,8,0:0:0:0:
18,300,34861,1,0,0:0:0:0:
128,188,35025,2,0,P|136:136|128:92,1,95,2|2,0:0|0:0,0:0:0:0:
64,28,35353,1,8,0:0:0:0:
44,236,35517,6,0,P|116:280|208:236,1,190,2|2,0:0|0:0,0:0:0:0:
300,104,36008,1,8,0:0:0:0:
332,216,36172,2,0,L|428:212,1,95,0|2,0:0|0:0,0:0:0:0:
476,128,36500,1,2,0:0:0:0:
477,114,36582,1,2,0:0:0:0:
479,100,36664,1,8,0:0:0:0:
220,132,36828,6,0,B|224:208|224:208|212:244|212:244|216:328,1,190,4|2,0:0|0:0,0:0:0:0:
304,268,37320,1,8,0:0:0:0:
132,192,37484,1,0,0:0:0:0:
376,208,37648,2,0,L|372:113,1,95,2|2,0:0|0:0,0:0:0:0:
300,48,37976,1,8,0:0:0:0:
303,279,38139,2,0,P|391:306|463:250,1,190,2|2,0:0|0:0,0:0:0:0:
480,88,38631,1,8,0:0:0:0:
463,250,38795,1,0,0:0:0:0:
260,128,38959,6,0,P|212:112|168:120,1,95,2|2,0:0|0:0,0:0:0:0:
96,188,39287,1,8,0:0:0:0:
304,216,39451,2,0,L|296:20,1,190,2|2,0:0|0:0,0:0:0:0:
296,26,39943,1,8,0:0:0:0:
392,88,40107,1,0,0:0:0:0:
152,108,40271,2,0,P|108:96|52:104,1,95,2|2,0:0|0:0,0:0:0:0:
8,192,40598,1,8,0:0:0:0:
232,252,40762,6,0,B|228:180|228:180|244:136|244:136|240:60,1,190,2|2,0:0|0:0,0:0:0:0:
320,200,41254,2,0,P|368:208|408:188,1,95,8|0,0:0|0:0,0:0:0:0:
136,140,41582,2,0,P|88:132|48:152,1,95,2|2,0:0|0:0,0:0:0:0:
8,252,41910,1,8,0:0:0:0:
224,184,42074,6,0,P|300:136|296:40,1,190,4|0,0:0|0:0,0:0:0:0:
128,24,42566,2,0,L|132:120,1,95,8|0,0:0|0:0,0:0:0:0:
216,212,42894,1,2,0:0:0:0:
100,320,43057,1,2,0:0:0:0:
64,176,43221,1,8,0:0:0:0:
200,316,43385,6,0,P|288:292|316:192,1,190,2|2,0:0|0:0,0:0:0:0:
284,116,43877,1,8,0:0:0:0:
356,280,44041,1,0,0:0:0:0:
372,168,44205,2,0,P|420:176|464:160,1,95,2|2,0:0|0:0,0:0:0:0:
504,80,44533,1,8,0:0:0:0:
284,92,44697,6,0,L|88:84,1,190,4|0,0:0|0:0,0:0:0:0:
20,164,45189,2,0,P|16:212|40:256,1,95,8|0,0:0|0:0,0:0:0:0:
200,220,45517,2,0,P|152:200|104:208,1,95,2|2,0:0|0:0,0:0:0:0:
72,368,45844,2,0,P|108:336|116:288,1,95,8|0,0:0|0:0,0:0:0:0:
172,128,46172,5,2,0:0:0:0:
232,244,46336,2,0,L|340:240,1,95,2|8,0:0|0:0,0:0:0:0:
440,168,46664,1,2,0:0:0:0:
440,168,46746,1,2,0:0:0:0:
440,168,46828,1,8,0:0:0:0:
264,108,46992,2,0,L|364:104,1,95,8|8,0:0|0:0,0:0:0:0:
184,175,47320,6,0,P|97:201|32:137,1,190,4|2,0:0|0:0,0:0:0:0:
44,40,47812,1,8,0:0:0:0:
44,40,48139,1,8,0:0:0:0:
252,80,48303,1,2,0:0:0:0:
112,224,48467,1,8,0:0:0:0:
276,176,48631,6,0,B|344:172|344:172|384:140|384:140|464:136,1,190,4|0,0:0|0:0,0:0:0:0:
424,228,49123,1,8,0:0:0:0:
304,80,49287,1,2,0:0:0:0:
200,216,49451,2,0,L|192:120,1,95,8|2,0:0|0:0,0:0:0:0:
136,36,49779,1,8,0:0:0:0:
127,279,49943,6,0,P|215:306|286:248,1,190,4|2,0:0|0:0,0:0:0:0:
272,148,50435,1,8,0:0:0:0:
416,256,50598,1,2,0:0:0:0:
444,80,50762,2,0,L|340:80,1,95,8|2,0:0|0:0,0:0:0:0:
272,148,51090,1,8,0:0:0:0:
348,312,51254,6,0,P|432:344|500:268,1,190,4|2,0:0|0:0,0:0:0:0:
288,240,51746,2,0,P|240:228|200:248,1,95,8|0,0:0|0:0,0:0:0:0:
36,336,52074,2,0,L|144:328,1,95,8|2,0:0|0:0,0:0:0:0:
372,284,52402,1,8,0:0:0:0:
373,250,52484,1,2,0:0:0:0:
375,217,52566,1,2,0:0:0:0:
377,184,52648,1,2,0:0:0:0:
379,151,52730,6,0,L|372:52,1,95,4|0,0:0|0:0,0:0:0:0:
268,16,53057,2,0,P|216:8|168:24,1,95,8|0,0:0|0:0,0:0:0:0:
20,188,53385,2,0,P|72:196|120:180,1,95,2|2,0:0|0:0,0:0:0:0:
232,132,53713,2,0,L|236:240,1,95,8|0,0:0|0:0,0:0:0:0:
151,311,54041,2,0,P|237:345|319:301,1,190,2|8,0:0|0:0,0:0:0:0:
440,176,54533,2,0,L|444:332,1,142.5,2|0,0:0|0:0,0:0:0:0:
443,318,54861,1,2,0:0:0:0:
480,80,55025,1,8,0:0:0:0:
328,216,55189,1,0,0:0:0:0:
308,56,55353,6,0,L|408:48,1,95,8|2,0:0|0:0,0:0:0:0:
256,144,55680,1,2,0:0:0:0:
204,56,55844,2,0,L|104:48,1,95,8|2,0:0|0:0,0:0:0:0:
256,172,56172,1,2,0:0:0:0:
196,264,56336,5,8,0:0:0:0:
344,160,56500,1,2,0:0:0:0:
344,160,56582,1,2,0:0:0:0:
344,160,56664,1,8,0:0:0:0:
120,192,56828,1,8,0:0:0:0:
204,24,56992,1,8,0:0:0:0:
204,24,57320,5,0,0:0:0:0:
144,88,57484,2,0,L|148:176,1,71.25
152,224,57812,6,0,P|228:264|312:212,1,190,4|0,0:0|0:0,0:0:0:0:
352,124,58303,2,0,L|348:24,1,95,8|0,0:0|0:0,0:0:0:0:
244,52,58631,1,2,0:0:0:0:
300,216,58795,1,2,0:0:0:0:
235,64,58959,2,0,P|170:87|102:70,1,142.5,8|0,0:0|0:0,0:0:0:0:
32,36,59287,6,0,L|40:144,1,95,2|2,0:0|0:0,0:0:0:0:
260,248,59615,2,0,L|267:153,1,95,8|0,0:0|0:0,0:0:0:0:
224,76,59943,1,2,0:0:0:0:
76,156,60107,2,0,P|128:168|172:148,1,95,2|8,0:0|0:0,0:0:0:0:
413,87,60435,1,0,0:0:0:0:
413,87,60598,2,0,L|224:76,1,190,2|8,0:0|0:0,0:0:0:0:
152,16,61090,1,0,0:0:0:0:
72,192,61254,5,2,0:0:0:0:
72,192,61418,1,2,0:0:0:0:
8,24,61582,2,0,L|12:124,1,95,8|0,0:0|0:0,0:0:0:0:
208,136,61910,1,2,0:0:0:0:
36,212,62074,1,2,0:0:0:0:
288,208,62238,6,0,P|336:216|384:196,1,95,8|0,0:0|0:0,0:0:0:0:
220,124,62566,2,0,P|172:116|124:136,1,95,2|2,0:0|0:0,0:0:0:0:
96,256,62894,1,8,0:0:0:0:
4,32,63057,6,0,L|12:224,1,190,2|2,0:0|0:0,0:0:0:0:
52,336,63549,2,0,P|100:348|148:328,1,95,8|0,0:0|0:0,0:0:0:0:
288,252,63877,2,0,P|240:240|192:260,1,95,2|2,0:0|0:0,0:0:0:0:
384,312,64205,2,0,L|396:152,1,142.5,8|0,0:0|0:0,0:0:0:0:
380,100,64533,5,2,0:0:0:0:
288,252,64697,1,2,0:0:0:0:
116,208,64861,1,8,0:0:0:0:
316,44,65025,2,0,P|404:20|464:100,1,190,2|8,0:0|0:0,0:0:0:0:
464,180,65517,1,2,0:0:0:0:
224,200,65680,6,0,L|216:4,1,190,4|2,0:0|0:0,0:0:0:0:
328,140,66172,1,8,0:0:0:0:
200,224,66336,2,0,L|192:28,1,190,4|2,0:0|0:0,0:0:0:0:
312,160,66828,1,8,0:0:0:0:
116,288,66992,2,0,P|200:324|288:268,1,190,4|2,0:0|0:0,0:0:0:0:
240,92,67484,1,8,0:0:0:0:
388,212,67648,1,2,0:0:0:0:
388,212,67730,1,2,0:0:0:0:
388,212,67812,1,8,0:0:0:0:
144,184,67976,1,8,0:0:0:0:
132,200,68303,6,0,B|44:160|44:160|28:64,1,190,4|0,0:0|0:0,0:0:0:0:
240,192,68795,2,0,P|248:232|232:288,1,95,8|0,0:0|0:0,0:0:0:0:
152,320,69123,1,2,0:0:0:0:
192,104,69287,1,2,0:0:0:0:
48,276,69451,2,0,L|40:128,1,142.5,8|0,0:0|0:0,0:0:0:0:
36,64,69779,5,2,0:0:0:0:
188,132,69943,1,2,0:0:0:0:
60,248,70107,1,8,0:0:0:0:
36,64,70271,1,0,0:0:0:0:
176,244,70435,2,0,P|224:252|268:240,1,95,2|2,0:0|0:0,0:0:0:0:
432,172,70762,2,0,L|320:168,1,95,8|0,0:0|0:0,0:0:0:0:
108,164,71090,6,0,L|120:368,1,190,2|8,0:0|0:0,0:0:0:0:
392,353,71582,2,0,L|404:164,1,190,2|2,0:0|0:0,0:0:0:0:
344,84,72074,2,0,P|296:72|244:92,1,95,8|2,0:0|0:0,0:0:0:0:
253,85,72320,1,2,0:0:0:0:
253,85,72402,1,8,0:0:0:0:
136,184,72566,1,2,0:0:0:0:
116,48,72730,1,8,0:0:0:0:
80,252,72894,1,8,0:0:0:0:
80,252,73221,1,8,0:0:0:0:
80,252,73549,6,0,L|272:244,1,190,4|2,0:0|0:0,0:0:0:0:
368,292,74041,1,8,0:0:0:0:
424,116,74205,1,0,0:0:0:0:
260,164,74369,2,0,P|308:176|352:164,1,95,2|2,0:0|0:0,0:0:0:0:
208,72,74697,2,0,P|160:60|116:72,1,95,8|0,0:0|0:0,0:0:0:0:
24,132,75025,6,0,B|32:204|32:204|24:248|24:248|32:324,1,190,2|8,0:0|0:0,0:0:0:0:
128,352,75517,1,8,0:0:0:0:
231,207,75844,1,8,0:0:0:0:
231,207,76172,6,0,P|318:232|375:162,1,190,4|2,0:0|0:0,0:0:0:0:
292,61,76664,2,0,L|296:156,1,95,8|2,0:0|0:0,0:0:0:0:
296,156,76910,1,2,0:0:0:0:
296,156,76992,1,8,3:0:0:0:
312,320,77156,1,4,3:0:0:0:
484,280,77320,2,0,P|436:260|388:268,1,95,8|0,0:0|0:0,0:0:0:0:
200,308,77648,5,8,0:0:0:0:
80,232,77812,1,8,0:0:0:0:
160,120,77976,1,8,0:0:0:0:
275,191,78139,1,8,0:0:0:0:
275,191,78467,1,8,0:0:0:0:
275,191,78795,6,0,P|349:246|436:219,1,190,4|0,0:0|0:0,0:0:0:0:
488,84,79287,1,8,0:0:0:0:
436,264,79451,1,0,0:0:0:0:
296,108,79615,2,0,L|396:104,1,95,2|2,0:0|0:0,0:0:0:0:
488,36,79943,1,8,0:0:0:0:
212,48,80107,6,0,P|126:19|61:82,1,190,2|2,0:0|0:0,0:0:0:0:
152,200,80598,2,0,L|148:100,1,95,8|0,0:0|0:0,0:0:0:0:
316,216,80926,2,0,L|312:310,1,95,2|2,0:0|0:0,0:0:0:0:
232,364,81254,1,8,0:0:0:0:
247,160,81418,6,0,P|334:131|400:193,1,190,4|2,0:0|0:0,0:0:0:0:
404,288,81910,1,8,0:0:0:0:
232,248,82074,2,0,P|164:200|184:100,1,190,4|2,0:0|0:0,0:0:0:0:
256,48,82566,1,8,0:0:0:0:
296,176,82730,6,0,L|284:376,1,190,4|2,0:0|0:0,0:0:0:0:
428,312,83221,1,8,0:0:0:0:
324,144,83385,2,0,L|312:344,1,190,4|2,0:0|0:0,0:0:0:0:
424,284,83877,1,8,0:0:0:0:
492,144,84041,1,0,0:0:0:0:
408,28,84205,6,0,P|360:24|316:48,1,95,8|2,0:0|0:0,0:0:0:0:
256,144,84533,1,2,0:0:0:0:
104,28,84697,6,0,P|152:24|196:48,1,95,8|0,0:0|0:0,0:0:0:0:
256,176,85025,1,8,0:0:0:0:
156,328,85189,1,8,0:0:0:0:
424,292,85353,2,0,L|224:276,1,190,4|8,0:0|0:0,0:0:0:0:
132,296,85844,5,12,0:0:0:0:
