osu file format v14

[General]
AudioFilename: Magic.mp3
AudioLeadIn: 1300
PreviewTime: 57320
Countdown: 0
SampleSet: Soft
StackLeniency: 0.7
Mode: 0
LetterboxInBreaks: 0
WidescreenStoryboard: 0

[Editor]
Bookmarks: 9287
DistanceSpacing: 1.1
BeatDivisor: 4
GridSize: 4
TimelineZoom: 1

[Metadata]
Title:Kimi no Matsu Sekai (TV Size)
TitleUnicode:君の待つ世界 (TVサイズ)
Artist:LAGOON
ArtistUnicode:LAGOON
Creator:HabiHolic
Version:Easy
Source:まじっく快斗1412
Tags:opening Kuroba Kaito 1412 IamKwaN Zan_-
BeatmapID:660928
BeatmapSetID:289900

[Difficulty]
HPDrainRate:2
CircleSize:3
OverallDifficulty:2
ApproachRate:3
SliderMultiplier:0.9
SliderTickRate:1

[Events]
//Background and Video events
0,0,"BG.jpg",0,0
Video,0,"Video.avi"
//Break Periods
//Storyboard Layer 0 (Background)
//Storyboard Layer 1 (Fail)
//Storyboard Layer 2 (Pass)
//Storyboard Layer 3 (Foreground)
//Storyboard Sound Samples

[TimingPoints]
100,338.983050847458,4,2,2,50,1,0
5354,327.868852459016,4,2,1,80,1,0
5517,327.868852459016,4,2,1,80,1,0
57812,-100,4,2,1,80,0,1
78795,-100,4,2,1,80,0,0

[Colours]
Combo1 : 255,128,128
Combo2 : 141,235,202
Combo3 : 226,91,46
Combo4 : 30,174,236

[HitObjects]
256,192,100,12,4,3998,0:0:0:0:
44,192,5354,5,4,0:0:0:0:
168,84,5844,1,8,0:0:0:0:
243,148,6172,2,0,P|268:86|247:24,2,135,2|2|8,0:0|0:0|0:0,0:0:0:0:
152,184,7484,1,2,0:0:0:0:
228,312,7976,6,0,L|368:308,1,135,2|8,0:0|0:0,0:0:0:0:
456,344,8795,1,2,0:0:0:0:
484,196,9287,6,0,P|492:152|484:100,1,90,2|2,0:0|0:0,0:0:0:0:
412,44,9943,2,0,L|312:48,1,90,2|8,0:0|0:0,0:0:0:0:
236,95,10598,6,0,P|175:123|112:106,1,135,4|8,0:0|0:0,0:0:0:0:
36,44,11418,1,2,0:0:0:0:
12,192,11910,2,0,L|16:328,1,135,2|8,0:0|0:0,0:0:0:0:
108,364,12730,1,2,0:0:0:0:
243,304,13221,6,0,P|331:292|406:338,3,180,4|4|4|4,0:0|0:0|0:0|0:0,0:0:0:0:
492,216,15680,1,8,0:0:0:0:
420,148,16008,6,0,L|320:152,1,90,2|8,0:0|0:0,0:0:0:0:
240,196,16664,2,0,P|232:152|240:108,2,90,2|8|2,0:0|0:0|0:0,0:0:0:0:
308,328,17812,2,0,L|156:336,1,135,8|8,0:0|0:0,0:0:0:0:
88,288,18631,6,0,P|56:212|80:116,1,180,2|2,0:0|0:0,0:0:0:0:
164,72,19615,1,8,0:0:0:0:
244,132,19943,2,0,L|384:124,1,135,2|8,0:0|0:0,0:0:0:0:
468,80,20762,2,0,P|480:124|468:172,1,90,2|4,0:0|0:0,0:0:0:0:
340,240,21582,5,8,0:0:0:0:
252,196,21910,2,0,P|188:180|133:217,2,135,2|2|8,0:0|0:0|0:0,0:0:0:0:
260,296,23221,1,2,0:0:0:0:
408,304,23713,6,0,P|436:240|412:176,1,135,2|8,0:0|0:0,0:0:0:0:
356,104,24533,1,2,0:0:0:0:
216,156,25025,2,0,P|172:168|124:160,1,90,2|2,0:0|0:0,0:0:0:0:
36,132,25680,2,0,L|40:228,1,90,2|2,0:0|0:0,0:0:0:0:
132,340,26500,6,0,B|200:340|200:340|240:320|240:320|312:320,1,180,4|2,0:0|0:0,0:0:0:0:
404,348,27484,1,8,0:0:0:0:
484,288,27812,2,0,P|504:224|488:160,2,135,2|8|8,0:0|0:0|0:0,0:0:0:0:
408,224,29123,6,0,L|304:224,1,90,2|8,0:0|0:0,0:0:0:0:
228,268,29779,2,0,P|219:223|228:179,1,90,2|8,0:0|0:0,0:0:0:0:
316,132,30435,2,0,P|336:68|316:4,1,135,2|8,0:0|0:0,0:0:0:0:
240,68,31254,1,2,0:0:0:0:
223,163,31582,6,0,P|266:214|332:223,1,135,4|8,0:0|0:0,0:0:0:0:
416,168,32402,1,2,0:0:0:0:
484,300,32894,2,0,P|436:340|356:332,1,135,2|8,0:0|0:0,0:0:0:0:
276,296,33713,1,2,0:0:0:0:
172,188,34205,6,0,P|106:177|51:212,1,135,2|8,0:0|0:0,0:0:0:0:
128,276,35025,1,2,0:0:0:0:
267,323,35516,2,0,P|368:360|446:287,1,225,2|8,0:0|0:0,0:0:0:0:
476,140,36828,6,0,L|336:144,1,135,4|8,0:0|0:0,0:0:0:0:
260,204,37648,2,0,P|240:136|272:72,2,135,2|2|8,0:0|0:0|0:0,0:0:0:0:
304,291,38959,6,0,P|238:300|182:265,1,135,2|2,0:0|0:0,0:0:0:0:
140,124,39943,1,8,0:0:0:0:
212,56,40271,2,0,P|153:24|89:38,2,135,2|2|8,0:0|0:0|0:0,0:0:0:0:
267,139,41582,2,0,P|326:171|390:157,1,135,2|4,0:0|0:0,0:0:0:0:
484,40,42566,5,8,0:0:0:0:
488,140,42894,2,0,L|492:284,2,135,2|2|8,0:0|0:0|0:0,0:0:0:0:
400,99,44205,2,0,P|337:119|279:87,1,135,2|4,0:0|0:0,0:0:0:0:
148,32,45189,6,0,L|56:36,2,90,8|2|8,0:0|0:0|0:0,0:0:0:0:
248,32,46172,2,0,L|340:36,1,90,2|8,0:0|0:0,0:0:0:0:
436,40,46828,2,0,P|456:103|433:165,1,135,8|4,0:0|0:0,0:0:0:0:
288,144,47812,5,8,0:0:0:0:
216,212,48139,2,0,P|192:148|216:80,2,135,8|4|8,0:0|0:0|0:0,0:0:0:0:
288,280,49451,2,0,P|230:312|166:297,1,135,8|4,0:0|0:0,0:0:0:0:
40,216,50435,5,8,0:0:0:0:
124,160,50762,2,0,P|140:95|124:29,2,135,8|4|8,0:0|0:0|0:0,0:0:0:0:
40,216,52074,1,8,0:0:0:0:
128,256,52402,1,8,0:0:0:0:
47,311,52730,6,0,P|125:352|204:315,1,180,4|2,0:0|0:0,0:0:0:0:
256,232,53713,1,8,0:0:0:0:
307,315,54041,2,0,P|386:352|464:311,1,180,2|2,0:0|0:0,0:0:0:0:
488,216,55025,1,8,0:0:0:0:
412,156,55353,6,0,L|408:20,2,135,8|8|8,0:0|0:0|0:0,0:0:0:0:
328,208,56664,2,0,P|284:220|236:208,1,90,8|8,0:0|0:0,0:0:0:0:
36,71,57812,6,0,P|15:135|37:197,1,135,4|8,0:0|0:0,0:0:0:0:
112,264,58631,2,0,L|204:260,1,90,2|8,0:0|0:0,0:0:0:0:
264,335,59287,2,0,P|299:256|261:178,1,180,2|2,0:0|0:0,0:0:0:0:
176,128,60271,1,8,0:0:0:0:
236,48,60598,6,0,L|428:52,1,180,2|2,0:0|0:0,0:0:0:0:
492,116,61582,1,8,0:0:0:0:
455,208,61910,2,0,P|413:219|369:209,1,90,2|8,0:0|0:0,0:0:0:0:
284,160,62566,2,0,P|219:143|158:169,2,135,2|2|8,0:0|0:0|0:0,0:0:0:0:
228,240,63877,6,0,L|231:329,1,90,2|8,0:0|0:0,0:0:0:0:
331,347,64533,2,0,P|397:359|458:333,1,135,2|2,0:0|0:0,0:0:0:0:
488,240,65353,6,0,L|484:144,1,90,2|4,0:0|0:0,0:0:0:0:
412,80,66008,2,0,P|368:64|320:76,1,90,2|4,0:0|0:0,0:0:0:0:
236,112,66664,2,0,P|192:120|150:104,1,90,2|4,0:0|0:0,0:0:0:0:
24,24,67484,5,8,0:0:0:0:
16,124,67812,1,8,0:0:0:0:
100,248,68303,6,0,P|160:276|224:252,1,135,4|8,0:0|0:0,0:0:0:0:
300,192,69123,2,0,P|344:184|388:204,1,90,2|8,0:0|0:0,0:0:0:0:
476,240,69779,2,0,L|488:52,1,180,2|2,0:0|0:0,0:0:0:0:
392,28,70762,1,8,0:0:0:0:
324,99,71090,6,0,P|240:124|168:68,1,180,2|2,0:0|0:0,0:0:0:0:
260,28,72074,1,8,0:0:0:0:
324,99,72402,2,0,L|332:248,1,135,8|8,0:0|0:0,0:0:0:0:
280,320,73221,1,8,0:0:0:0:
200,260,73549,6,0,P|134:247|72:272,1,135,4|8,0:0|0:0,0:0:0:0:
8,196,74369,2,0,L|4:100,1,90,2|8,0:0|0:0,0:0:0:0:
80,44,75025,2,0,P|148:32|208:68,1,135,8|8,0:0|0:0,0:0:0:0:
252,148,75844,1,8,0:0:0:0:
188,224,76172,6,0,P|249:247|311:224,1,135,4|8,0:0|0:0,0:0:0:0:
388,164,76992,2,0,P|432:156|476:172,1,90,8|4,3:0|3:0,0:0:0:0:
480,268,77648,2,0,P|416:284|356:255,1,135,8|8,0:0|0:0,0:0:0:0:
292,180,78467,1,8,0:0:0:0:
228,104,78795,6,0,L|84:108,1,135,4|8,0:0|0:0,0:0:0:0:
8,160,79615,1,2,0:0:0:0:
48,304,80107,2,0,P|108:324|172:292,1,135,2|8,0:0|0:0,0:0:0:0:
232,216,80926,1,2,0:0:0:0:
328,103,81418,6,0,P|414:93|475:154,3,180,4|4|4|4,0:0|0:0|0:0|0:0,0:0:0:0:
484,304,83877,1,8,0:0:0:0:
256,192,84205,12,12,85844,0:0:0:0:
