osu file format v9

[General]
AudioFilename: 06 - SOUND OF GIALLARHORN.mp3
AudioLeadIn: 0
PreviewTime: -1
Countdown: 1
SampleSet: Normal
StackLeniency: 0.7
Mode: 0
LetterboxInBreaks: 1

[Editor]
Bookmarks: 23489,28543,33924,54793,65228,75663,96533,108272,118706,129141
DistanceSpacing: 1
BeatDivisor: 4
GridSize: 8

[Metadata]
Title:SOUND OF GIALLARHORN
Artist:L.E.D.-G
Creator:Wuiss
Version:Another
Source:beatmania IIDX
Tags:iidx 15 dj troopers

[Difficulty]
HPDrainRate:7
CircleSize:4
OverallDifficulty:8
ApproachRate:8
SliderMultiplier:1.7
SliderTickRate:1

[Events]
//Background and Video events
0,0,"amazing-abstract-blue-black-wallpaper.jpg"
//Break Periods
2,23689,27793
2,96732,100999
//Storyboard Layer 0 (Background)
//Storyboard Layer 1 (Fail)
//Storyboard Layer 2 (Pass)
//Storyboard Layer 3 (Foreground)
//Storyboard Sound Samples
//Background Colour Transformations
3,100,163,162,255

[TimingPoints]
2620,326.086956521739,4,1,0,50,1,0
10609,-66.6666666666667,4,1,0,50,0,0
10772,-100,4,1,0,50,0,0
11261,-66.6666666666667,4,1,0,50,0,0
11424,-100,4,1,0,50,0,0
96043,-66.6666666666667,4,1,0,50,0,0
96533,-100,4,1,0,50,0,0
130283,-100,4,2,0,5,0,0

[HitObjects]
160,128,2620,1,0
48,192,2783,1,0
159,256,2946,1,0
171,107,3109,5,0
27,191,3272,1,0
171,274,3435,1,0
128,192,3598,5,0
128,192,3761,1,0
128,192,3924,2,0,B|216:192,1,85
296,120,4250,6,0,B|240:192|296:280,1,170
472,231,4739,2,0,B|500:188|472:152,1,85
408,40,5065,1,0
408,40,5147,1,0
408,40,5228,6,0,B|328:16,1,85
72,48,5554,2,0,B|152:72,1,85
224,224,5880,2,0,B|144:200,1,85
8,304,6206,2,0,B|88:328,1,85
168,360,6533,5,0
256,224,6696,1,0
256,312,6859,1,0
424,328,7022,1,0
344,360,7185,1,0
424,328,7348,2,0,B|504:272|480:176,1,170
384,32,7837,6,0,B|344:60|356:108,1,85
200,160,8163,2,0,B|240:132|228:84,1,85
168,24,8489,1,0
88,48,8652,1,0
32,136,8815,1,0
72,248,8978,1,0
200,304,9141,5,0
312,304,9304,1,0
440,248,9467,2,0,B|496:168|440:88,1,170
300,127,9956,1,0
279,142,10038,1,0
268,165,10119,1,0
257,188,10201,1,0
241,167,10283,1,0
230,144,10364,1,0
209,129,10446,1,0
192,40,10609,6,0,B|256:16|320:40,1,127.499996200204
296,344,10935,2,0,B|256:360|208:344,1,85
408,128,11261,6,0,B|432:192|409:252,1,127.499996200204
103,231,11587,2,0,B|88:192|102:148,1,85
256,192,11913,12,0,13054
277,338,13380,5,0
277,338,13543,2,0,B|348:271|307:180,1,170
287,180,13951,1,0
265,177,14033,1,0
245,168,14114,1,0
228,154,14196,1,0
215,136,14277,1,0
203,117,14359,6,0,B|178:77|196:32,1,85
427,151,14685,2,0,B|452:191|434:236,1,85
104,336,15011,2,0,B|79:296|97:251,1,85
144,184,15337,1,0
96,112,15500,1,0
24,72,15663,5,0
24,72,15826,1,0
256,48,16152,1,0
256,48,16315,1,0
488,72,16641,1,0
488,72,16804,1,0
488,72,16967,6,0,B|448:88|416:128,1,85
256,176,17293,2,0,B|296:160|328:120,1,85
416,240,17619,2,0,B|440:280,2,42.5
256,304,17946,1,0
96,352,18109,2,0,B|72:312,2,42.5
168,304,18435,6,0,B|184:256|168:216,1,85
48,32,18761,2,0,B|33:67|49:115,1,85
24,200,19087,2,0,B|72:120|176:144,1,170
232,88,19576,1,0
232,88,19739,1,0
312,120,19902,1,0
392,80,20065,2,0,B|424:48,4,42.5
448,144,20554,1,0
400,216,20717,1,0
440,296,20880,6,0,B|400:304|352:296,1,85
264,336,21206,2,0,B|256:296|264:248,1,85
72,296,21533,2,0,B|112:304|160:296,1,85
184,376,21859,1,0
184,376,22022,1,0
112,168,22185,6,0,B|120:72|216:40,1,170
256,168,22674,1,0
288,192,22755,1,0
256,224,22837,1,0
224,192,22918,1,0
256,192,23000,1,0
400,216,23163,2,0,B|392:312|296:344,1,170
256,192,28543,5,0
256,192,28706,1,0
112,256,29033,1,0
136,288,29196,1,0
408,136,29359,1,0
384,104,29522,1,0
360,72,29685,1,0
256,192,29848,5,0
256,192,30011,1,0
360,320,30337,1,0
376,304,30418,1,0
392,288,30500,1,0
176,48,30663,1,0
160,64,30744,1,0
144,80,30826,1,0
128,96,30908,1,0
112,112,30989,1,0
256,192,31152,5,0
256,192,31315,1,0
360,152,31478,2,0,B|384:192|360:232,1,85
256,192,31804,5,0
256,192,31967,1,0
152,232,32130,2,0,B|128:192|152:152,1,85
334,316,32456,5,0
334,316,32619,1,0
316,328,32701,1,0
296,336,32783,1,0
275,341,32864,1,0
253,343,32946,1,0
231,343,33027,1,0
210,338,33109,1,0
190,330,33190,1,0
174,314,33272,1,0
256,192,33435,5,0
256,192,33516,1,0
256,192,33598,1,0
168,192,33761,1,0
344,192,33924,1,0
344,192,34087,6,0,B|376:160|376:112,1,85
160,24,34413,2,0,B|128:56|128:104,1,85
56,152,34739,2,0,B|120:80|216:120,1,170
456,232,35228,2,0,B|392:304|296:264,1,170
232,312,35717,1,0
152,280,35880,1,0
80,328,36043,1,0
80,328,36206,1,0
40,256,36369,1,0
40,256,36451,1,0
40,256,36533,6,0,B|16:176,1,85
128,32,36859,2,0,B|152:113,1,85
464,240,37185,2,0,B|440:160,1,85
294,96,37511,5,0
304,136,37674,1,0
318,177,37837,1,0
216,289,38000,1,0
206,249,38163,1,0
192,208,38326,1,0
104,208,38489,1,0
408,208,38652,1,0
104,208,38815,1,0
408,208,38978,1,0
336,256,39141,6,0,B|344:304|336:344,1,85
184,160,39467,2,0,B|176:208|184:248,1,85
256,296,39793,2,0,B|192:232|96:264,1,170
24,304,40283,1,0
24,304,40446,5,0
8,224,40609,1,0
24,144,40772,1,0
80,80,40935,1,0
464,128,41098,5,0
480,208,41261,1,0
464,288,41424,1,0
408,352,41587,1,0
304,240,41750,5,0
208,240,41913,1,0
208,144,42076,1,0
304,144,42239,1,0
283,239,42402,5,0
208,219,42565,1,0
228,144,42728,1,0
303,164,42891,1,0
256,192,43054,12,0,44359
256,256,44685,5,0
192,192,44848,1,0
192,192,45011,1,0
112,168,45174,2,0,B|80:128|96:80,1,85
264,8,45500,2,0,B|296:48|280:96,1,85
200,104,45826,2,0,B|288:80|360:152,1,170
440,288,46315,2,0,B|472:264|496:224,2,85
360,264,46804,1,0
360,264,46967,5,0
256,336,47130,1,0
256,336,47212,1,0
256,336,47293,1,0
152,264,47456,1,0
152,264,47619,2,0,B|144:224|152:176,1,85
368,32,47946,2,0,B|375:76|367:116,1,85
440,168,48272,5,0
216,80,48435,1,0
296,80,48598,1,0
80,168,48761,1,0
32,96,48924,2,0,B|8:56,2,42.5
120,88,49250,1,0
184,224,49413,1,0
256,352,49576,5,0
328,304,49739,1,0
408,328,49902,1,0
472,272,50065,2,0,B|512:192|488:104,1,170
264,24,50554,2,0,B|244:64|256:108,1,85
328,144,50880,5,0
255,106,51043,1,0
176,120,51206,1,0
128,192,51369,1,0
256,288,51533,5,0
328,325,51696,1,0
408,312,51859,1,0
456,240,52022,1,0
456,240,52185,6,0,B|392:176|424:80,1,170
488,24,52674,2,0,B|424:96|328:72,1,170
256,32,53163,1,0
56,144,53489,6,0,B|120:208|88:304,1,170
24,360,53978,2,0,B|88:288|184:312,1,170
256,352,54467,1,0
400,264,54793,5,0
421,263,54875,1,0
441,256,54956,1,0
456,241,55038,1,0
470,224,55119,1,0
477,203,55201,1,0
478,181,55283,1,0
475,160,55364,1,0
466,139,55446,1,0
447,129,55527,1,0
427,120,55609,1,0
405,119,55690,2,0,B|404:73,4,42.5
384,126,56098,5,0
375,145,56180,1,0
356,159,56261,1,0
333,162,56343,1,0
312,160,56424,1,0
291,153,56506,1,0
273,141,56588,1,0
260,123,56669,1,0
249,104,56751,1,0
248,83,56832,1,0
252,63,56914,1,0
265,47,56994,2,0,B|307:16,4,42.5
251,63,57402,5,0
238,82,57484,1,0
225,99,57565,1,0
204,106,57647,1,0
183,110,57728,1,0
161,110,57810,1,0
137,106,57892,1,0
116,101,57973,1,0
96,92,58055,1,0
81,78,58136,1,0
71,59,58218,1,0
54,45,58299,2,0,B|32:32|8:33,4,42.5
54,66,58706,5,0
53,87,58788,1,0
52,108,58869,1,0
52,129,58951,1,0
52,150,59033,1,0
35,163,59114,1,0
19,177,59196,1,0
3,191,59277,1,0
22,200,59359,1,0
38,212,59440,2,0,B|76:234,3,42.5
37,236,59766,2,0,B|-24:276,3,42.5
36,265,60092,5,0
41,285,60174,1,0
51,303,60255,1,0
64,319,60337,1,0
81,330,60418,1,0
101,336,60500,1,0
122,336,60581,1,0
142,331,60663,1,0
158,318,60744,1,0
173,303,60826,1,0
182,284,60908,1,0
188,263,60989,1,0
195,243,61071,1,0
201,222,61152,1,0
210,203,61234,1,0
225,188,61316,1,0
241,175,61397,1,0
261,170,61479,1,0
282,170,61560,1,0
302,176,61642,1,0
319,187,61723,1,0
332,203,61805,1,0
342,221,61886,1,0
344,242,61967,2,0,B|345:269|321:293,3,42.5
364,237,62293,2,0,B|396:264,3,42.5
377,220,62619,6,0,B|419:137|374:53,1,170
135,164,63109,1,0
135,164,63272,2,0,B|93:247|138:331,1,170
59,364,63761,1,0
59,364,63924,2,0,B|116:294|211:311,1,170
496,168,64576,5,0
456,96,64739,1,0
376,56,64902,1,0
288,56,65065,1,0
208,88,65228,6,0,B|208:128|256:160,1,85
304,344,65554,2,0,B|344:344|376:296,1,85
344,152,65880,2,0,B|200:248,1,170
24,224,66369,1,0
24,224,66451,1,0
24,224,66533,6,0,B|96:168,1,85
120,96,66859,1,0
208,96,67022,1,0
280,48,67185,1,0
280,48,67348,2,0,B|328:56|344:104,1,85
296,176,67674,1,0
296,176,67755,1,0
296,176,67837,6,0,B|344:96|448:112,1,170
488,40,68326,2,0,B|424:104|472:200,1,170
360,352,68815,2,0,B|392:320|368:272,1,85
288,248,69141,1,0
216,288,69304,1,0
136,272,69467,1,0
64,312,69630,1,0
64,312,69793,2,0,B|0:248|48:152,1,170
256,16,70283,1,0
256,16,70364,1,0
256,16,70446,6,0,B|320:80|272:176,1,170
232,248,70935,2,0,B|280:176|376:160,1,170
456,136,71424,1,0
480,56,71587,1,0
408,16,71750,5,0
400,32,71831,1,0
392,48,71913,1,0
384,64,71994,1,0
376,80,72076,1,0
384,96,72158,1,0
392,112,72239,1,0
400,128,72321,1,0
408,144,72402,1,0
416,160,72484,1,0
408,176,72565,1,0
400,192,72646,1,0
392,208,72728,1,0
384,224,72809,1,0
376,240,72891,1,0
384,256,72973,1,0
392,272,73054,5,0
176,312,73299,1,0
80,96,73543,1,0
80,96,73869,1,0
192,176,74033,1,0
72,232,74196,1,0
264,288,74359,5,0
240,280,74440,1,0
336,120,74603,1,0
312,128,74685,1,0
168,48,74848,1,0
160,72,74929,1,0
132,204,75174,5,0
228,112,75337,1,0
242,124,75418,1,0
254,140,75500,1,0
264,162,75581,1,0
266,182,75663,1,0
268,204,75744,1,0
270,224,75826,1,0
280,246,75907,1,0
292,262,75989,1,0
306,274,76070,1,0
324,284,76152,2,0,B|365:299,9,42.5
136,264,76968,5,0
133,290,77049,1,0
131,310,77131,1,0
121,332,77212,1,0
109,348,77294,1,0
95,360,77375,1,0
77,370,77456,2,0,B|36:385,8,42.5
48,296,78190,6,0,B|7:311,3,42.5
80,200,78516,2,0,B|39:215,3,42.5
48,124,78842,2,0,B|7:139,8,42.5
48,124,79576,5,0
128,96,79739,1,0
184,256,79902,1,0
226,182,80065,1,0
392,272,80228,1,0
376,188,80391,1,0
360,104,80554,6,0,B|352:64,4,42.5
464,216,81043,2,0,B|496:256|480:296,1,85
280,384,81369,2,0,B|248:344|264:304,1,85
304,232,81696,2,0,B|272:312|168:328,1,170
96,296,82185,5,0
96,296,82348,1,0
24,256,82511,1,0
80,192,82674,1,0
160,168,82837,2,0,B|200:144|216:96,1,85
296,96,83163,6,0,B|304:40|296:8,2,85
360,256,83652,2,0,B|367:227|359:171,1,85
432,128,83978,1,0
472,296,84304,1,0
392,336,84467,1,0
360,256,84630,1,0
336,40,84956,1,0
256,0,85119,1,0
224,80,85282,1,0
176,336,85609,2,0,B|128:256|32:256,1,170
8,336,86098,5,0
8,336,86261,2,0,B|64:168,1,170
224,16,86913,2,0,B|168:184,1,170
256,336,87565,2,0,B|309:174,1,170
352,56,88054,1,0
312,176,88217,1,0
352,56,88380,1,0
352,56,88543,6,0,B|440:24,1,85
288,248,88869,2,0,B|200:216,1,85
480,216,89196,2,0,B|512:304,1,85
376,160,89522,1,0
376,160,89685,1,0
376,160,89848,1,0
256,352,90174,5,0
256,352,90337,1,0
256,352,90500,1,0
336,256,90663,2,0,B|336:328|408:336,1,85
176,256,90989,2,0,B|176:328|104:336,1,85
56,360,91315,6,0,B|8:376,2,42.5
16,288,91641,1,0
88,240,91804,1,0
64,160,91967,2,0,B|48:120|56:72,1,85
256,208,92293,2,0,B|272:248|264:296,2,85
160,168,92783,6,0,B|144:128,3,42.5
184,128,93110,2,0,B|178:85,3,42.5
216,104,93436,2,0,B|222:61,3,42.5
256,72,93762,2,0,B|256:24,3,42.5
288,64,94088,2,0,B|294:106,3,42.5
331,87,94414,2,0,B|325:129,3,42.5
365,130,94741,2,0,B|349:169,4,42.5
256,200,95228,5,0
128,248,95391,1,0
144,242,95473,1,0
161,236,95554,1,0
384,248,95717,1,0
368,242,95799,1,0
351,236,95880,1,0
256,288,96043,2,0,B|256:320,12,31.874999050051
66,331,101749,5,0
49,316,101831,1,0
36,298,101912,1,0
27,278,101994,1,0
23,257,102075,1,0
24,235,102157,1,0
30,214,102239,1,0
42,196,102321,2,0,B|66:162,7,42.5
256,20,103054,5,0
273,35,103136,1,0
286,53,103217,1,0
295,73,103299,1,0
299,94,103380,1,0
298,116,103462,1,0
292,137,103544,1,0
280,155,103626,2,0,B|256:189,7,42.5
336,224,104359,6,0,B|408:272,1,85
480,320,104685,1,0
336,224,104848,1,0
216,152,105011,6,0,B|214:238,1,85
213,325,105337,1,0
216,152,105500,1,0
96,32,105663,5,0
88,48,105744,1,0
80,64,105826,1,0
72,80,105907,1,0
64,96,105989,1,0
72,112,106071,1,0
80,128,106152,1,0
88,144,106234,1,0
96,160,106315,1,0
104,176,106397,1,0
96,192,106478,1,0
88,208,106559,1,0
80,224,106641,1,0
72,240,106722,1,0
64,256,106804,1,0
72,272,106886,1,0
80,288,106967,1,0
256,192,107049,12,0,108272
256,144,108435,6,0,B|296:160|328:200,1,85
384,256,108761,2,0,B|349:283|333:323,2,85
448,312,109250,1,0
448,312,109413,2,0,B|392:232|448:152,1,170
496,88,109902,1,0
424,48,110065,1,0
368,112,110228,1,0
280,104,110391,1,0
280,104,110554,2,0,B|240:80|200:104,1,85
128,56,110880,5,0
200,192,111043,1,0
88,120,111206,1,0
124,188,111369,1,0
48,187,111533,2,0,B|30:229|46:271,1,85
253,373,111859,2,0,B|271:331|255:289,1,85
181,332,112185,6,0,B|350:332,1,170
504,192,112674,1,0
504,192,112837,2,0,B|335:192,1,170
181,52,113326,1,0
181,52,113408,1,0
181,52,113489,6,0,B|267:52,1,85
384,272,113815,1,0
296,272,113978,1,0
320,352,114141,2,0,B|280:304|200:304,1,127.5
206,304,114467,1,0
120,304,114630,1,0
56,248,114793,5,0
40,168,114956,1,0
64,88,115119,1,0
136,48,115283,1,0
456,136,115446,5,0
472,216,115609,1,0
448,296,115772,1,0
376,336,115936,1,0
376,336,116098,6,0,B|288:336,1,85
256,152,116424,2,0,B|298:225,1,85
144,336,116750,2,0,B|186:262,1,85
136,192,117076,1,0
136,192,117239,1,0
88,120,117402,6,0,B|88:32,1,85
336,152,117728,2,0,B|336:240,1,85
208,352,118054,2,0,B|208:264,1,85
256,192,118380,1,0
416,112,118543,6,0,B|440:72,2,42.5
328,104,118869,1,0
328,104,119033,2,0,B|424:104|456:200,1,170
480,280,119522,1,0
400,256,119685,1,0
416,336,119848,1,0
416,336,120011,2,0,B|328:320,1,85
128,216,120337,2,0,B|216:232,1,85
248,304,120663,2,0,B|208:216|288:152,1,170
368,136,121152,6,0,B|400:96|408:56,2,85
304,80,121641,1,0
224,96,121804,1,0
152,56,121967,1,0
88,112,122130,2,0,B|48:136|48:184,1,85
256,368,122456,2,0,B|296:344|296:296,1,85
112,240,122783,5,0
174,302,122946,1,0
236,240,123109,1,0
174,177,123272,1,0
236,240,123435,5,0
355,348,123598,1,0
464,240,123761,1,0
355,130,123924,2,0,B|384:96,3,42.5
336,120,124250,2,0,B|307:154,3,42.5
320,104,124576,2,0,B|349:70,3,42.5
304,96,124902,2,0,B|275:130,3,42.5
288,88,125228,6,0,B|216:40,1,85
32,168,125554,2,0,B|104:216,1,85
256,384,125880,2,0,B|185:336,1,85
256,192,126206,1,0
280,192,126288,1,0
304,192,126369,1,0
328,192,126451,1,0
352,192,126533,2,0,B|352:240,3,42.5
376,192,126859,2,0,B|376:144,3,42.5
400,192,127185,2,0,B|400:240,3,42.5
424,192,127511,2,0,B|424:144,3,42.5
448,192,127837,5,0
424,272,128000,1,0
424,272,128081,1,0
424,272,128163,1,0
344,312,128326,1,0
256,320,128489,1,0
168,312,128652,1,0
88,272,128815,1,0
88,272,128897,1,0
88,272,128978,1,0
64,192,129141,1,0
256,192,129304,12,2,133054
