osu file format v14

[General]
AudioFilename: avalon.mp3
AudioLeadIn: 2000
PreviewTime: 76339
Countdown: 0
SampleSet: Soft
StackLeniency: 0.9
Mode: 0
LetterboxInBreaks: 1
WidescreenStoryboard: 0

[Editor]
DistanceSpacing: 1.4
BeatDivisor: 4
GridSize: 4
TimelineZoom: 1.8

[Metadata]
Title:EMPEROR OF THE AVALON
TitleUnicode:EMPEROR OF THE AVALON
Artist:L.E.D.-G
ArtistUnicode:L.E.D.-G
Creator:iedesu
Version:Hyper
Source:REFLEC BEAT colette -Summer-
Tags:kass0920
BeatmapID:747477
BeatmapSetID:337898

[Difficulty]
HPDrainRate:5
CircleSize:4
OverallDifficulty:6
ApproachRate:8
SliderMultiplier:1.7
SliderTickRate:1

[Events]
//Background and Video events
0,0,"bandicam 2015-07-23 14-43-06-405.png",0,0
//Break Periods
2,42540,52256
2,74539,76256
//Storyboard Layer 0 (Background)
//Storyboard Layer 1 (Fail)
//Storyboard Layer 2 (Pass)
//Storyboard Layer 3 (Foreground)
//Storyboard Sound Samples

[TimingPoints]
797,333.333333333333,4,2,0,75,1,0
22130,315.789473684211,4,2,0,75,1,0
24024,-100,4,2,0,45,0,0
29708,-100,4,2,0,75,0,0
37287,-153.846153846154,4,2,0,75,0,0
42340,333.333333333333,4,2,0,75,1,0
53006,-100,4,2,0,75,0,0
77006,-83.3333333333333,4,2,0,90,0,1
104339,-100,4,2,0,75,0,0
105589,-100,4,2,0,5,0,0

[Colours]
Combo1 : 157,157,157
Combo2 : 215,219,166
Combo3 : 166,130,166

[HitObjects]
152,100,797,6,0,L|328:136,1,170,4|2,0:0|0:0,0:0:0:0:
416,96,1296,1,0,0:0:0:0:
471,180,1463,2,0,P|462:221|444:260,2,85,0|0|2,0:0|0:0|0:0,0:0:0:0:
160,312,2130,5,2,0:0:0:0:
120,232,2296,1,0,0:0:0:0:
208,240,2463,1,2,0:0:0:0:
156,308,2630,1,0,0:0:0:0:
120,232,2796,2,0,L|156:52,1,170,2|0,0:0|0:0,0:0:0:0:
276,52,3296,1,0,0:0:0:0:
392,88,3463,6,0,L|412:188,1,85,2|0,0:0|0:0,0:0:0:0:
376,272,3796,1,0,0:0:0:0:
208,304,4130,1,2,0:0:0:0:
104,288,4296,1,0,0:0:0:0:
120,192,4463,1,2,0:0:0:0:
228,204,4630,1,0,0:0:0:0:
120,192,4796,6,0,P|108:128|192:44,1,170,2|0,0:0|0:0,0:0:0:0:
260,80,5296,1,0,0:0:0:0:
352,96,5463,1,2,0:0:0:0:
352,96,5630,2,0,L|444:80,1,85,0|2,0:0|0:0,0:0:0:0:
416,292,6130,6,0,L|360:300,3,42.5,2|0|0|0,0:0|0:0|0:0|0:0,0:0:0:0:
288,276,6463,2,0,L|208:284,3,42.5,2|0|0|0,0:0|0:0|0:0|0:0,0:0:0:0:
164,316,6796,2,0,L|48:328,1,85,2|0,0:0|0:0,0:0:0:0:
80,220,7130,1,2,0:0:0:0:
144,140,7296,2,0,L|252:128,1,85,0|2,0:0|0:0,0:0:0:0:
328,152,7630,5,0,0:0:0:0:
312,244,7796,1,2,0:0:0:0:
392,284,7963,1,0,0:0:0:0:
400,288,8046,1,0,0:0:0:0:
408,292,8130,2,0,P|432:240|436:184,1,85,2|0,0:0|0:0,0:0:0:0:
420,112,8463,1,2,0:0:0:0:
360,52,8630,1,0,0:0:0:0:
404,124,8796,6,0,B|364:148|320:128|320:128|280:112|224:132,1,170,2|0,0:0|0:0,0:0:0:0:
288,200,9296,1,0,0:0:0:0:
288,200,9463,2,0,P|312:128|244:40,1,170,2|0,0:0|0:0,0:0:0:0:
180,48,9963,1,2,0:0:0:0:
240,184,11463,5,4,0:0:0:0:
128,240,11630,1,0,0:0:0:0:
224,312,11796,1,2,0:0:0:0:
240,184,11963,1,0,0:0:0:0:
128,240,12130,2,0,P|104:156|180:72,1,170,2|0,0:0|0:0,0:0:0:0:
240,92,12630,1,0,0:0:0:0:
328,120,12796,6,0,P|388:116|424:100,1,85,2|0,0:0|0:0,0:0:0:0:
408,228,13130,2,0,P|352:232|316:248,1,85,2|0,0:0|0:0,0:0:0:0:
252,304,13463,1,0,0:0:0:0:
164,320,13630,1,0,0:0:0:0:
84,280,13796,1,2,0:0:0:0:
60,196,13963,1,0,0:0:0:0:
72,112,14130,6,0,P|84:60|188:96,1,170,0|2,0:0|0:0,0:0:0:0:
216,152,14630,1,0,0:0:0:0:
304,200,14796,2,0,P|312:144|288:84,2,85,0|0|2,0:0|0:0|0:0,0:0:0:0:
228,256,15296,2,0,P|184:268|72:196,1,170
88,128,15796,5,2,0:0:0:0:
88,128,15963,1,0,0:0:0:0:
164,72,16130,2,0,L|272:56,1,85,2|2,0:0|0:0,0:0:0:0:
276,160,16463,2,0,L|376:144,1,85,0|2,0:0|0:0,0:0:0:0:
436,228,16796,1,2,0:0:0:0:
424,312,16963,1,0,0:0:0:0:
336,316,17130,5,2,0:0:0:0:
316,236,17296,1,0,0:0:0:0:
232,232,17463,5,2,0:0:0:0:
212,312,17630,1,0,0:0:0:0:
144,248,17796,2,0,P|148:192|140:140,1,85
308,80,18130,2,0,P|304:140|312:200,1,85,2|0,0:0|0:0,0:0:0:0:
336,256,18463,1,0,0:0:0:0:
400,324,18630,2,0,L|496:308,1,85,0|2,0:0|0:0,0:0:0:0:
212,276,18963,6,0,L|104:268,1,85
68,184,19296,1,0,0:0:0:0:
88,92,19463,2,0,L|252:76,2,127.5,2|0|2,0:0|0:0|0:0,0:0:0:0:
332,101,20130,2,0,P|340:164|332:228,2,127.5,2|0|2,0:0|0:0|0:0,0:0:0:0:
240,288,20796,6,0,P|184:288|132:264,1,85,2|0,0:0|0:0,0:0:0:0:
108,96,21130,2,0,P|164:96|216:120,1,85,2|0,0:0|0:0,0:0:0:0:
264,144,21463,2,0,L|260:200,3,42.5,2|0|0|0,0:0|0:0|0:0|0:0,0:0:0:0:
344,152,21796,2,0,L|340:200,3,42.5,2|0|0|0,0:0|0:0|0:0|0:0,0:0:0:0:
416,184,22130,1,4,0:0:0:0:
208,276,24024,5,2,0:0:0:0:
120,272,24340,1,0,0:0:0:0:
68,200,24656,1,2,0:0:0:0:
312,112,26866,5,0,0:0:0:0:
368,176,27024,1,0,0:0:0:0:
284,192,27182,1,2,0:0:0:0:
128,100,29708,5,2,0:0:0:0:
240,240,30340,2,0,P|292:232|328:200,1,85,2|0,0:0|0:0,0:0:0:0:
372,136,30656,1,0,0:0:0:0:
284,92,30814,2,0,L|256:36,2,42.5,0|0|2,0:0|0:0|0:0,0:0:0:0:
396,140,31130,2,0,L|432:244,1,85,0|2,0:0|0:0,0:0:0:0:
380,320,31445,5,0,0:0:0:0:
256,340,31603,2,0,L|220:228,1,85
148,232,31919,1,2,0:0:0:0:
148,232,32077,1,0,0:0:0:0:
220,176,32235,2,0,P|224:124|120:136,1,170,0|2,0:0|0:0,0:0:0:0:
129,114,32708,5,0,0:0:0:0:
320,92,32866,2,0,L|420:92,1,85
452,176,33182,1,2,0:0:0:0:
404,272,33340,1,0,0:0:0:0:
292,300,33498,2,0,P|232:292|180:264,1,85
112,272,33814,5,2,0:0:0:0:
56,192,33972,1,0,0:0:0:0:
80,100,34130,1,0,0:0:0:0:
80,100,34287,2,0,P|128:104|188:128,1,85,0|2,0:0|0:0,0:0:0:0:
236,128,34603,1,0,0:0:0:0:
308,108,34761,1,2,0:0:0:0:
328,180,34919,1,0,0:0:0:0:
256,200,35077,6,0,P|252:260|260:296,1,85
336,316,35393,1,2,0:0:0:0:
416,312,35551,1,0,0:0:0:0:
476,260,35708,2,0,P|484:204|480:160,1,85
428,108,36024,1,2,0:0:0:0:
344,72,36182,1,0,0:0:0:0:
260,84,36340,6,0,L|156:100,1,85,2|0,0:0|0:0,0:0:0:0:
136,176,36656,1,0,0:0:0:0:
156,260,36814,2,0,L|252:264,1,85,0|2,0:0|0:0,0:0:0:0:
324,272,37130,1,0,0:0:0:0:
404,288,37287,6,0,B|452:264|424:184|424:184|380:196|368:192|336:120|336:120|392:100|416:148,2,331.499984825135,2|0|2,0:0|0:0|0:0,0:0:0:0:
404,288,39498,1,0,0:0:0:0:
304,284,39814,2,0,B|240:260|208:288|180:288|180:288|140:260|76:296|76:296|92:312|168:308,2,331.499984825135,2|0|2,0:0|0:0|0:0,0:0:0:0:
348,208,42024,1,0,0:0:0:0:
320,120,42340,1,4,0:0:0:0:
128,208,53006,6,0,L|220:224,1,85,4|0,0:0|0:0,0:0:0:0:
316,240,53339,1,0,0:0:0:0:
328,140,53506,1,0,0:0:0:0:
232,124,53673,1,0,0:0:0:0:
260,336,54006,1,0,0:0:0:0:
488,296,54339,6,0,P|496:236|488:192,1,85
444,132,54673,1,0,0:0:0:0:
388,64,54839,2,0,L|284:44,1,85
184,120,55173,2,0,L|280:140,1,85,4|0,0:0|0:0,0:0:0:0:
312,216,55506,1,4,0:0:0:0:
304,288,55673,5,4,0:0:0:0:
248,332,55839,1,0,0:0:0:0:
176,328,56006,1,0,0:0:0:0:
120,284,56173,2,0,L|104:184,1,85
212,72,56673,1,0,0:0:0:0:
372,44,57006,6,0,P|396:92|400:148,1,85
440,216,57339,1,0,0:0:0:0:
368,288,57506,2,0,L|276:296,1,85,0|4,0:0|0:0,0:0:0:0:
192,336,57839,1,0,0:0:0:0:
112,280,58006,2,0,L|104:224,2,42.5,4|0|0,0:0|0:0|0:0,0:0:0:0:
152,156,58339,5,4,0:0:0:0:
416,156,59673,5,4,0:0:0:0:
368,72,59839,2,0,L|256:56,1,85
216,124,60173,1,0,0:0:0:0:
216,216,60339,1,4,0:0:0:0:
260,296,60506,2,0,P|312:308|360:304,1,85
112,132,61006,5,4,0:0:0:0:
175,284,61339,2,0,L|263:296,1,85
352,256,61673,2,0,P|368:192|364:136,1,85
188,68,62006,2,0,P|180:116|188:176,1,85
292,52,62339,5,4,0:0:0:0:
268,128,62506,1,0,0:0:0:0:
360,152,62673,1,0,0:0:0:0:
384,68,62839,1,0,0:0:0:0:
360,152,63006,2,0,L|480:152,1,85,4|0,0:0|0:0,0:0:0:0:
468,284,63339,2,0,L|372:284,1,85
304,320,63673,5,2,0:0:0:0:
220,324,63839,1,0,0:0:0:0:
152,280,64006,1,2,0:0:0:0:
128,204,64173,1,0,0:0:0:0:
128,204,64256,1,0,0:0:0:0:
128,204,64339,2,0,L|148:116,1,85,2|0,0:0|0:0,0:0:0:0:
328,80,64673,2,0,L|304:192,1,85,2|0,0:0|0:0,0:0:0:0:
376,264,65006,6,0,P|436:272|484:256,2,85,0|0|2,0:0|0:0|0:0,0:0:0:0:
276,296,65506,1,0,0:0:0:0:
176,324,65673,2,0,L|80:312,1,85
43,196,66006,2,0,L|135:204,1,85,2|0,0:0|0:0,0:0:0:0:
228,180,66339,5,0,0:0:0:0:
296,116,66506,1,0,0:0:0:0:
296,32,66673,1,2,0:0:0:0:
156,92,66839,1,0,0:0:0:0:
156,92,67006,2,0,L|56:108,1,85
48,208,67339,2,0,L|152:192,1,85,2|0,0:0|0:0,0:0:0:0:
176,284,67673,6,0,L|92:297,1,85
248,344,68006,1,2,0:0:0:0:
424,248,68339,2,0,L|456:128,1,85
328,124,68673,2,0,L|296:232,1,85,2|0,0:0|0:0,0:0:0:0:
208,168,69006,5,0,0:0:0:0:
120,304,69173,2,0,P|112:240|116:200,1,85,0|2,0:0|0:0,0:0:0:0:
292,272,69506,2,0,P|300:320|296:380,1,85,0|2,0:0|0:0,0:0:0:0:
404,292,69839,1,0,0:0:0:0:
464,212,70006,2,2,L|488:88,1,85,2|0,0:0|0:0,0:0:0:0:
392,72,70339,5,0,0:0:0:0:
304,80,70506,1,0,0:0:0:0:
304,80,70673,1,2,0:0:0:0:
248,156,70839,1,0,0:0:0:0:
248,156,71006,1,2,0:0:0:0:
256,248,71173,1,0,0:0:0:0:
256,248,71256,1,0,0:0:0:0:
256,248,71339,2,0,P|264:304|256:356,1,85
180,312,71673,6,0,L|108:304,3,42.5,2|0|0|0,0:0|0:0|0:0|0:0,0:0:0:0:
140,224,72006,2,0,L|72:216,3,42.5,2|0|0|0,0:0|0:0|0:0|0:0,0:0:0:0:
172,144,72339,2,0,L|112:136,3,42.5,2|0|0|0,0:0|0:0|0:0|0:0,0:0:0:0:
196,64,72673,6,0,L|260:72,1,42.5,2|0,0:0|0:0,0:0:0:0:
308,160,72839,2,0,L|240:152,1,42.5
372,108,73006,2,0,P|388:152|368:212,1,85,2|0,0:0|0:0,0:0:0:0:
404,260,73339,1,0,0:0:0:0:
352,324,73506,1,0,0:0:0:0:
272,328,73673,2,0,L|156:332,2,85,2|0|2,0:0|0:0|0:0,0:0:0:0:
352,324,74173,1,0,0:0:0:0:
428,340,74339,5,4,0:0:0:0:
120,176,77006,6,0,P|176:180|192:92,1,152.999995330811,2|0,0:0|0:0,0:0:0:0:
136,56,77339,1,0,0:0:0:0:
92,152,77506,1,2,0:0:0:0:
104,260,77673,2,0,P|96:324|104:368,1,101.999996887207
204,344,78006,1,2,0:0:0:0:
300,320,78173,1,0,0:0:0:0:
364,240,78339,6,0,P|408:184|476:220,1,152.999995330811,2|0,0:0|0:0,0:0:0:0:
472,280,78673,1,0,0:0:0:0:
348,236,78839,1,0,0:0:0:0:
232,228,79006,2,0,P|168:228|128:208,1,101.999996887207,2|0,0:0|0:0,0:0:0:0:
152,88,79339,2,0,P|208:84|264:104,1,101.999996887207,2|0,0:0|0:0,0:0:0:0:
352,152,79673,6,0,P|408:160|424:64,1,152.999995330811,2|0,0:0|0:0,0:0:0:0:
388,36,80006,1,0,0:0:0:0:
256,44,80173,1,0,0:0:0:0:
128,64,80339,2,0,L|12:56,1,101.999996887207,2|0,0:0|0:0,0:0:0:0:
40,176,80673,2,0,L|164:188,1,101.999996887207,0|2,0:0|0:0,0:0:0:0:
244,200,81006,6,0,P|288:248|236:304,1,152.999995330811,2|0,0:0|0:0,0:0:0:0:
168,304,81339,2,0,L|48:296,1,101.999996887207,2|0,0:0|0:0,0:0:0:0:
352,300,81673,2,0,L|464:288,1,101.999996887207,2|0,0:0|0:0,0:0:0:0:
432,200,82006,1,2,0:0:0:0:
404,104,82173,1,0,0:0:0:0:
320,40,82339,6,0,P|264:56|228:100,1,101.999996887207,2|0,0:0|0:0,0:0:0:0:
120,56,82673,2,0,P|104:108|112:168,1,101.999996887207,2|0,0:0|0:0,0:0:0:0:
112,236,83006,1,2,0:0:0:0:
168,296,83173,1,0,0:0:0:0:
248,304,83339,1,0,0:0:0:0:
328,280,83506,1,0,0:0:0:0:
376,212,83673,6,0,L|408:32,1,152.999995330811,2|0,0:0|0:0,0:0:0:0:
320,40,84006,2,0,L|296:152,1,101.999996887207,2|0,0:0|0:0,0:0:0:0:
176,128,84339,2,0,L|188:72,1,50.9999984436036
100,96,84589,1,0,0:0:0:0:
76,124,84673,2,0,P|68:188|72:224,1,101.999996887207,2|0,0:0|0:0,0:0:0:0:
168,300,85006,5,2,0:0:0:0:
185,300,85089,1,0,0:0:0:0:
202,300,85173,1,0,0:0:0:0:
219,300,85256,1,0,0:0:0:0:
236,300,85339,2,0,B|268:296|316:288|316:288|280:232,1,101.999996887207,2|0,0:0|0:0,0:0:0:0:
192,192,85673,1,2,0:0:0:0:
180,188,85756,1,0,0:0:0:0:
168,184,85839,1,0,0:0:0:0:
156,180,85923,1,0,0:0:0:0:
144,176,86006,6,0,B|92:156|76:136|76:136|112:136,1,101.999996887207,2|0,0:0|0:0,0:0:0:0:
240,92,86339,2,0,L|308:104,3,50.9999984436036,2|0|0|0,0:0|0:0|0:0|0:0,0:0:0:0:
284,196,86673,2,0,L|360:212,3,50.9999984436036,2|0|0|0,0:0|0:0|0:0|0:0,0:0:0:0:
340,208,87006,1,2,0:0:0:0:
347,209,87089,1,0,0:0:0:0:
354,211,87173,1,0,0:0:0:0:
361,213,87256,1,0,0:0:0:0:
368,215,87339,5,2,0:0:0:0:
375,217,87423,1,0,0:0:0:0:
382,219,87506,1,0,0:0:0:0:
389,221,87589,1,0,0:0:0:0:
396,224,87673,2,0,P|428:264|344:324,1,152.999995330811,2|0,0:0|0:0,0:0:0:0:
336,308,88006,1,2,0:0:0:0:
192,328,88173,1,0,0:0:0:0:
120,280,88339,2,0,L|96:124,2,152.999995330811,2|0|2,0:0|0:0|0:0,0:0:0:0:
368,80,90339,5,2,0:0:0:0:
273,259,90589,1,0,0:0:0:0:
356,76,90839,1,2,0:0:0:0:
280,108,91006,2,0,P|268:168|276:268,1,152.999995330811
416,292,91506,1,2,0:0:0:0:
88,272,92006,5,0,0:0:0:0:
68,260,92089,1,0,0:0:0:0:
52,248,92173,2,0,P|44:180|60:112,1,101.999996887207,0|2,0:0|0:0,0:0:0:0:
112,88,92506,1,0,0:0:0:0:
204,112,92673,2,0,L|280:112,3,50.9999984436036,2|0|0|0,0:0|0:0|0:0|0:0,0:0:0:0:
240,40,93006,5,2,0:0:0:0:
400,44,93256,2,0,L|380:204,1,152.999995330811,0|2,0:0|0:0,0:0:0:0:
308,288,93673,2,0,P|368:324|440:292,2,152.999995330811,2|0|2,0:0|0:0|0:0,0:0:0:0:
168,64,95673,5,2,0:0:0:0:
100,208,95923,2,0,P|180:228|240:168,1,152.999995330811
264,112,96339,1,2,0:0:0:0:
152,136,96589,2,0,P|72:124|16:176,1,152.999995330811
84,264,97006,5,2,0:0:0:0:
92,272,97089,1,0,0:0:0:0:
100,280,97173,1,0,0:0:0:0:
108,288,97256,1,0,0:0:0:0:
116,296,97339,2,0,P|124:340|112:376,2,50.9999984436036,2|0|0,0:0|0:0|0:0,0:0:0:0:
228,336,97673,1,2,0:0:0:0:
236,328,97756,1,0,0:0:0:0:
244,320,97839,1,0,0:0:0:0:
252,312,97923,1,0,0:0:0:0:
260,304,98006,6,0,P|304:296|340:308,2,50.9999984436036,2|0|0,0:0|0:0|0:0,0:0:0:0:
404,320,98339,2,0,P|464:328|496:252,1,152.999995330811,2|0,0:0|0:0,0:0:0:0:
456,184,98673,1,2,0:0:0:0:
408,112,98839,1,0,0:0:0:0:
456,184,99006,2,0,B|376:208|328:200|328:200|340:164,1,152.999995330811,2|0,0:0|0:0,0:0:0:0:
264,160,99339,5,2,0:0:0:0:
248,264,99506,1,0,0:0:0:0:
256,272,99589,1,0,0:0:0:0:
264,280,99673,2,0,P|320:304|412:292,1,152.999995330811,2|0,0:0|0:0,0:0:0:0:
220,352,100006,2,0,P|172:316|152:248,1,101.999996887207,2|0,0:0|0:0,0:0:0:0:
64,304,100339,2,0,L|44:120,2,152.999995330811,2|0|2,0:0|0:0|0:0,0:0:0:0:
132,168,101006,6,0,L|120:56,1,101.999996887207,2|0,0:0|0:0,0:0:0:0:
288,208,101339,2,0,L|272:352,1,101.999996887207,2|0,0:0|0:0,0:0:0:0:
436,164,101673,2,0,L|424:40,1,101.999996887207,2|0,0:0|0:0,0:0:0:0:
348,56,102006,5,2,0:0:0:0:
272,72,102173,1,0,0:0:0:0:
216,128,102339,2,0,P|204:188|208:252,1,101.999996887207,2|0,0:0|0:0,0:0:0:0:
396,288,102673,2,0,P|408:212|408:168,1,101.999996887207,2|0,0:0|0:0,0:0:0:0:
404,108,103006,1,2,0:0:0:0:
404,108,103173,1,0,0:0:0:0:
320,28,103339,5,2,0:0:0:0:
320,28,103506,1,0,0:0:0:0:
256,192,104006,12,0,105673,0:0:0:0:
