osu file format v14

[General]
AudioFilename: avalon.mp3
AudioLeadIn: 2000
PreviewTime: 76339
Countdown: 0
SampleSet: Soft
StackLeniency: 0.9
Mode: 0
LetterboxInBreaks: 1
WidescreenStoryboard: 1

[Editor]
DistanceSpacing: 1.5
BeatDivisor: 4
GridSize: 4
TimelineZoom: 1.8

[Metadata]
Title:EMPEROR OF THE AVALON
TitleUnicode:EMPEROR OF THE AVALON
Artist:L.E.D.-G
ArtistUnicode:L.E.D.-G
Creator:iedesu
Version:Hard
Source:REFLEC BEAT colette -Summer-
Tags:kass0920
BeatmapID:750882
BeatmapSetID:337898

[Difficulty]
HPDrainRate:4
CircleSize:4
OverallDifficulty:5
ApproachRate:7
SliderMultiplier:1.2
SliderTickRate:1

[Events]
//Background and Video events
0,0,"bandicam 2015-07-23 14-43-06-405.png",0,0
//Break Periods
2,42540,52106
2,74539,76106
//Storyboard Layer 0 (Background)
//Storyboard Layer 1 (Fail)
//Storyboard Layer 2 (Pass)
//Storyboard Layer 3 (Foreground)
//Storyboard Sound Samples

[TimingPoints]
797,333.333333333333,4,2,0,100,1,0
22130,315.789473684211,4,2,0,100,1,0
24656,-100,4,2,0,45,0,0
30024,-100,4,2,0,55,0,0
30656,-100,4,2,0,70,0,0
31603,-100,4,2,0,85,0,0
32235,-100,4,2,0,100,0,0
42340,333.333333333333,4,2,0,100,1,0
53006,-100,4,2,0,100,0,0
76339,-66.6666666666667,4,2,0,100,0,1
104339,-100,4,2,0,100,0,0
105923,-100,4,2,0,5,0,0

[Colours]
Combo1 : 157,157,157
Combo2 : 215,219,166
Combo3 : 166,130,166

[HitObjects]
216,76,797,5,4,0:0:0:0:
216,76,963,1,0,0:0:0:0:
288,112,1130,2,0,P|288:156|284:196,1,60,2|0,0:0|0:0,0:0:0:0:
152,248,1463,2,0,P|152:200|160:168,1,60
224,284,1796,2,0,P|264:296|304:300,1,60,2|0,0:0|0:0,0:0:0:0:
360,308,2130,6,0,P|368:264|368:228,1,60,0|2,0:0|0:0,0:0:0:0:
392,176,2463,1,2,0:0:0:0:
344,116,2630,1,0,0:0:0:0:
268,104,2796,2,0,L|196:96,1,60
164,172,3130,2,0,L|244:184,1,60,2|0,0:0|0:0,0:0:0:0:
304,200,3463,6,0,P|344:216|320:288,1,120,0|2,0:0|0:0,0:0:0:0:
252,292,3963,1,0,0:0:0:0:
168,288,4130,2,0,P|128:288|96:292,2,60,0|0|2,0:0|0:0|0:0,0:0:0:0:
132,124,4796,2,0,L|140:56,1,60
224,72,5130,2,0,L|216:131,1,60,2|0,0:0|0:0,0:0:0:0:
301,135,5463,2,0,L|308:76,1,60,0|2,0:0|0:0,0:0:0:0:
308,76,5796,1,2,0:0:0:0:
376,288,6130,6,0,L|448:300,1,60,0|2,0:0|0:0,0:0:0:0:
448,216,6463,2,0,L|368:204,1,60,0|2,0:0|0:0,0:0:0:0:
388,124,6796,1,0,0:0:0:0:
436,56,6963,1,2,0:0:0:0:
436,56,7130,2,0,L|288:40,1,120,0|2,0:0|0:0,0:0:0:0:
232,56,7630,1,0,0:0:0:0:
152,76,7796,6,0,L|72:92,1,60
56,164,8130,1,2,0:0:0:0:
88,240,8296,1,0,0:0:0:0:
156,288,8463,2,0,L|224:264,1,60
264,204,8796,1,2,0:0:0:0:
324,264,8963,6,0,L|391:276,1,60
392,196,9296,1,2,0:0:0:0:
432,120,9463,2,0,L|372:109,1,60
296,56,9796,1,2,0:0:0:0:
220,92,9963,1,0,0:0:0:0:
220,92,10130,1,4,0:0:0:0:
296,96,11463,6,0,L|160:84,1,120,2|0,0:0|0:0,0:0:0:0:
96,112,11963,1,0,0:0:0:0:
72,192,12130,2,0,P|68:240|128:300,1,120,2|0,0:0|0:0,0:0:0:0:
160,220,12630,2,0,P|204:220|240:236,1,60,0|2,0:0|0:0,0:0:0:0:
256,304,12963,1,0,0:0:0:0:
256,304,13130,2,0,P|212:304|176:288,1,60,2|0,0:0|0:0,0:0:0:0:
160,220,13463,2,0,L|176:76,1,120,0|2,0:0|0:0,0:0:0:0:
251,80,13963,1,0,0:0:0:0:
324,116,14130,6,0,L|320:184,1,60
408,168,14463,2,0,L|412:88,1,60,2|0,0:0|0:0,0:0:0:0:
352,40,14796,2,0,P|304:36|252:80,1,120,0|2,0:0|0:0,0:0:0:0:
256,160,15296,2,0,L|256:288,1,120,0|2,0:0|0:0,0:0:0:0:
172,304,15796,2,0,L|172:228,1,60,2|0,0:0|0:0,0:0:0:0:
88,244,16130,2,0,L|88:320,1,60
40,172,16463,2,0,P|40:128|56:92,1,60,2|0,0:0|0:0,0:0:0:0:
120,88,16796,5,0,0:0:0:0:
200,104,16963,1,0,0:0:0:0:
272,64,17130,2,0,L|344:72,1,60,2|0,0:0|0:0,0:0:0:0:
340,156,17463,2,0,L|260:148,1,60
228,216,17796,1,2,0:0:0:0:
228,216,17963,1,0,0:0:0:0:
144,228,18130,6,0,L|64:240,1,60
100,320,18463,2,0,L|176:308,1,60,2|0,0:0|0:0,0:0:0:0:
244,316,18796,1,0,0:0:0:0:
328,320,18963,2,0,L|412:332,1,60,0|2,0:0|0:0,0:0:0:0:
424,252,19296,1,0,0:0:0:0:
416,168,19463,6,0,L|404:56,2,90,2|0|0,0:0|0:0|0:0,0:0:0:0:
332,184,20130,2,0,L|320:76,2,90,2|0|0,0:0|0:0|0:0,0:0:0:0:
248,192,20796,2,0,L|240:112,1,60,2|0,0:0|0:0,0:0:0:0:
160,144,21130,2,0,L|168:224,1,60,2|0,0:0|0:0,0:0:0:0:
184,280,21463,2,0,P|232:296|288:292,2,90
104,260,22130,1,4,0:0:0:0:
160,72,24656,5,2,0:0:0:0:
240,72,27024,6,0,P|276:76|304:88,1,60,0|2,0:0|0:0,0:0:0:0:
200,280,29708,5,2,0:0:0:0:
400,292,30024,2,0,L|468:300,1,60,0|2,0:0|0:0,0:0:0:0:
460,212,30340,2,0,L|388:204,1,60,0|2,0:0|0:0,0:0:0:0:
328,188,30656,2,0,P|308:112|340:68,1,120,0|2,0:0|0:0,0:0:0:0:
396,48,31130,1,0,0:0:0:0:
448,108,31287,2,0,P|412:124|364:124,1,60
328,188,31603,5,2,0:0:0:0:
328,188,31761,1,0,0:0:0:0:
352,276,31919,2,0,L|280:296,1,60
204,280,32235,2,0,P|140:264|136:192,1,120,2|0,0:0|0:0,0:0:0:0:
200,200,32708,1,0,0:0:0:0:
248,132,32866,6,0,L|316:120,1,60,2|0,0:0|0:0,0:0:0:0:
292,40,33182,2,0,L|224:52,1,60,2|0,0:0|0:0,0:0:0:0:
144,64,33498,2,0,P|60:80|52:124,1,120,2|0,0:0|0:0,0:0:0:0:
40,184,33972,1,0,0:0:0:0:
40,184,34130,2,0,L|36:272,1,60,2|0,0:0|0:0,0:0:0:0:
120,256,34445,2,0,L|124:168,1,60
208,200,34761,6,0,L|204:324,1,120,2|0,0:0|0:0,0:0:0:0:
280,340,35235,1,0,0:0:0:0:
360,336,35393,2,0,P|400:324|436:304,1,60,2|0,0:0|0:0,0:0:0:0:
412,236,35708,2,0,L|416:152,1,60,2|0,0:0|0:0,0:0:0:0:
420,100,36024,1,0,0:0:0:0:
340,72,36182,1,0,0:0:0:0:
288,12,36340,6,0,P|264:44|260:80,1,60,2|0,0:0|0:0,0:0:0:0:
244,148,36656,1,0,0:0:0:0:
244,148,36814,1,0,0:0:0:0:
164,204,36972,2,0,P|160:248|168:288,1,60,2|0,0:0|0:0,0:0:0:0:
112,336,37287,2,0,B|64:296|64:296|36:164,1,180,2|0,0:0|0:0,0:0:0:0:
80,96,37919,1,2,0:0:0:0:
80,96,38235,6,0,P|108:64|196:56,1,120,0|2,0:0|0:0,0:0:0:0:
160,136,38708,1,0,0:0:0:0:
160,136,38866,1,0,0:0:0:0:
360,160,39182,2,0,L|436:136,2,60,2|0|2,0:0|0:0|0:0,0:0:0:0:
288,192,39814,6,0,P|264:232|400:276,1,240,2|0,0:0|0:0,0:0:0:0:
336,244,40761,1,2,0:0:0:0:
212,332,41077,2,0,P|188:288|196:204,1,120,0|2,0:0|0:0,0:0:0:0:
88,208,41708,2,0,L|172:104,1,120,0|2,0:0|0:0,0:0:0:0:
240,152,42340,5,4,0:0:0:0:
168,192,53006,5,4,0:0:0:0:
100,240,53173,2,0,P|92:280|96:320,1,60,0|2,0:0|0:0,0:0:0:0:
180,276,53506,1,0,0:0:0:0:
180,276,53673,2,0,L|312:252,1,120,0|2,0:0|0:0,0:0:0:0:
376,228,54173,1,0,0:0:0:0:
420,156,54339,2,0,P|388:144|352:140,1,60
292,92,54673,5,2,0:0:0:0:
231,155,54839,2,0,P|211:123|195:87,1,60
120,104,55173,1,2,0:0:0:0:
52,152,55339,2,0,P|65:178|81:204,1,60
160,232,55673,2,0,P|214:211|232:156,1,120,2|2,0:0|0:0,0:0:0:0:
208,68,56173,1,0,0:0:0:0:
296,40,56339,6,0,L|432:84,1,120,0|2,0:0|0:0,0:0:0:0:
396,160,56839,1,0,0:0:0:0:
304,144,57006,2,0,P|304:180|320:224,1,60,0|2,0:0|0:0,0:0:0:0:
228,232,57339,2,0,P|244:276|268:304,1,60,0|2,0:0|0:0,0:0:0:0:
344,292,57673,2,0,L|480:308,1,120,0|2,0:0|0:0,0:0:0:0:
460,224,58173,1,0,0:0:0:0:
460,224,58339,5,4,0:0:0:0:
244,104,59673,6,0,P|208:120|180:152,1,60,2|0,0:0|0:0,0:0:0:0:
164,208,60006,1,0,0:0:0:0:
164,208,60173,2,0,P|196:236|220:248,1,60,0|2,0:0|0:0,0:0:0:0:
224,328,60506,2,0,L|292:320,1,60
312,240,60839,1,0,0:0:0:0:
376,296,61006,1,4,0:0:0:0:
424,104,62339,6,0,L|288:92,1,120,0|2,0:0|0:0,0:0:0:0:
272,176,62839,1,0,0:0:0:0:
352,212,63006,2,0,P|392:208|424:192,1,60,2|0,0:0|0:0,0:0:0:0:
424,104,63339,2,0,L|408:24,1,60,2|0,0:0|0:0,0:0:0:0:
340,148,63673,2,0,L|368:288,1,120,0|2,0:0|0:0,0:0:0:0:
200,264,64339,6,0,P|160:276|88:216,1,120,0|2,0:0|0:0,0:0:0:0:
164,192,64839,1,0,0:0:0:0:
160,108,65006,2,0,L|176:28,1,60,2|0,0:0|0:0,0:0:0:0:
260,56,65339,2,0,L|248:124,1,60,2|0,0:0|0:0,0:0:0:0:
332,124,65673,2,0,P|356:84|444:76,1,120,0|2,0:0|0:0,0:0:0:0:
408,144,66173,1,0,0:0:0:0:
416,220,66339,6,0,L|400:296,1,60,4|0,0:0|0:0,0:0:0:0:
324,244,66673,2,0,L|312:308,2,60,2|0|2,0:0|0:0|0:0,0:0:0:0:
196,192,67339,2,0,L|164:124,2,60,2|0|2,0:0|0:0|0:0,0:0:0:0:
176,308,68006,2,0,P|136:324|104:320,1,60,2|0,0:0|0:0,0:0:0:0:
56,284,68339,1,2,0:0:0:0:
24,212,68506,5,0,0:0:0:0:
24,212,68673,1,2,0:0:0:0:
36,128,68839,1,2,0:0:0:0:
36,128,69006,2,0,L|56:44,1,60,0|2,0:0|0:0,0:0:0:0:
160,56,69339,2,0,L|144:140,1,60,0|2,0:0|0:0,0:0:0:0:
192,196,69673,1,0,0:0:0:0:
288,200,69839,5,0,0:0:0:0:
288,200,69923,1,0,0:0:0:0:
288,200,70006,2,0,P|332:188|360:168,1,60,2|0,0:0|0:0,0:0:0:0:
416,232,70339,2,0,P|416:284|420:312,1,60,2|0,0:0|0:0,0:0:0:0:
336,328,70673,2,0,P|300:296|272:284,1,60,2|0,0:0|0:0,0:0:0:0:
212,312,71006,1,2,0:0:0:0:
136,280,71173,5,0,0:0:0:0:
136,280,71256,1,0,0:0:0:0:
136,280,71339,1,2,0:0:0:0:
88,208,71506,1,0,0:0:0:0:
88,124,71673,2,0,L|156:104,1,60,2|0,0:0|0:0,0:0:0:0:
232,172,72006,2,0,L|168:192,1,60,2|0,0:0|0:0,0:0:0:0:
248,72,72339,6,0,L|312:84,1,60,2|0,0:0|0:0,0:0:0:0:
376,188,72673,2,0,L|308:172,1,60,2|0,0:0|0:0,0:0:0:0:
332,272,73006,2,0,B|272:256|272:256|204:276,1,120,0|2,0:0|0:0,0:0:0:0:
280,352,73506,1,0,0:0:0:0:
376,348,73673,2,0,P|408:336|428:312,1,60,0|2,0:0|0:0,0:0:0:0:
452,232,74006,2,0,P|460:188|456:156,2,60,0|0|4,0:0|0:0|0:0,0:0:0:0:
304,200,77006,6,0,P|312:152|436:116,1,180.000006866455,2|0,0:0|0:0,0:0:0:0:
392,192,77506,1,0,0:0:0:0:
356,268,77673,2,0,P|348:312|308:348,1,90.0000034332277,2|0,0:0|0:0,0:0:0:0:
228,336,78006,2,0,L|172:328,2,45.0000017166138,2|0|0,0:0|0:0|0:0,0:0:0:0:
264,260,78339,6,0,L|80:236,1,180.000006866455,2|0,0:0|0:0,0:0:0:0:
44,304,78839,1,0,0:0:0:0:
136,316,79006,2,0,P|200:240|140:164,1,180.000006866455,2|0,0:0|0:0,0:0:0:0:
188,92,79506,1,2,0:0:0:0:
104,108,79673,2,0,P|72:152|88:204,1,90.0000034332277,2|0,0:0|0:0,0:0:0:0:
144,244,80006,2,0,L|252:232,1,90.0000034332277
312,192,80339,6,0,P|320:216|324:264,2,45.0000017166138,2|0|0,0:0|0:0|0:0,0:0:0:0:
400,252,80673,2,0,P|392:288|368:324,2,45.0000017166138,2|0|0,0:0|0:0|0:0,0:0:0:0:
480,264,81006,2,0,P|468:208|344:192,1,180.000006866455,2|0,0:0|0:0,0:0:0:0:
400,252,81506,1,0,0:0:0:0:
344,316,81673,2,0,P|296:316|252:300,1,90.0000034332277,2|0,0:0|0:0,0:0:0:0:
188,256,82006,2,0,P|168:248|128:240,3,45.0000017166138,2|0|0|0,0:0|0:0|0:0|0:0,0:0:0:0:
108,248,82339,6,0,P|84:204|180:120,1,180.000006866455,2|0,0:0|0:0,0:0:0:0:
232,168,82839,1,0,0:0:0:0:
288,228,83006,2,0,P|316:180|248:84,1,180.000006866455,2|0,0:0|0:0,0:0:0:0:
180,44,83506,1,0,0:0:0:0:
96,80,83673,2,0,B|64:124|64:124|80:260,1,180.000006866455,2|0,0:0|0:0,0:0:0:0:
160,296,84173,1,2,0:0:0:0:
256,284,84339,6,0,L|248:340,2,45.0000017166138,2|0|0,0:0|0:0|0:0,0:0:0:0:
324,208,84673,2,0,L|316:148,3,45.0000017166138,2|0|0|0,0:0|0:0|0:0|0:0,0:0:0:0:
304,124,85006,2,0,P|316:68|424:112,1,180.000006866455,2|0,0:0|0:0,0:0:0:0:
480,144,85506,2,0,L|456:240,1,90.0000034332277,0|2,0:0|0:0,0:0:0:0:
500,312,85839,2,0,P|460:320|404:312,1,90.0000034332277,0|2,0:0|0:0,0:0:0:0:
320,320,86173,1,0,0:0:0:0:
232,328,86339,6,0,P|180:328|124:304,1,90.0000034332277,2|0,0:0|0:0,0:0:0:0:
92,240,86673,2,0,L|80:136,1,90.0000034332277,2|0,0:0|0:0,0:0:0:0:
172,140,87006,2,0,L|184:248,1,90.0000034332277,2|0,0:0|0:0,0:0:0:0:
116,76,87339,1,2,0:0:0:0:
116,76,87506,1,0,0:0:0:0:
208,72,87673,6,0,L|352:96,1,135.000005149841,2|0,0:0|0:0,0:0:0:0:
376,64,88006,1,0,0:0:0:0:
432,136,88173,1,0,0:0:0:0:
404,220,88339,2,0,P|396:268|472:324,2,135.000005149841,2|0|0,0:0|0:0|0:0,0:0:0:0:
476,252,90339,6,0,L|324:292,2,135.000005149841,2|0|2,0:0|0:0|0:0,0:0:0:0:
464,164,91006,2,0,L|312:204,1,135.000005149841,2|0,0:0|0:0,0:0:0:0:
200,232,91506,2,0,P|156:192|188:84,1,180.000006866455,2|0,0:0|0:0,0:0:0:0:
264,48,92006,6,0,L|372:56,1,90.0000034332277,2|0,0:0|0:0,0:0:0:0:
424,104,92339,1,0,0:0:0:0:
460,184,92506,2,0,L|444:300,1,90.0000034332277,0|2,0:0|0:0,0:0:0:0:
368,316,92839,1,0,0:0:0:0:
280,336,93006,6,0,L|120:360,2,135.000005149841,2|0|2,0:0|0:0|0:0,0:0:0:0:
252,252,93673,2,0,L|184:264,1,45.0000017166138,2|0,0:0|0:0,0:0:0:0:
220,176,93923,2,0,L|284:164,1,45.0000017166138,2|0,0:0|0:0,0:0:0:0:
328,224,94173,5,2,0:0:0:0:
204,212,95673,6,0,P|148:212|112:104,1,180.000006866455,2|0,0:0|0:0,0:0:0:0:
184,132,96173,1,2,0:0:0:0:
224,52,96339,2,0,B|264:92|264:92|296:220,1,180.000006866455,0|2,0:0|0:0,0:0:0:0:
276,292,96839,1,0,0:0:0:0:
340,340,97006,2,0,P|372:344|428:332,1,90.0000034332277,2|0,0:0|0:0,0:0:0:0:
464,256,97339,1,2,0:0:0:0:
468,172,97506,1,0,0:0:0:0:
444,96,97673,6,0,L|344:116,1,90.0000034332277,2|0,0:0|0:0,0:0:0:0:
280,132,98006,2,0,P|276:156|276:204,2,45.0000017166138
192,152,98339,2,0,P|218:70|302:47,1,180.000006866455,2|0,0:0|0:0,0:0:0:0:
380,96,98839,1,2,0:0:0:0:
436,172,99006,2,0,B|416:312|416:312|384:252,1,180.000006866455,0|2,0:0|0:0,0:0:0:0:
320,244,99506,1,0,0:0:0:0:
264,312,99673,6,0,P|204:312|180:208,1,180.000006866455,2|0,0:0|0:0,0:0:0:0:
220,140,100173,1,0,0:0:0:0:
296,84,100339,2,0,B|332:76|388:92|388:92|432:80|432:80|384:52,1,180.000006866455,2|0,0:0|0:0,0:0:0:0:
396,176,100839,1,0,0:0:0:0:
364,252,101006,2,0,P|420:256|460:220,1,90.0000034332277,2|0,0:0|0:0,0:0:0:0:
280,212,101339,2,0,P|280:288|308:320,1,90.0000034332277,2|0,0:0|0:0,0:0:0:0:
160,256,101673,2,0,L|208:164,1,90.0000034332277,2|0,0:0|0:0,0:0:0:0:
124,116,102006,2,0,L|80:200,1,90.0000034332277,2|0,0:0|0:0,0:0:0:0:
72,288,102339,6,0,P|100:332|220:316,1,180.000006866455,2|0,0:0|0:0,0:0:0:0:
248,252,102839,1,0,0:0:0:0:
328,224,103006,2,0,L|428:236,1,90.0000034332277,2|0,0:0|0:0,0:0:0:0:
432,144,103339,2,0,L|336:132,1,90.0000034332277,2|0,0:0|0:0,0:0:0:0:
256,192,104006,12,0,106006,0:0:0:0:
