osu file format v13

[General]
AudioFilename: 01 Confiserie.mp3
AudioLeadIn: 0
PreviewTime: -1
Countdown: 1
SampleSet: Normal
StackLeniency: 0.7
Mode: 0
LetterboxInBreaks: 1
WidescreenStoryboard: 0

[Editor]
DistanceSpacing: 0.6
BeatDivisor: 4
GridSize: 4
TimelineZoom: 1.8

[Metadata]
Title:Confiserie
TitleUnicode:Confiserie
Artist:L.E.D. vs S-C-U
ArtistUnicode:L.E.D. vs S-C-U
Creator:Strawberry
Version:unfinished
Source:jubeat saucer
Tags:jubeat saucer Original Soundtrack - Gourzaemon - dance dance revolution DDR サウンドトラック
BeatmapID:455666
BeatmapSetID:191413

[Difficulty]
HPDrainRate:4
CircleSize:4
OverallDifficulty:8
ApproachRate:9
SliderMultiplier:1.8
SliderTickRate:1

[Events]
//Background and Video events
0,0,"wallpaper-207364.jpg",0,0
//Break Periods
//Storyboard Layer 0 (Background)
//Storyboard Layer 1 (Fail)
//Storyboard Layer 2 (Pass)
//Storyboard Layer 3 (Foreground)
//Storyboard Sound Samples
//Background Colour Transformations
3,100,163,162,255

[TimingPoints]
1892,324.324324324324,4,1,1,60,1,0

[Colours]
Combo1 : 237,203,44
Combo2 : 255,98,251
Combo3 : 61,126,250
Combo4 : 54,245,112

[HitObjects]
328,76,594,6,0,L|400:76,3,45,0|0|0|0,0:0|0:0|0:0|0:0,0:0:0:0:
408,104,919,2,0,L|480:104,3,45,0|0|0|0,0:0|0:0|0:0|0:0,0:0:0:0:
476,192,1243,6,0,L|476:256,1,45
392,304,1405,6,0,L|392:259,1,45
284,212,1567,6,0,L|240:212,7,22.5,0|0|0|0|0|0|0|0,0:0|0:0|0:0|0:0|0:0|0:0|0:0|0:0,0:0:0:0:
208,212,1892,2,0,P|204:148|220:92,1,90
192,80,2135,1,0,0:0:0:0:
164,44,2216,2,0,L|64:44,1,90
20,240,2540,1,0,0:0:0:0:
208,212,2702,1,0,0:0:0:0:
74,44,2864,2,0,L|12:44,1,45
116,120,3027,2,0,L|176:120,1,45
284,48,3189,6,0,P|328:44|404:64,1,90
360,136,3432,2,0,L|360:244,1,90
360,248,3675,1,0,0:0:0:0:
128,328,3837,1,0,0:0:0:0:
208,212,4000,1,0,0:0:0:0:
208,212,4081,1,0,0:0:0:0:
208,212,4162,1,0,0:0:0:0:
448,360,4324,1,0,0:0:0:0:
360,248,4486,6,0,P|344:184|364:144,1,90
464,128,4729,2,0,P|420:96|360:92,1,90
296,96,4973,2,0,P|264:52|272:-4,1,90
168,44,5297,5,0,0:0:0:0:
128,48,5378,1,0,0:0:0:0:
92,72,5459,1,0,0:0:0:0:
80,116,5540,1,0,0:0:0:0:
84,160,5621,1,0,0:0:0:0:
116,192,5702,1,0,0:0:0:0:
160,196,5783,5,0,0:0:0:0:
196,168,5864,1,0,0:0:0:0:
240,160,5946,1,0,0:0:0:0:
284,168,6027,1,0,0:0:0:0:
324,188,6108,2,0,L|324:256,3,45,0|0|0|0,0:0|0:0|0:0|0:0,0:0:0:0:
324,280,6432,5,0,0:0:0:0:
348,316,6513,1,0,0:0:0:0:
392,328,6594,1,0,0:0:0:0:
436,316,6675,1,0,0:0:0:0:
464,280,6756,2,0,L|504:280,7,22.5,0|0|0|0|0|0|0|0,0:0|0:0|0:0|0:0|0:0|0:0|0:0|0:0,0:0:0:0:
420,196,7081,6,0,L|420:96,1,90
236,268,7405,2,0,L|236:358,1,90
472,176,7729,1,0,0:0:0:0:
288,48,7891,1,0,0:0:0:0:
236,268,8054,1,0,0:0:0:0:
132,176,8216,2,0,L|72:176,2,45,0|0|0,0:0|0:0|0:0,0:0:0:0:
296,180,8540,1,0,0:0:0:0:
236,268,8702,1,0,0:0:0:0:
136,304,8864,1,0,0:0:0:0:
204,68,9027,5,0,0:0:0:0:
244,48,9108,1,0,0:0:0:0:
288,48,9189,2,0,L|316:48,3,22.5,0|0|0|0,0:0|0:0|0:0|0:0,0:0:0:0:
352,72,9351,1,0,0:0:0:0:
392,92,9432,1,0,0:0:0:0:
436,88,9513,1,0,0:0:0:0:
468,56,9594,1,0,0:0:0:0:
472,8,9675,6,0,L|420:8,3,45,0|0|0|0,0:0|0:0|0:0|0:0,0:0:0:0:
296,136,10000,2,0,L|296:204,3,45,0|0|0|0,0:0|0:0|0:0|0:0,0:0:0:0:
296,276,10324,5,0,0:0:0:0:
284,320,10405,1,0,0:0:0:0:
248,348,10486,1,0,0:0:0:0:
204,356,10567,1,0,0:0:0:0:
148,288,10648,1,0,0:0:0:0:
120,256,10729,1,0,0:0:0:0:
76,240,10810,1,0,0:0:0:0:
32,240,10891,1,0,0:0:0:0:
124,200,10973,6,0,P|168:160|172:88,2,135,0|0|0,0:0|0:0|0:0,0:0:0:0:
64,68,11621,2,0,P|156:-8|264:40,1,225
276,64,12108,2,0,L|276:104,4,22.5,0|0|0|0|0,0:0|0:0|0:0|0:0|0:0,0:0:0:0:
408,140,12432,5,0,0:0:0:0:
408,156,12513,1,0,0:0:0:0:
408,172,12594,1,0,0:0:0:0:
280,236,12756,1,0,0:0:0:0:
280,252,12837,1,0,0:0:0:0:
280,268,12919,1,0,0:0:0:0:
364,288,13081,2,0,P|408:280|484:300,1,90
228,344,13405,2,0,P|184:356|128:332,1,90
72,200,13729,2,0,L|72:290,1,90
224,56,14054,1,0,0:0:0:0:
112,96,14216,1,0,0:0:0:0:
324,108,14378,1,0,0:0:0:0:
352,224,14540,2,0,L|448:224,1,90
396,40,14865,5,0,0:0:0:0:
500,28,15027,1,0,0:0:0:0:
496,44,15108,1,0,0:0:0:0:
492,60,15189,2,0,P|496:112|488:184,1,90
436,304,15513,1,0,0:0:0:0:
352,224,15675,1,0,0:0:0:0:
368,220,15756,1,0,0:0:0:0:
384,216,15837,1,0,0:0:0:0:
324,108,16000,1,0,0:0:0:0:
220,256,16162,1,0,0:0:0:0:
328,344,16324,1,0,0:0:0:0:
316,348,16378,1,0,0:0:0:0:
304,352,16432,1,0,0:0:0:0:
292,356,16486,1,0,0:0:0:0:
136,348,16648,2,0,P|100:280|112:208,1,135
136,184,16973,2,0,L|40:184,2,90,0|0|0,0:0|0:0|0:0,0:0:0:0:
324,108,17459,5,0,0:0:0:0:
396,124,17621,1,0,0:0:0:0:
464,104,17783,1,0,0:0:0:0:
500,40,17946,1,0,0:0:0:0:
264,64,18108,5,0,0:0:0:0:
229,129,18270,1,0,0:0:0:0:
231,200,18432,1,0,0:0:0:0:
284,251,18595,1,0,0:0:0:0:
336,36,18756,5,0,0:0:0:0:
396,124,18919,1,0,0:0:0:0:
408,140,19000,1,0,0:0:0:0:
420,156,19081,2,0,L|420:256,1,90
404,288,19324,1,0,0:0:0:0:
372,320,19405,2,0,P|316:328|256:312,1,90
232,312,19621,2,0,L|232:360,2,30,0|0|0,0:0|0:0|0:0,0:0:0:0:
231,200,19891,1,0,0:0:0:0:
144,256,20054,1,0,0:0:0:0:
232,312,20216,2,0,L|336:312,1,90
472,364,20540,2,0,P|480:316|476:252,1,90
336,216,20864,1,0,0:0:0:0:
392,160,21027,2,0,P|396:96|388:56,1,90
288,36,21351,5,0,0:0:0:0:
208,36,21513,1,0,0:0:0:0:
76,116,21675,1,0,0:0:0:0:
200,116,21837,1,0,0:0:0:0:
336,216,22000,1,0,0:0:0:0:
476,116,22162,2,0,P|496:232|472:312,1,180
468,292,22540,1,0,0:0:0:0:
456,292,22594,1,0,0:0:0:0:
444,292,22648,1,0,0:0:0:0:
256,336,22810,5,0,0:0:0:0:
232,336,22891,1,0,0:0:0:0:
208,336,22973,1,0,0:0:0:0:
336,216,23135,1,0,0:0:0:0:
144,176,23297,2,0,P|160:220|152:272,1,90
96,104,23621,2,0,P|128:40|176:24,1,90
320,88,23946,1,0,0:0:0:0:
336,216,24108,2,0,L|408:216,1,45
472,144,24270,2,0,P|500:96|500:60,1,90
360,64,24594,1,0,0:0:0:0:
340,76,24675,1,0,0:0:0:0:
320,88,24756,1,0,0:0:0:0:
316,208,24919,2,0,L|316:280,2,45,0|0|0,0:0|0:0|0:0,0:0:0:0:
296,196,25162,1,0,0:0:0:0:
276,188,25243,6,0,P|216:196|168:184,1,90
156,160,25486,1,0,0:0:0:0:
124,132,25567,2,0,P|79:126|35:134,1,90
96,284,25891,1,0,0:0:0:0:
316,276,26054,1,0,0:0:0:0:
248,336,26216,2,0,P|208:352|164:336,1,90
344,272,26540,1,0,0:0:0:0:
472,180,26702,1,0,0:0:0:0:
472,168,26756,1,0,0:0:0:0:
472,156,26810,1,0,0:0:0:0:
472,144,26864,1,0,0:0:0:0:
356,144,27027,1,0,0:0:0:0:
264,80,27189,1,0,0:0:0:0:
264,56,27270,1,0,0:0:0:0:
264,32,27351,1,0,0:0:0:0:
152,84,27513,2,0,P|160:136|144:184,1,90
64,280,27837,5,0,0:0:0:0:
272,232,28000,2,0,L|388:232,1,90
168,336,28324,1,0,0:0:0:0:
196,180,28486,2,0,P|148:188|96:172,1,90
264,32,28810,1,0,0:0:0:0:
368,88,28973,1,0,0:0:0:0:
392,88,29054,1,0,0:0:0:0:
416,88,29135,1,0,0:0:0:0:
512,152,29297,1,0,0:0:0:0:
384,212,29459,2,0,P|392:264|380:328,1,90
232,192,29783,2,0,P|224:140|236:76,1,90
216,104,30000,1,0,0:0:0:0:
204,104,30054,1,0,0:0:0:0:
192,104,30108,1,0,0:0:0:0:
68,192,30270,2,0,L|16:192,2,45,0|0|0,0:0|0:0|0:0,0:0:0:0:
136,300,30594,6,0,P|184:332|232:332,1,90
302,141,30919,2,0,P|260:157|232:192,1,90
344,364,31243,1,0,0:0:0:0:
344,364,31405,2,0,P|347:306|323:264,1,90
400,196,31729,6,0,P|444:204|504:188,2,90,0|0|0,0:0|0:0|0:0,0:0:0:0:
303,141,32216,1,0,0:0:0:0:
297,123,32297,1,0,0:0:0:0:
290,106,32378,1,0,0:0:0:0:
188,40,32540,2,0,L|160:40,4,22.5,0|0|0|0|0,0:0|0:0|0:0|0:0|0:0,0:0:0:0:
68,112,32864,5,0,0:0:0:0:
76,156,32946,1,0,0:0:0:0:
88,200,33027,2,0,P|136:228|224:208,1,135
380,248,33351,2,0,P|336:264|292:320,1,90
