osu file format v12

[General]
AudioFilename: Confiserie.mp3
AudioLeadIn: 0
PreviewTime: 54891
Countdown: 0
SampleSet: Normal
StackLeniency: 0.7
Mode: 0
LetterboxInBreaks: 1
WidescreenStoryboard: 0

[Editor]
DistanceSpacing: 0.8
BeatDivisor: 4
GridSize: 8

[Metadata]
Title:Confiserie
TitleUnicode:Confiserie
Artist:L.E.D. vs S-C-U
ArtistUnicode:L.E.D. vs S-C-U
Creator:StaticSphere
Version:Normal
Source:Beatmania IIDX 20th Tricoro
Tags:jubeat saucer
BeatmapID:279051
BeatmapSetID:93168

[Difficulty]
HPDrainRate:4
CircleSize:4
OverallDifficulty:3
ApproachRate:6
SliderMultiplier:1.2
SliderTickRate:2

[Events]
//Background and Video events
0,0,"Confiserie.jpg",0,0
//Break Periods
2,78604,84652
//Storyboard Layer 0 (Background)
//Storyboard Layer 1 (Fail)
//Storyboard Layer 2 (Pass)
//Storyboard Layer 3 (Foreground)
//Storyboard Sound Samples
//Background Colour Transformations
3,100,163,162,255

[TimingPoints]
1864,324.324324324324,4,1,0,80,1,0
3162,-100,4,1,0,80,0,1
12243,-133.333333333333,4,1,0,80,0,1
12972,-100,4,1,0,60,0,0
34297,-100,4,1,0,70,0,1
55054,-100,4,1,0,40,0,0
55135,-100,4,1,0,70,0,0
55702,-100,4,1,0,40,0,0
55783,-100,4,1,0,70,0,0
56351,-100,4,1,0,40,0,0
56432,-100,4,1,0,70,0,0
78405,-100,4,1,0,50,0,0
86189,-100,4,1,0,80,0,0
91378,-100,4,1,0,100,0,1
104351,-66.6666666666667,4,1,0,100,0,0

[Colours]
Combo1 : 128,255,0
Combo2 : 0,128,0

[HitObjects]
256,192,1864,12,0,2836,0:0:0:0:
192,256,3161,6,0,L|112:320,2,90
312,184,3972,1,0,0:0:0:0:
360,104,4135,1,8,0:0:0:0:
264,104,4297,1,0,0:0:0:0:
224,184,4459,6,0,L|128:184,2,90
280,288,5270,1,0,0:0:0:0:
368,328,5432,1,8,0:0:0:0:
360,240,5594,1,0,0:0:0:0:
368,152,5756,6,0,L|368:40,1,90
264,168,6243,2,0,L|192:96,1,90
176,224,6729,2,0,L|120:192,1,60,8|0,0:0|0:0,0:0:0:0:
56,176,7054,6,0,L|64:112,1,60
112,136,7378,2,0,L|152:80,1,60,8|0,0:0|0:0,0:0:0:0:
184,112,7702,2,0,L|240:72,1,60
256,112,8027,2,0,L|328:96,1,60,8|8,0:0|0:0,0:0:0:0:
384,128,8351,6,0,P|368:192|304:232,1,120,4|8,0:0|0:0,0:0:0:0:
256,208,8837,1,0,0:0:0:0:
176,192,8999,2,0,P|136:232|112:304,1,120,4|8,0:0|0:0,0:0:0:0:
256,288,9648,6,0,L|328:320,1,60,4|0,0:0|0:0,0:0:0:0:
336,240,9972,2,0,L|400:208,1,60,8|0,0:0|0:0,0:0:0:0:
336,152,10297,2,0,P|368:88|328:32,1,120,4|8,0:0|0:0,0:0:0:0:
224,152,10945,6,0,L|160:192,2,60,4|0|4,0:0|0:0|0:0,0:0:0:0:
296,104,11432,2,0,L|352:64,2,60,0|4|0,0:0|0:0|0:0,0:0:0:0:
224,152,11918,2,0,L|152:200,1,60,12|8,0:0|0:0,0:0:0:0:
88,208,12243,6,0,P|88:256|184:344,1,180
336,192,13540,6,0,L|400:160,2,60
352,96,14189,2,0,P|320:72|280:80,1,60
248,152,14675,1,0,0:0:0:0:
144,240,14999,2,0,L|80:272,2,60
232,320,15648,1,0,0:0:0:0:
288,200,15972,1,0,0:0:0:0:
320,128,16135,6,0,L|344:64,3,60
248,72,16783,2,0,L|184:96,3,60
224,176,17432,1,0,0:0:0:0:
128,152,17594,1,0,0:0:0:0:
160,248,17756,1,0,0:0:0:0:
224,176,17918,1,0,0:0:0:0:
352,256,18243,2,0,L|424:216,2,60
376,136,18891,6,0,L|312:96,1,60
272,168,19378,2,0,L|216:208,1,60
192,80,19864,1,0,0:0:0:0:
112,152,20189,2,0,L|80:96,2,60
192,176,20675,2,0,P|168:232|96:256,1,120
88,328,21324,6,0,L|160:352,1,60
232,304,21810,1,0,0:0:0:0:
320,264,22135,1,0,0:0:0:0:
368,272,22297,2,0,P|384:176|304:56,1,240
296,104,23918,6,0,L|232:144,2,60,0|0|0,0:0|0:0|0:0,0:0:0:0:
360,168,24405,2,0,L|320:232,1,60
280,288,24729,1,0,0:0:0:0:
168,144,25054,2,0,P|120:192|88:264,1,120
176,280,25702,2,0,P|224:216|280:192,2,120
328,208,26675,6,0,L|288:144,1,60
408,248,27162,2,0,L|448:304,1,60
352,320,27648,1,0,0:0:0:0:
264,304,27810,2,0,L|200:320,1,60
208,232,28135,2,0,L|136:240,1,60
272,136,28621,2,0,L|312:88,2,60
392,144,29270,6,0,L|368:200,1,60
280,224,29756,2,0,L|320:280,1,60
248,328,30243,1,0,0:0:0:0:
136,208,30729,2,0,L|208:176,2,60
152,296,31378,1,0,0:0:0:0:
80,136,31702,6,0,L|152:136,1,60
192,88,32189,1,0,0:0:0:0:
288,144,32513,1,0,0:0:0:0:
360,80,32675,2,0,B|360:192|360:192|288:240|288:240|288:352,1,300
216,296,33648,2,0,P|160:272|144:216,1,120,0|4,0:0|0:0,0:0:0:0:
176,120,34297,6,0,L|80:176,2,90
280,160,35108,1,0,0:0:0:0:
304,240,35270,1,8,0:0:0:0:
360,176,35432,1,0,0:0:0:0:
408,112,35594,6,0,P|368:72|312:48,1,90
280,112,36081,2,0,P|232:104|176:32,1,120
183,55,36567,1,8,0:0:0:0:
88,120,36891,2,0,P|120:176|80:240,1,120
101,224,37378,2,0,L|192:312,2,120
288,232,38675,6,0,P|312:200|296:176,1,60
320,96,39161,1,8,0:0:0:0:
216,128,39486,2,0,L|120:176,2,90
304,184,40459,1,8,0:0:0:0:
400,136,40783,2,0,L|488:184,2,90
384,272,41594,2,0,P|352:272|304:256,1,60,0|8,0:0|0:0,0:0:0:0:
232,256,42081,6,0,P|208:200|232:144,1,120
296,176,42567,2,0,P|320:120|304:64,2,120
208,120,43864,6,0,L|144:152,1,60
256,224,44351,1,8,0:0:0:0:
256,224,44513,1,8,0:0:0:0:
320,168,44675,6,0,L|384:88,2,90
320,168,45324,1,0,0:0:0:0:
208,192,45567,1,8,0:0:0:0:
280,272,45810,1,0,0:0:0:0:
216,320,45972,6,0,L|136:368,2,90
216,320,46621,1,8,0:0:0:0:
136,256,46864,1,0,0:0:0:0:
240,200,47108,1,8,0:0:0:0:
296,128,47270,6,0,L|384:184,2,90,4|0|4,0:0|0:0|0:0,0:0:0:0:
192,56,48081,1,8,0:0:0:0:
168,88,48243,1,0,0:0:0:0:
144,120,48405,1,8,0:0:0:0:
168,152,48567,6,0,B|168:240|168:240|120:272|120:272|120:368,2,240
240,80,50108,1,0,0:0:0:0:
304,144,50351,1,0,0:0:0:0:
232,176,50513,5,8,0:0:0:0:
288,272,50756,1,0,0:0:0:0:
344,176,50999,1,8,0:0:0:0:
416,176,51162,5,0,0:0:0:0:
360,88,51405,1,0,0:0:0:0:
288,144,51648,1,0,0:0:0:0:
216,184,51810,2,0,L|152:232,3,60,8|0|8|0,0:0|0:0|0:0|0:0,0:0:0:0:
128,192,52459,5,4,0:0:0:0:
376,192,53108,1,4,0:0:0:0:
144,272,54891,5,0,0:0:0:0:
96,208,55054,2,0,L|56:144,2,60,8|0|8,0:0|0:0|0:0,0:0:0:0:
200,208,55702,2,0,L|240:152,2,60,8|0|8,0:0|0:0|0:0,0:0:0:0:
192,336,56351,2,0,L|232:384,2,60,8|0|8,0:0|0:0|0:0,0:0:0:0:
168,304,56837,1,0,0:0:0:0:
144,272,56999,2,0,P|120:224|168:152,1,120,0|8,0:0|0:0,0:0:0:0:
216,200,57648,6,0,L|144:160,1,60
216,168,57972,2,0,L|272:144,1,60,8|0,0:0|0:0,0:0:0:0:
216,136,58297,2,0,L|160:104,1,60
216,104,58621,2,0,L|280:72,1,60,8|0,0:0|0:0,0:0:0:0:
216,72,58945,6,0,P|176:48|104:72,1,120,0|8,0:0|0:0,0:0:0:0:
128,96,59432,1,0,0:0:0:0:
144,128,59594,2,0,L|80:232,2,120,4|0|4,0:0|0:0|0:0,0:0:0:0:
376,128,60891,1,4,0:0:0:0:
256,192,61540,2,0,L|256:288,2,90
256,192,62189,1,0,0:0:0:0:
312,144,62513,6,0,P|256:104|200:144,1,120,8|4,0:0|0:0,0:0:0:0:
136,184,63162,2,0,L|88:232,1,60,8|0,0:0|0:0,0:0:0:0:
144,224,63486,2,0,L|120:280,1,60
160,264,63810,2,0,L|160:328,1,60,8|0,0:0|0:0,0:0:0:0:
200,296,64135,2,0,L|312:224,2,120,0|8|0,0:0|0:0|0:0,0:0:0:0:
216,184,65108,5,8,0:0:0:0:
216,184,65270,1,8,0:0:0:0:
216,144,65432,2,0,L|280:112,1,60
160,120,65756,2,0,L|216:88,1,60,8|0,0:0|0:0,0:0:0:0:
104,96,66081,2,0,L|216:40,1,120,0|8,0:0|0:0,0:0:0:0:
104,192,66729,6,0,L|48:224,1,60
160,224,67053,2,0,L|104:256,1,60,8|0,0:0|0:0,0:0:0:0:
208,256,67378,2,0,L|104:320,1,120,0|8,0:0|0:0,0:0:0:0:
240,336,68027,6,0,P|304:280|304:232,1,120,0|8,0:0|0:0,0:0:0:0:
280,216,68513,1,0,0:0:0:0:
256,176,68675,2,0,L|320:144,2,60,8|0|8,0:0|0:0|0:0,0:0:0:0:
176,128,69324,2,0,L|120:240,1,120,0|8,0:0|0:0,0:0:0:0:
136,304,69972,1,0,0:0:0:0:
216,304,70135,1,0,0:0:0:0:
176,232,70297,1,8,0:0:0:0:
256,232,70459,1,8,0:0:0:0:
304,304,70621,5,4,0:0:0:0:
304,88,71270,1,4,0:0:0:0:
192,288,71918,1,4,0:0:0:0:
192,192,72243,1,4,0:0:0:0:
192,96,72567,1,4,0:0:0:0:
296,192,72891,2,8,L|336:192,2,30
296,192,73216,5,4,0:0:0:0:
128,96,73864,1,0,0:0:0:0:
128,288,74513,2,4,L|208:192,1,120,4|4,0:0|0:0,0:0:0:0:
288,176,75161,2,0,L|360:152,1,60
368,128,75485,2,0,L|440:104,1,60
256,192,75810,12,0,78404,0:0:0:0:
256,128,85702,6,0,L|256:96,2,30
256,256,86027,2,0,L|256:288,2,30
256,192,86837,1,4,0:0:0:0:
368,192,88783,5,4,0:0:0:0:
144,192,89432,1,4,0:0:0:0:
96,192,91378,6,0,L|64:256,1,60
144,272,91702,2,0,L|176:336,1,60,8|0,0:0|0:0,0:0:0:0:
192,192,92027,2,0,L|224:128,1,60
240,272,92351,2,0,L|272:192,1,60,8|0,0:0|0:0,0:0:0:0:
288,128,92675,2,0,L|320:192,1,60
336,64,92999,2,0,L|368:128,1,60,8|0,0:0|0:0,0:0:0:0:
400,176,93324,2,0,P|368:216|280:208,1,120,0|8,0:0|0:0,0:0:0:0:
112,128,93972,6,0,L|48:160,1,60
176,168,94296,2,0,L|248:208,1,60,8|0,0:0|0:0,0:0:0:0:
112,216,94620,2,0,L|88:240,8,30
192,328,95918,5,0,0:0:0:0:
240,256,96080,1,0,0:0:0:0:
288,328,96243,1,8,0:0:0:0:
392,192,96567,5,4,0:0:0:0:
120,192,97216,1,4,0:0:0:0:
256,96,97864,1,4,0:0:0:0:
256,192,98189,1,4,0:0:0:0:
256,288,98513,1,4,0:0:0:0:
352,224,98837,2,8,L|384:256,2,30
304,152,99162,6,0,L|280:64,2,90
232,184,99810,2,0,L|152:104,2,90
168,240,100459,2,0,L|80:192,2,90
128,320,101108,2,0,L|16:288,2,90
216,320,101756,5,0,0:0:0:0:
280,320,101918,1,0,0:0:0:0:
248,264,102081,1,0,0:0:0:0:
312,264,102243,1,0,0:0:0:0:
344,320,102405,1,0,0:0:0:0:
376,264,102567,1,0,0:0:0:0:
344,208,102729,1,0,0:0:0:0:
376,152,102891,1,0,0:0:0:0:
296,152,103054,6,0,L|272:120,8,30
200,88,103864,2,0,P|160:104|136:136,2,60
160,160,104675,5,0,0:0:0:0:
104,256,104999,2,0,L|192:288,1,90.0000034332277
280,200,105486,2,0,L|240:304,1,90.0000034332277
360,304,105810,2,0,L|448:224,2,90.0000034332277
