osu file format v12

[General]
AudioFilename: Confiserie.mp3
AudioLeadIn: 0
PreviewTime: 54891
Countdown: 0
SampleSet: Normal
StackLeniency: 0.7
Mode: 0
LetterboxInBreaks: 1
WidescreenStoryboard: 0

[Editor]
DistanceSpacing: 1
BeatDivisor: 4
GridSize: 8

[Metadata]
Title:Confiserie
TitleUnicode:Confiserie
Artist:L.E.D. vs S-C-U
ArtistUnicode:L.E.D. vs S-C-U
Creator:StaticSphere
Version:Beginner
Source:Beatmania IIDX 20th Tricoro
Tags:jubeat saucer
BeatmapID:280073
BeatmapSetID:93168

[Difficulty]
HPDrainRate:2
CircleSize:3
OverallDifficulty:1
ApproachRate:2
SliderMultiplier:1
SliderTickRate:2

[Events]
//Background and Video events
0,0,"Confiserie.jpg",0,0
//Break Periods
2,78280,89817
//Storyboard Layer 0 (Background)
//Storyboard Layer 1 (Fail)
//Storyboard Layer 2 (Pass)
//Storyboard Layer 3 (Foreground)
//Storyboard Sound Samples
//Background Colour Transformations
3,100,163,162,255

[TimingPoints]
1864,324.324324324324,4,1,0,80,1,0
3162,-100,4,1,0,100,0,1
13539,-100,4,1,0,70,0,0
34297,-100,4,1,0,70,0,1
55054,-100,4,1,0,80,0,0
91378,-100,4,1,0,100,0,1
94615,-100,4,1,0,50,0,1
94701,-100,4,1,0,100,0,1
104351,-66.6666666666667,4,1,0,100,0,0

[Colours]
Combo1 : 128,255,0
Combo2 : 0,128,0

[HitObjects]
176,120,3161,6,0,B|128:168|128:168|128:240|128:240|72:296,2,200,0|8|0,0:0|0:0|0:0,0:0:0:0:
288,240,5107,2,0,B|336:192|336:192|336:96|336:96|376:56,2,200,8|0|8,0:0|0:0|0:0,0:0:0:0:
392,272,7053,2,0,P|256:336|128:272,1,300,0|0,0:0|0:0,0:0:0:0:
72,216,8350,6,0,L|152:136,2,100,4|8|4,0:0|0:0|0:0,0:0:0:0:
288,112,9647,2,0,L|208:192,2,100,4|8|4,0:0|0:0|0:0,0:0:0:0:
400,120,10945,2,0,B|400:200|400:200|360:240|360:240|360:312,1,200,0|8,0:0|0:0,0:0:0:0:
256,192,12242,1,4,0:0:0:0:
120,144,13539,6,0,P|184:192|208:256,2,150
128,264,14836,2,0,L|272:304,1,150
200,184,15647,1,0,0:0:0:0:
328,88,16134,6,0,P|280:144|280:224,2,150
384,184,17431,2,0,P|440:192|448:112,1,150
352,96,18242,2,0,B|296:96|296:96|264:128|264:128|208:128,1,150
144,96,19053,6,0,P|112:144|128:200,1,100
288,264,19863,2,0,P|328:200|312:168,1,100
216,144,20674,2,0,L|240:40,1,100
320,64,21323,2,0,L|448:160,2,150
288,160,23918,6,0,P|248:232|120:272,1,200,0|8,0:0|0:0,0:0:0:0:
104,232,24891,1,0,0:0:0:0:
64,184,25215,2,0,P|112:120|56:24,1,200,0|8,0:0|0:0,0:0:0:0:
208,104,26512,6,0,L|328:224,2,150,0|8|0,0:0|0:0|0:0,0:0:0:0:
160,216,27809,2,0,P|112:168|32:144,2,150,8|0|8,0:0|0:0|0:0,0:0:0:0:
440,224,29269,6,0,P|400:136|352:136,1,150,0|8,0:0|0:0,0:0:0:0:
392,80,30242,2,0,P|296:72|256:112,1,150,0|8,0:0|0:0,0:0:0:0:
208,168,31053,2,0,L|304:216,1,100,0|8,0:0|0:0,0:0:0:0:
344,232,31701,6,0,L|208:296,2,150,0|8|0,0:0|0:0|0:0,0:0:0:0:
176,120,34296,6,0,P|248:48|296:56,2,150,0|8|0,0:0|0:0|0:0,0:0:0:0:
208,160,35593,2,0,P|192:216|112:272,2,150,8|0|8,0:0|0:0|0:0,0:0:0:0:
176,136,36891,2,0,L|48:32,2,150,0|8|0,0:0|0:0|0:0,0:0:0:0:
216,168,38188,1,0,0:0:0:0:
264,176,38836,5,4,0:0:0:0:
312,232,39485,2,0,P|384:272|392:336,2,150,0|8|0,0:0|0:0|0:0,0:0:0:0:
280,256,40782,2,0,P|216:240|184:160,2,150,8|0|8,0:0|0:0|0:0,0:0:0:0:
336,224,42080,2,0,B|304:176|304:176|240:176|240:176|208:144,2,150,0|8|0,0:0|0:0|0:0,0:0:0:0:
256,192,44350,5,8,0:0:0:0:
296,216,44674,2,0,P|272:280|192:328,2,150,4|8|4,0:0|0:0|0:0,0:0:0:0:
328,184,45972,2,0,P|272:128|272:56,2,150,8|0|8,0:0|0:0|0:0,0:0:0:0:
368,216,47269,2,0,B|368:288|368:288|400:320|400:320|400:368,2,150,4|8|4,0:0|0:0|0:0,0:0:0:0:
344,184,48566,2,0,B|328:152|328:152|288:160|288:160|296:112|296:112|240:128|240:128|264:64|264:64|208:80,1,300,0|8,0:0|0:0,0:0:0:0:
192,64,49863,6,0,P|128:96|96:216,1,200,4|8,0:0|0:0,0:0:0:0:
256,304,51161,2,0,P|336:240|352:144,1,200,4|8,0:0|0:0,0:0:0:0:
256,192,52458,12,0,53539,0:0:0:0:
256,192,55053,6,0,B|296:152|296:152|336:192|336:192|376:152,1,150,0|8,0:0|0:0,0:0:0:0:
448,128,56026,2,0,B|488:168|488:168|448:208|448:208|488:248,1,150,0|8,0:0|0:0,0:0:0:0:
384,264,56999,2,0,L|456:360,1,100,0|8,0:0|0:0,0:0:0:0:
384,344,57647,6,0,B|336:304|336:304|272:336|272:336|272:256,2,200,4|8|4,0:0|0:0|0:0,0:0:0:0:
376,224,59593,1,8,0:0:0:0:
376,224,59918,1,8,0:0:0:0:
376,224,60242,6,0,B|320:184|320:184|280:224|280:224|288:176|288:176|248:184,1,200,4|4,0:0|0:0,0:0:0:0:
152,184,61539,2,4,L|80:224,2,75
192,160,62188,1,0,0:0:0:0:
336,88,62836,6,0,B|344:96|344:96|352:88|352:88|360:96|360:96|368:88|368:88|376:96|376:96|384:88|384:88|392:96|392:96|400:88|400:88|408:96|408:96|416:88|416:88|424:96|424:96|432:88|432:88|440:96|440:96|448:88|448:88|456:96|456:96|464:88|464:88|472:96|472:96|480:88|480:88,2,200,4|8|4,0:0|0:0|0:0,0:0:0:0:
264,136,64377,1,4,0:0:0:0:
336,184,64620,2,0,L|384:208,1,50,4|0,0:0|0:0,0:0:0:0:
464,240,65431,6,0,B|416:280|416:280|376:248|376:248|336:280|336:280|296:248,1,200,0|8,0:0|0:0,0:0:0:0:
320,176,66728,2,0,B|344:144|344:144|320:112|320:112|344:80|344:80|320:48|320:48,2,150,0|8|0,0:0|0:0|0:0,0:0:0:0:
256,208,68026,2,0,B|248:200|248:200|240:208|240:208|232:200|232:200|224:208|224:208|216:200|216:200|208:208|208:208|200:200|200:200|192:208|192:208|184:200|184:200|176:208|176:208|168:200|168:200|160:208|160:208|152:200|152:200|144:208|144:208|136:200|136:200|128:208|128:208|120:200|120:200|112:208,2,200
352,168,69972,6,0,B|368:152|368:152|392:168|392:168|416:184|416:184|432:168,1,100,0|8,0:0|0:0,0:0:0:0:
432,136,70620,2,4,L|256:40,2,200,4|4|4,0:0|0:0|0:0,0:0:0:0:
464,176,72242,2,0,L|416:264,1,100
376,160,73215,6,0,P|328:104|256:112,1,150,4|0,0:0|0:0,0:0:0:0:
224,88,73863,2,0,P|160:136|176:208,1,150,4|0,0:0|0:0,0:0:0:0:
128,224,74512,2,0,P|160:272|256:288,1,150,4|0,0:0|0:0,0:0:0:0:
256,256,75161,2,0,P|320:208|336:136,1,150,4|8,0:0|0:0,0:0:0:0:
256,192,75809,12,0,78080,0:0:0:0:
256,240,91377,6,0,L|328:168,1,100,0|8,0:0|0:0,0:0:0:0:
360,136,92026,2,0,L|288:64,1,100,0|8,0:0|0:0,0:0:0:0:
256,32,92674,2,0,L|184:104,1,100,0|8,0:0|0:0,0:0:0:0:
152,144,93323,2,0,L|232:224,1,100,0|8,0:0|0:0,0:0:0:0:
256,248,93972,6,0,B|288:272|288:272|312:264|312:264|312:288|312:288|336:304,1,100,0|8,0:0|0:0,0:0:0:0:
400,280,94620,2,0,L|432:232,3,50,8|0|8|0,0:0|0:0|0:0|0:0,0:0:0:0:
448,208,95269,2,0,P|456:160|416:104,1,100,0|8,0:0|0:0,0:0:0:0:
360,48,95918,2,0,P|304:64|288:120,1,100,0|8,0:0|0:0,0:0:0:0:
320,184,96566,6,4,B|288:184|288:184|288:216|288:216|256:216|256:216|256:248|256:248|224:248|224:248|224:280|224:280|208:280,2,200
384,160,98107,1,0,0:0:0:0:
440,200,98350,2,0,L|392:240,1,50
272,256,99161,6,0,L|272:176,2,75,0|4|0,0:0|0:0|0:0,0:0:0:0:
240,240,99809,2,0,L|240:160,2,75,0|4|0,0:0|0:0|0:0,0:0:0:0:
208,224,100458,2,0,L|208:144,2,75,0|4|0,0:0|0:0|0:0,0:0:0:0:
176,208,101107,2,0,L|176:120,2,75
256,192,101755,12,0,103053,0:0:0:0:
256,192,104674,5,4,0:0:0:0:
256,144,105161,1,4,0:0:0:0:
256,96,105647,2,4,L|256:16,3,75.0000028610231
