osu file format v12

[General]
AudioFilename: Confiserie.mp3
AudioLeadIn: 0
PreviewTime: 54891
Countdown: 0
SampleSet: Normal
StackLeniency: 0.7
Mode: 0
LetterboxInBreaks: 1
WidescreenStoryboard: 0

[Editor]
DistanceSpacing: 1
BeatDivisor: 4
GridSize: 8

[Metadata]
Title:Confiserie
TitleUnicode:Confiserie
Artist:L.E.D. vs S-C-U
ArtistUnicode:L.E.D. vs S-C-U
Creator:StaticSphere
Version:Another
Source:Beatmania IIDX 20th Tricoro
Tags:jubeat saucer
BeatmapID:279050
BeatmapSetID:93168

[Difficulty]
HPDrainRate:5
CircleSize:4
OverallDifficulty:5
ApproachRate:7
SliderMultiplier:1.6
SliderTickRate:2

[Events]
//Background and Video events
0,0,"Confiserie.jpg",0,0
//Break Periods
//Storyboard Layer 0 (Background)
//Storyboard Layer 1 (Fail)
//Storyboard Layer 2 (Pass)
//Storyboard Layer 3 (Foreground)
//Storyboard Sound Samples
//Background Colour Transformations
3,100,163,162,255

[TimingPoints]
1864,324.324324324324,4,1,0,70,1,0
3162,-100,4,1,0,70,0,1
12972,-100,4,1,0,60,0,0
29756,-100,4,1,0,40,0,0
29837,-100,4,1,0,60,0,0
31054,-100,4,1,0,40,0,0
31135,-100,4,1,0,60,0,0
31702,-100,4,1,0,40,0,0
31783,-100,4,1,0,60,0,0
32675,-133.333333333333,4,1,0,50,0,0
34297,-100,4,1,0,70,0,1
42081,-100,4,1,0,50,0,1
42162,-100,4,1,0,70,0,1
52459,-100,4,1,0,70,0,0
55054,-100,4,1,0,30,0,0
55135,-100,4,1,0,70,0,0
55702,-100,4,1,0,30,0,0
55783,-100,4,1,0,70,0,0
56837,-100,4,1,0,30,0,0
56918,-100,4,1,0,70,0,0
58135,-100,4,1,0,30,0,0
58216,-100,4,1,0,70,0,0
58782,-100,4,1,0,30,0,0
58863,-100,4,1,0,70,0,0
65594,-100,4,1,0,30,0,0
65675,-100,4,1,0,70,0,0
66243,-100,4,1,0,30,0,0
66324,-100,4,1,0,70,0,0
78405,-100,4,1,0,50,0,0
86189,-100,4,1,0,80,0,0
91378,-100,4,1,0,80,0,1
91864,-100,4,1,0,40,0,1
91945,-100,4,1,0,80,0,1
92513,-100,4,1,0,40,0,1
92594,-100,4,1,0,80,0,1
101756,-200,4,1,0,80,0,1
104351,-100,4,1,0,80,0,0

[Colours]
Combo1 : 128,255,0
Combo2 : 0,128,0

[HitObjects]
440,296,1864,2,0,L|376:272,3,40
368,296,2188,2,0,L|328:312,3,40
304,320,2512,2,0,L|280:280,3,40
256,304,2836,2,0,L|224:328,3,40
192,312,3162,5,0,0:0:0:0:
112,280,3405,2,0,P|144:256|136:168,1,120,0|2,0:0|0:0,0:0:0:0:
144,88,3810,1,0,0:0:0:0:
240,112,3972,2,0,L|320:136,2,80,2|0|2,0:0|0:0|0:0,0:0:0:0:
392,80,4459,5,0,0:0:0:0:
456,200,4702,2,0,P|448:240|376:304,1,120,0|2,0:0|0:0,0:0:0:0:
320,208,5108,1,2,0:0:0:0:
256,256,5270,2,0,L|184:312,2,80,0|2|0,0:0|0:0|0:0,0:0:0:0:
88,344,5756,6,0,P|64:288|72:216,1,120
176,224,6243,2,0,P|168:168|176:80,1,120
280,80,6729,1,2,0:0:0:0:
400,152,6891,2,0,L|352:184,1,40
344,192,7054,6,0,L|312:216,3,40
280,248,7378,2,0,L|328:272,3,40
344,288,7702,2,0,L|304:320,3,40
272,328,8027,2,0,L|224:312,3,40
192,296,8351,5,4,0:0:0:0:
168,208,8675,2,0,L|88:176,1,80,8|0,0:0|0:0,0:0:0:0:
232,120,8999,1,0,0:0:0:0:
232,120,9081,1,0,0:0:0:0:
232,120,9162,2,0,L|320:176,1,80,0|8,0:0|0:0,0:0:0:0:
352,224,9648,2,0,L|416:176,1,80
352,224,9972,2,0,L|424:296,1,80,8|0,0:0|0:0,0:0:0:0:
272,280,10297,1,0,0:0:0:0:
200,224,10459,1,0,0:0:0:0:
112,256,10621,1,8,0:0:0:0:
48,176,10783,1,0,0:0:0:0:
136,112,10945,6,0,L|184:88,3,40
200,112,11269,2,0,L|248:136,3,40
264,120,11593,2,0,L|320:112,3,40
328,136,11918,2,0,L|376:144,1,40
384,168,12080,2,0,L|416:200,1,40
256,192,12243,12,0,12891,0:0:0:0:
152,192,13540,5,0,0:0:0:0:
200,280,13702,2,0,P|152:296|88:288,2,80
288,224,14189,1,0,0:0:0:0:
248,144,14351,1,0,0:0:0:0:
352,160,14513,2,0,L|432:120,1,80
432,224,14837,6,0,P|456:256|432:320,1,80
368,304,15162,1,0,0:0:0:0:
296,240,15324,2,0,L|168:336,2,160
224,184,16135,6,0,P|184:168|120:192,1,80
152,248,16459,2,0,P|112:272|56:256,1,80
72,176,16783,1,0,0:0:0:0:
112,96,16945,2,0,L|176:40,2,80
72,176,17432,5,0,0:0:0:0:
72,176,17594,1,0,0:0:0:0:
112,304,17756,1,0,0:0:0:0:
112,304,17918,1,0,0:0:0:0:
304,240,18243,2,0,L|216:208,2,80
360,144,18891,6,0,L|448:104,2,80
440,216,19378,1,0,0:0:0:0:
352,240,19540,1,0,0:0:0:0:
240,112,19864,6,0,P|192:136|104:248,1,160
208,248,20351,1,0,0:0:0:0:
128,304,20513,1,0,0:0:0:0:
224,344,20675,2,0,L|320:312,2,80
208,248,21162,1,0,0:0:0:0:
128,216,21324,6,0,L|168:128,1,80
264,136,21810,2,0,P|328:152|368:232,1,160
288,232,22297,2,0,B|304:184|304:184|360:200|360:200|368:136|368:136|424:144|424:144|424:96|424:96|424:96|456:72|456:72|464:64,2,320
336,280,23918,6,0,P|296:304|256:288,1,80
200,256,24243,1,8,0:0:0:0:
136,208,24405,2,0,P|80:184|56:208,1,80
88,264,24729,2,0,L|56:344,2,80,0|8|0,0:0|0:0|0:0,0:0:0:0:
176,304,25216,6,0,L|216:224,1,80
192,152,25540,1,8,0:0:0:0:
280,136,25702,2,0,P|272:80|240:64,2,80
352,216,26189,1,8,0:0:0:0:
280,272,26351,1,0,0:0:0:0:
352,344,26513,6,0,L|424:296,1,80
480,232,26837,2,0,L|408:192,1,80,8|0,0:0|0:0,0:0:0:0:
344,128,27162,1,0,0:0:0:0:
264,208,27324,1,0,0:0:0:0:
184,128,27486,1,8,0:0:0:0:
264,48,27648,1,0,0:0:0:0:
264,128,27810,6,0,L|200:192,1,80
208,264,28135,1,8,0:0:0:0:
248,352,28297,2,0,P|208:360|88:304,1,160
144,232,28783,1,8,0:0:0:0:
48,240,28945,1,8,0:0:0:0:
96,152,29108,5,0,0:0:0:0:
176,88,29270,1,0,0:0:0:0:
232,184,29432,2,0,L|272:112,2,80,8|0|8,0:0|0:0|0:0,0:0:0:0:
320,232,29918,1,0,0:0:0:0:
384,304,30081,2,0,L|304:328,1,80,8|0,0:0|0:0,0:0:0:0:
224,336,30404,5,0,0:0:0:0:
208,256,30567,1,0,0:0:0:0:
208,256,30648,1,0,0:0:0:0:
208,256,30729,2,0,L|128:272,2,80,8|0|8,0:0|0:0|0:0,0:0:0:0:
288,176,31216,1,0,0:0:0:0:
288,176,31297,1,0,0:0:0:0:
288,176,31378,2,0,L|368:144,2,80,8|0|8,0:0|0:0|0:0,0:0:0:0:
216,136,31864,1,0,0:0:0:0:
62,89,32189,1,0,0:0:0:0:
91,246,32513,1,0,0:0:0:0:
160,296,32675,6,0,P|248:312|360:200,1,240.000009155274
392,96,33810,5,8,0:0:0:0:
296,96,33972,1,0,0:0:0:0:
344,184,34135,1,8,0:0:0:0:
264,240,34297,2,0,B|208:296|208:296|176:264,2,120,0|8|0,0:0|0:0|0:0,0:0:0:0:
192,192,34945,2,0,L|200:152,3,40
232,136,35270,2,0,L|136:96,1,80,8|0,0:0|0:0,0:0:0:0:
48,144,35593,6,0,P|88:88|144:104,2,120,0|8|0,0:0|0:0|0:0,0:0:0:0:
112,224,36243,2,0,L|96:264,3,40
64,280,36567,2,0,L|152:328,1,80,8|0,0:0|0:0,0:0:0:0:
216,328,36891,2,0,B|280:280|280:280|344:320,1,120,0|8,0:0|0:0,0:0:0:0:
360,200,37378,2,0,B|296:240|296:240|216:192,1,160,0|0,0:0|0:0,0:0:0:0:
288,144,37864,2,0,L|208:120,1,80,8|0,0:0|0:0,0:0:0:0:
184,88,38513,5,8,0:0:0:0:
128,176,38675,1,0,0:0:0:0:
80,96,38837,2,0,L|64:144,3,40
40,160,39161,2,0,P|56:208|112:232,1,80,8|0,0:0|0:0,0:0:0:0:
176,272,39486,6,0,B|248:216|248:216|208:208,2,120,0|8|0,0:0|0:0|0:0,0:0:0:0:
256,320,40135,2,0,L|296:296,3,40
328,280,40459,2,0,B|352:232|352:232|376:272,1,80,8|0,0:0|0:0,0:0:0:0:
432,200,40783,2,0,B|352:192|352:192|320:144,1,120,0|8,0:0|0:0,0:0:0:0:
384,64,41270,1,0,0:0:0:0:
288,96,41432,2,0,L|248:120,3,40
256,152,41756,2,0,B|208:152|208:152|200:120,1,80,8|0,0:0|0:0,0:0:0:0:
128,192,42081,6,0,L|112:96,2,80,8|0|8,0:0|0:0|0:0,0:0:0:0:
208,240,42567,2,0,L|216:320,2,80
280,176,43054,1,8,0:0:0:0:
256,96,43216,1,0,0:0:0:0:
352,264,43702,5,8,0:0:0:0:
408,184,43864,1,0,0:0:0:0:
344,120,44027,2,0,L|344:80,3,40
304,56,44351,2,0,L|304:96,3,40,8|0|8|0,0:0|0:0|0:0|0:0,0:0:0:0:
264,120,44675,5,4,0:0:0:0:
296,200,44837,2,0,P|264:232|208:240,2,80,0|8|0,0:0|0:0|0:0,0:0:0:0:
264,120,45324,2,0,L|208:96,3,40
224,136,45648,2,0,P|160:144|136:120,1,80,8|0,0:0|0:0,0:0:0:0:
88,88,45972,5,0,0:0:0:0:
96,176,46135,2,0,L|56:248,1,80,0|8,0:0|0:0,0:0:0:0:
112,304,46459,1,0,0:0:0:0:
184,256,46621,2,0,L|224:232,3,40
256,248,46945,2,0,P|320:216|320:184,1,80,8|0,0:0|0:0,0:0:0:0:
352,144,47270,5,4,0:0:0:0:
280,80,47432,2,0,L|184:120,2,80,0|8|0,0:0|0:0|0:0,0:0:0:0:
352,144,47918,1,0,0:0:0:0:
416,216,48081,2,0,L|504:168,2,80,0|8|0,0:0|0:0|0:0,0:0:0:0:
352,144,48567,5,0,0:0:0:0:
352,144,48729,1,0,0:0:0:0:
288,224,48891,1,8,0:0:0:0:
288,224,49054,1,0,0:0:0:0:
248,320,49216,2,0,L|208:296,3,40
216,264,49540,2,0,L|176:240,3,40,8|0|8|0,0:0|0:0|0:0|0:0,0:0:0:0:
168,208,49864,6,0,L|64:160,1,80
184,120,50189,2,0,L|272:160,1,80,8|0,0:0|0:0,0:0:0:0:
112,88,50513,2,0,L|160:16,1,80
224,240,50837,2,0,L|168:312,1,80,8|0,0:0|0:0,0:0:0:0:
136,208,51162,6,0,L|192:128,1,80
264,176,51486,2,0,L|352:216,1,80,8|0,0:0|0:0,0:0:0:0:
216,256,51810,2,0,L|136:208,1,80
168,136,52135,2,8,L|80:88,1,80
80,176,52459,5,0,0:0:0:0:
176,312,52648,1,0,0:0:0:0:
264,176,52864,1,0,0:0:0:0:
352,312,53108,1,0,0:0:0:0:
448,184,53297,1,0,0:0:0:0:
376,48,53513,1,0,0:0:0:0:
248,104,54891,6,0,L|216:80,1,40
192,56,55054,2,0,P|208:104|176:152,2,80,8|0|8,0:0|0:0|0:0,0:0:0:0:
128,96,55540,1,0,0:0:0:0:
136,176,55702,2,0,P|144:224|128:256,2,80,8|0|8,0:0|0:0|0:0,0:0:0:0:
64,216,56189,1,0,0:0:0:0:
96,296,56351,2,0,P|112:344|96:384,1,80
160,256,56675,6,0,L|192:232,3,40,8|0|8|0,0:0|0:0|0:0|0:0,0:0:0:0:
224,248,56999,2,0,L|256:224,3,40
288,224,57324,1,8,0:0:0:0:
336,272,57648,6,0,L|368:248,3,40
384,216,57972,2,0,L|368:176,3,40,8|0|8|0,0:0|0:0|0:0|0:0,0:0:0:0:
344,144,58297,2,0,L|384:112,3,40
400,88,58620,2,0,L|392:48,3,40,8|0|8|0,0:0|0:0|0:0|0:0,0:0:0:0:
368,32,58945,1,0,0:0:0:0:
72,128,59594,6,0,L|120:152,3,40
136,168,59918,2,0,L|184:144,3,40,8|0|8|0,0:0|0:0|0:0|0:0,0:0:0:0:
208,136,60243,1,0,0:0:0:0:
288,192,60405,2,0,P|312:232|288:272,2,80,0|8|0,0:0|0:0|0:0,0:0:0:0:
328,128,60891,2,0,L|352:96,3,40
384,64,61216,1,8,0:0:0:0:
400,224,61540,5,4,0:0:0:0:
272,304,61783,1,4,0:0:0:0:
136,248,62027,1,4,0:0:0:0:
112,160,62189,1,4,0:0:0:0:
200,120,62513,5,0,0:0:0:0:
296,80,62675,2,0,L|344:48,1,40,8|0,0:0|0:0,0:0:0:0:
368,56,62837,5,0,0:0:0:0:
368,56,62999,1,0,0:0:0:0:
328,192,63162,1,8,0:0:0:0:
328,192,63324,1,0,0:0:0:0:
272,312,63486,1,0,0:0:0:0:
272,312,63648,1,0,0:0:0:0:
160,208,63810,1,8,0:0:0:0:
160,208,63972,1,0,0:0:0:0:
240,128,64135,6,0,P|168:72|112:88,2,120
280,216,64783,1,0,0:0:0:0:
392,248,65108,2,0,L|432:280,4,40,8|0|8|0|8,0:0|0:0|0:0|0:0|0:0,0:0:0:0:
400,160,65594,6,8,L|360:136,2,40,8|0|8,0:0|0:0|0:0,0:0:0:0:
312,208,65918,2,0,L|288:240,2,40
256,120,66243,2,0,L|296:152,2,40,8|0|8,0:0|0:0|0:0,0:0:0:0:
320,72,66567,2,0,L|344:40,2,40
232,184,66891,2,0,L|248:224,2,40,8|0|8,0:0|0:0|0:0,0:0:0:0:
224,152,67135,6,0,L|192:128,3,40
152,144,67459,2,0,L|120:112,2,40
128,80,67701,1,8,0:0:0:0:
64,152,68027,2,0,L|88:184,7,40
72,216,68675,2,0,L|104:256,7,40
96,280,69324,1,0,0:0:0:0:
296,264,69972,5,0,0:0:0:0:
240,192,70134,1,0,0:0:0:0:
184,120,70297,2,0,L|144:144,2,40,8|0|8,0:0|0:0|0:0,0:0:0:0:
208,88,70539,2,0,L|240:64,1,40
336,104,70783,2,0,L|352:56,1,40
376,184,71027,2,0,L|344:216,1,40
432,256,71270,2,0,L|472:256,1,40,8|0,0:0|0:0,0:0:0:0:
392,344,71513,2,0,L|360:320,1,40
256,296,71756,1,0,0:0:0:0:
144,256,71918,5,4,0:0:0:0:
256,152,72162,1,4,0:0:0:0:
96,72,72405,1,4,0:0:0:0:
40,192,72567,1,4,0:0:0:0:
168,152,72891,2,0,L|184:128,7,20
168,152,73216,5,4,0:0:0:0:
256,88,73459,1,4,0:0:0:0:
264,224,73702,1,4,0:0:0:0:
336,160,73864,1,4,0:0:0:0:
400,56,74108,1,4,0:0:0:0:
424,264,74351,1,4,0:0:0:0:
464,144,74513,5,4,0:0:0:0:
256,88,74756,1,4,0:0:0:0:
264,224,74999,1,4,0:0:0:0:
336,160,75162,1,4,0:0:0:0:
192,160,75405,1,4,0:0:0:0:
88,160,75648,1,4,0:0:0:0:
192,160,75810,5,0,0:0:0:0:
288,160,75972,1,0,0:0:0:0:
240,80,76135,2,0,L|264:48,4,40
240,256,76621,2,0,L|248:280,4,20
328,192,76945,2,0,L|352:200,3,20
400,88,77918,5,0,0:0:0:0:
304,128,78081,1,0,0:0:0:0:
384,192,78243,1,0,0:0:0:0:
320,264,78405,2,0,P|288:304|208:296,1,120,4|0,0:0|0:0,0:0:0:0:
144,232,78891,2,0,P|176:184|288:192,1,160
240,80,79378,1,0,0:0:0:0:
160,40,79540,1,0,0:0:0:0:
96,112,79702,6,0,P|128:176|104:256,2,120
208,184,80513,1,0,0:0:0:0:
304,208,80675,1,0,0:0:0:0:
360,296,80837,1,0,0:0:0:0:
256,272,80999,1,0,0:0:0:0:
120,336,81243,2,0,P|72:288|56:232,1,120
120,120,81810,1,0,0:0:0:0:
24,120,81972,1,0,0:0:0:0:
72,40,82135,1,0,0:0:0:0:
336,144,82783,5,0,0:0:0:0:
416,192,82945,2,0,P|400:240|368:256,1,80
480,280,83270,2,0,P|464:320|424:336,1,80
352,320,83594,6,0,L|256:256,1,80
286,196,83918,2,0,L|286:300,1,80
219,321,84243,2,0,L|291:273,1,80
285,276,84567,2,0,L|208:224,1,80
220,151,84891,2,0,L|220:247,1,80
285,277,85216,2,0,L|205:221,1,80
151,273,85540,2,0,L|231:225,1,80
104,192,85864,2,0,L|88:176,4,20
152,72,86188,5,0,0:0:0:0:
216,168,86404,1,0,0:0:0:0:
280,72,86620,1,0,0:0:0:0:
344,192,86836,1,0,0:0:0:0:
408,72,87053,1,0,0:0:0:0:
472,216,87269,1,0,0:0:0:0:
368,320,88783,5,0,0:0:0:0:
296,224,88999,1,0,0:0:0:0:
224,320,89215,1,0,0:0:0:0:
144,176,89432,1,0,0:0:0:0:
72,320,89647,1,0,0:0:0:0:
8,128,89863,1,0,0:0:0:0:
400,88,90729,5,0,0:0:0:0:
368,184,90891,1,0,0:0:0:0:
304,104,91054,2,0,L|264:88,2,40
272,192,91378,6,0,P|240:232|200:248,1,80
168,112,91702,2,0,L|144:144,3,40,8|0|8|0,0:0|0:0|0:0|0:0,0:0:0:0:
112,144,92027,2,0,P|104:192|144:232,1,80
72,328,92351,2,0,L|112:312,3,40,8|0|8|0,0:0|0:0|0:0|0:0,0:0:0:0:
144,320,92675,2,0,P|184:280|184:248,1,80
240,160,92999,5,8,0:0:0:0:
320,240,93162,1,0,0:0:0:0:
392,136,93324,2,0,L|440:120,2,40
256,80,93648,2,0,L|232:48,1,40,8|0,0:0|0:0,0:0:0:0:
200,64,93810,2,0,L|168:40,1,40
136,32,93972,6,0,P|120:80|136:136,1,80
168,192,94297,1,8,0:0:0:0:
88,208,94459,2,0,L|8:232,2,80
144,296,94945,2,0,L|176:264,1,40,8|0,0:0|0:0,0:0:0:0:
208,256,95108,2,0,L|240:232,1,40
272,216,95270,6,0,P|296:176|264:56,1,160,0|8,0:0|0:0,0:0:0:0:
176,40,95756,1,0,0:0:0:0:
88,120,95918,2,0,L|176:152,1,80
80,216,96243,2,0,L|96:256,1,40,8|0,0:0|0:0,0:0:0:0:
128,264,96405,2,0,L|160:304,1,40,8|0,0:0|0:0,0:0:0:0:
184,312,96567,6,0,P|272:288|272:248,1,120,0|2,0:0|0:0,0:0:0:0:
216,232,97054,1,0,0:0:0:0:
272,160,97216,2,4,P|304:112|384:104,1,120,4|6,0:0|0:0,0:0:0:0:
408,176,97702,1,0,0:0:0:0:
296,272,97864,2,0,L|160:296,2,120,0|2|0,0:0|0:0|0:0,0:0:0:0:
224,160,98513,1,2,0:0:0:0:
192,56,98837,5,8,0:0:0:0:
168,64,98918,1,0,0:0:0:0:
144,72,98999,1,0,0:0:0:0:
120,80,99081,1,0,0:0:0:0:
96,96,99162,2,0,P|64:128|48:208,2,120,0|2|0,0:0|0:0|0:0,0:0:0:0:
160,280,99810,2,0,P|208:248|224:160,2,120,0|2|0,0:0|0:0|0:0,0:0:0:0:
232,136,100459,2,0,L|312:88,1,80,2|0,0:0|0:0,0:0:0:0:
408,96,100783,2,0,L|368:208,1,80,10|0,0:0|0:0,0:0:0:0:
464,288,101108,1,2,0:0:0:0:
432,304,101189,1,0,0:0:0:0:
400,312,101270,1,0,0:0:0:0:
368,304,101352,1,0,0:0:0:0:
336,288,101433,1,2,0:0:0:0:
304,272,101513,1,0,0:0:0:0:
272,256,101594,1,0,0:0:0:0:
240,264,101675,1,0,0:0:0:0:
208,280,101756,6,0,L|64:160,1,160
40,112,102567,1,0,0:0:0:0:
128,72,102729,1,8,0:0:0:0:
192,152,102891,1,0,0:0:0:0:
248,72,103054,2,0,L|408:72,2,160
72,72,104675,5,4,0:0:0:0:
96,240,104999,2,0,L|120:304,2,40
256,160,105486,2,0,L|296:152,2,40
272,264,105810,1,0,0:0:0:0:
392,192,105972,1,0,0:0:0:0:
416,336,106135,1,0,0:0:0:0:
