osu file format v12

[General]
AudioFilename: Confiserie.mp3
AudioLeadIn: 0
PreviewTime: 54891
Countdown: 0
SampleSet: Normal
StackLeniency: 0.7
Mode: 3
LetterboxInBreaks: 1
SpecialStyle: 0
WidescreenStoryboard: 0

[Editor]
DistanceSpacing: 1
BeatDivisor: 4
GridSize: 8

[Metadata]
Title:Confiserie
TitleUnicode:Confiserie
Artist:L.E.D. vs S-C-U
ArtistUnicode:L.E.D. vs S-C-U
Creator:StaticSphere
Version:7-(SWEETS!)
Source:Beatmania IIDX 20th Tricoro
Tags:HUES0208
BeatmapID:279049
BeatmapSetID:93168

[Difficulty]
HPDrainRate:9
CircleSize:7
OverallDifficulty:8
ApproachRate:6
SliderMultiplier:1.2
SliderTickRate:2

[Events]
//Background and Video events
0,0,"Confiserie.jpg",0,0
//Break Periods
//Storyboard Layer 0 (Background)
//Storyboard Layer 1 (Fail)
//Storyboard Layer 2 (Pass)
//Storyboard Layer 3 (Foreground)
//Storyboard Sound Samples
//Background Colour Transformations
3,100,163,162,255

[TimingPoints]
1864,324.324324324324,4,1,0,0,1,0
3162,-100,4,1,0,0,0,0
9648,-100,4,1,0,0,0,0
10297,-100,4,1,0,0,0,0
10945,-100,4,1,0,0,0,0
12161,-66.6666666666667,4,1,0,0,0,0
12242,-100,4,1,0,0,0,0
12404,-66.6666666666667,4,1,0,0,0,0
12486,-100,4,1,0,0,0,0
12647,-66.6666666666667,4,1,0,0,0,0
12728,-100,4,1,0,0,0,0
12891,-133.333333333333,4,1,0,0,0,0
13215,-66.6666666666667,4,1,0,0,0,0
13540,-105.263157894737,4,1,0,0,0,0
34296,-100,4,1,0,0,0,0
52459,-133.333333333333,4,1,0,0,0,0
53755,-166.666666666667,4,1,0,0,0,0
55054,-100,4,1,0,0,0,1
73216,-100,4,1,0,0,0,0
78405,-166.666666666667,4,1,0,0,0,0
83594,-133.333333333333,4,1,0,0,0,0
86189,-133.333333333333,4,1,0,0,0,0
88782,-111.111111111111,4,1,0,0,0,0
90729,-133.333333333333,4,1,0,0,0,0
91378,-100,4,1,0,0,0,1
97864,-200,4,1,0,0,0,1
98027,-100,4,1,0,0,0,1
98108,-200,4,1,0,0,0,1
98351,-100,4,1,0,0,0,1
98513,-200,4,1,0,0,0,1
98837,-133.333333333333,4,1,0,0,0,1
99162,-100,4,1,0,0,0,1
100459,-100,4,1,0,0,0,1
103054,-133.333333333333,4,1,0,0,0,0
105648,-100,4,1,0,0,0,0
105972,-66.6666666666667,4,1,0,0,0,0
106135,-50,4,1,0,0,0,0

[Colours]
Combo1 : 192,192,192
Combo2 : 0,128,255

[HitObjects]
109,192,1864,1,0,0:0:0:0:
475,192,1864,128,0,2188:0:0:0:0:
36,192,1945,1,0,0:0:0:0:
109,192,2026,1,0,0:0:0:0:
182,192,2107,1,0,0:0:0:0:
329,192,2188,1,0,0:0:0:0:
36,192,2188,128,0,2512:0:0:0:0:
402,192,2269,1,0,0:0:0:0:
475,192,2350,1,0,0:0:0:0:
402,192,2431,1,0,0:0:0:0:
182,192,2512,1,0,0:0:0:0:
329,192,2512,1,8,0:0:0:0:
475,192,2512,1,8,0:0:0:0:
256,192,2593,1,0,0:0:0:0:
182,192,2674,1,0,0:0:0:0:
329,192,2674,1,8,0:0:0:0:
475,192,2674,1,8,0:0:0:0:
256,192,2755,1,0,0:0:0:0:
36,192,2836,1,0,0:0:0:0:
329,192,2836,1,8,0:0:0:0:
402,192,2891,1,8,0:0:0:0:
109,192,2918,1,0,0:0:0:0:
475,192,2945,1,8,0:0:0:0:
182,192,2999,1,0,0:0:0:0:
329,192,2999,1,8,0:0:0:0:
402,192,3053,1,8,0:0:0:0:
256,192,3080,1,0,0:0:0:0:
475,192,3107,1,8,0:0:0:0:
36,192,3161,1,8,0:0:0:0:
109,192,3161,128,0,3485:0:0:0:0:
329,192,3161,1,0,0:0:0:0:
475,192,3323,1,2,0:0:0:0:
182,192,3323,1,0,0:0:0:0:
475,192,3485,1,2,0:0:0:0:
36,192,3485,1,8,0:0:0:0:
402,192,3485,128,0,3809:0:0:0:0:
329,192,3485,1,0,0:0:0:0:
36,192,3647,1,8,0:0:0:0:
182,192,3647,1,0,0:0:0:0:
475,192,3728,1,2,0:0:0:0:
36,192,3809,1,8,0:0:0:0:
109,192,3809,128,0,3972:0:0:0:0:
475,192,3891,1,2,0:0:0:0:
475,192,3972,1,2,0:0:0:0:
182,192,3972,128,0,4134:0:0:0:0:
402,192,3972,1,0,0:0:0:0:
36,192,4134,1,8,0:0:0:0:
475,192,4134,1,2,0:0:0:0:
256,192,4134,128,0,4296:0:0:0:0:
329,192,4134,1,0,0:0:0:0:
36,192,4296,1,8,0:0:0:0:
329,192,4296,128,0,4458:0:0:0:0:
402,192,4296,1,0,0:0:0:0:
36,192,4458,1,8,0:0:0:0:
402,192,4458,128,0,4782:0:0:0:0:
182,192,4458,1,0,0:0:0:0:
475,192,4620,1,2,0:0:0:0:
329,192,4620,1,0,0:0:0:0:
475,192,4782,1,2,0:0:0:0:
36,192,4782,1,8,0:0:0:0:
109,192,4782,128,0,5107:0:0:0:0:
182,192,4782,1,0,0:0:0:0:
36,192,4944,1,8,0:0:0:0:
329,192,4945,1,0,0:0:0:0:
475,192,5025,1,2,0:0:0:0:
36,192,5106,1,8,0:0:0:0:
402,192,5107,128,0,5269:0:0:0:0:
475,192,5188,1,2,0:0:0:0:
475,192,5269,1,2,0:0:0:0:
329,192,5269,128,0,5431:0:0:0:0:
109,192,5269,1,0,0:0:0:0:
475,192,5431,1,2,0:0:0:0:
36,192,5431,1,8,0:0:0:0:
256,192,5431,128,0,5593:0:0:0:0:
182,192,5431,1,0,0:0:0:0:
109,192,5593,1,0,0:0:0:0:
36,192,5593,1,8,0:0:0:0:
182,192,5593,128,0,5755:0:0:0:0:
36,192,5755,1,8,0:0:0:0:
256,192,5755,128,4,6891:2:2:0:0:
402,192,5755,128,0,5999:0:0:0:0:
475,192,5917,1,2,0:0:0:0:
329,192,5999,128,0,6161:0:0:0:0:
36,192,6079,1,8,0:0:0:0:
475,192,6079,1,2,0:0:0:0:
182,192,6161,128,0,6242:0:0:0:0:
36,192,6241,1,8,0:0:0:0:
109,192,6242,128,0,6404:0:0:0:0:
475,192,6322,1,2,0:0:0:0:
36,192,6403,1,8,0:0:0:0:
402,192,6404,128,0,6485:0:0:0:0:
475,192,6485,1,2,0:0:0:0:
109,192,6485,128,0,6647:0:0:0:0:
475,192,6566,1,2,0:0:0:0:
36,192,6728,1,8,0:0:0:0:
475,192,6728,1,2,0:0:0:0:
182,192,6728,1,0,0:0:0:0:
402,192,6728,1,0,0:0:0:0:
109,192,6809,1,0,0:0:0:0:
36,192,6890,1,8,0:0:0:0:
182,192,6891,1,0,0:0:0:0:
329,192,6972,1,0,0:0:0:0:
36,192,7053,1,8,0:0:0:0:
256,192,7053,1,4,2:2:0:0:
402,192,7053,1,0,0:0:0:0:
109,192,7134,1,0,0:0:0:0:
475,192,7215,1,2,0:0:0:0:
182,192,7215,1,0,0:0:0:0:
329,192,7296,1,0,0:0:0:0:
36,192,7377,1,8,0:0:0:0:
256,192,7377,1,4,2:2:0:0:
402,192,7377,1,0,0:0:0:0:
182,192,7377,1,0,0:0:0:0:
475,192,7458,1,2,0:0:0:0:
109,192,7458,1,0,0:0:0:0:
475,192,7539,1,2,0:0:0:0:
182,192,7539,1,0,0:0:0:0:
329,192,7620,1,0,0:0:0:0:
36,192,7701,1,8,0:0:0:0:
256,192,7701,1,4,2:2:0:0:
109,192,7701,1,0,0:0:0:0:
182,192,7782,1,0,0:0:0:0:
475,192,7783,1,2,0:0:0:0:
256,192,7863,1,4,2:2:0:0:
329,192,7863,1,0,0:0:0:0:
475,192,7864,1,2,0:0:0:0:
402,192,7945,1,0,0:0:0:0:
475,192,8026,1,2,0:0:0:0:
36,192,8026,1,8,0:0:0:0:
256,192,8026,1,4,2:2:0:0:
109,192,8026,1,0,0:0:0:0:
329,192,8026,128,0,8269:0:0:0:0:
182,192,8080,1,0,0:0:0:0:
109,192,8134,1,0,0:0:0:0:
36,192,8188,1,8,0:0:0:0:
475,192,8188,1,2,0:0:0:0:
256,192,8188,1,4,2:2:0:0:
182,192,8188,1,0,0:0:0:0:
109,192,8242,1,0,0:0:0:0:
182,192,8296,1,0,0:0:0:0:
475,192,8350,1,0,0:0:0:0:
402,192,8350,1,0,0:0:0:0:
256,192,8350,1,4,2:2:0:0:
36,192,8512,1,8,0:0:0:0:
256,192,8674,1,4,2:2:0:0:
402,192,8674,1,0,0:0:0:0:
475,192,8674,1,0,0:0:0:0:
402,192,8836,1,0,0:0:0:0:
329,192,8836,1,0,0:0:0:0:
256,192,8836,1,4,2:2:0:0:
36,192,8999,1,8,0:0:0:0:
256,192,9161,1,4,2:2:0:0:
329,192,9161,1,0,0:0:0:0:
402,192,9161,1,0,0:0:0:0:
256,192,9323,1,4,2:2:0:0:
402,192,9323,1,0,0:0:0:0:
475,192,9323,1,0,0:0:0:0:
36,192,9485,1,8,0:0:0:0:
109,192,9647,1,8,0:3:0:0:
256,192,9647,1,8,0:3:0:0:
402,192,9647,1,8,0:3:0:0:
182,192,9809,1,8,0:3:0:0:
329,192,9809,1,8,0:3:0:0:
475,192,9809,1,8,0:3:0:0:
402,192,9972,1,8,0:3:0:0:
256,192,9972,1,8,0:3:0:0:
109,192,9972,1,8,0:3:0:0:
329,192,10134,1,8,0:3:0:0:
182,192,10134,1,8,0:3:0:0:
36,192,10134,1,8,0:3:0:0:
475,192,10296,1,0,0:0:0:0:
402,192,10350,1,0,0:0:0:0:
329,192,10404,1,0,0:0:0:0:
256,192,10458,1,0,0:0:0:0:
182,192,10512,1,0,0:0:0:0:
109,192,10566,1,0,0:0:0:0:
36,192,10620,1,0,0:0:0:0:
109,192,10674,1,0,0:0:0:0:
182,192,10728,1,0,0:0:0:0:
256,192,10782,1,0,0:0:0:0:
329,192,10836,1,0,0:0:0:0:
402,192,10891,1,0,0:0:0:0:
475,192,10945,1,0,0:0:0:0:
256,192,10945,1,0,0:0:0:0:
36,192,11026,1,0,0:0:0:0:
109,192,11107,1,0,0:0:0:0:
182,192,11188,1,0,0:0:0:0:
475,192,11269,1,0,0:0:0:0:
329,192,11269,1,0,0:0:0:0:
109,192,11350,1,0,0:0:0:0:
182,192,11431,1,0,0:0:0:0:
256,192,11512,1,0,0:0:0:0:
475,192,11593,1,0,0:0:0:0:
402,192,11593,1,0,0:0:0:0:
36,192,11674,1,0,0:0:0:0:
182,192,11674,1,0,0:0:0:0:
109,192,11755,1,0,0:0:0:0:
256,192,11755,1,0,0:0:0:0:
182,192,11836,1,0,0:0:0:0:
329,192,11836,1,0,0:0:0:0:
36,192,11918,1,0,0:0:0:0:
256,192,11918,1,0,0:0:0:0:
109,192,11999,1,0,0:0:0:0:
329,192,11999,1,0,0:0:0:0:
182,192,12080,1,0,0:0:0:0:
402,192,12080,1,0,0:0:0:0:
256,192,12161,1,0,0:0:0:0:
475,192,12161,1,0,0:0:0:0:
109,192,12242,1,0,0:0:0:0:
182,192,12242,1,4,0:2:0:0:
329,192,12242,1,4,0:2:0:0:
402,192,12242,1,0,0:0:0:0:
256,192,12323,1,2,2:2:0:0:
256,192,12404,1,2,2:2:0:0:
109,192,12485,1,0,0:0:0:0:
182,192,12485,1,4,0:2:0:0:
329,192,12485,1,4,0:2:0:0:
402,192,12485,1,0,0:0:0:0:
256,192,12566,1,2,2:2:0:0:
256,192,12647,1,2,2:2:0:0:
109,192,12728,1,0,0:0:0:0:
182,192,12728,1,4,0:2:0:0:
329,192,12728,1,4,0:2:0:0:
402,192,12728,1,0,0:0:0:0:
256,192,12809,1,2,2:2:0:0:
182,192,12891,1,4,0:2:0:0:
36,192,12891,1,0,0:0:0:0:
329,192,12891,1,4,0:2:0:0:
475,192,12891,1,0,0:0:0:0:
109,192,13377,1,0,0:3:0:0:
329,192,13431,1,0,0:3:0:0:
182,192,13485,1,0,0:3:0:0:
402,192,13539,1,0,0:0:0:0:
256,192,13539,1,12,0:0:0:0:
109,192,13539,1,0,0:0:0:0:
36,192,13701,1,0,0:0:0:0:
475,192,13701,1,0,0:0:0:0:
402,192,13782,1,0,0:0:0:0:
256,192,13863,1,2,0:0:0:0:
109,192,13863,1,0,0:0:0:0:
182,192,13863,1,0,0:0:0:0:
475,192,13863,1,0,0:0:0:0:
109,192,14026,1,0,0:0:0:0:
329,192,14026,1,0,0:0:0:0:
402,192,14026,1,0,0:0:0:0:
256,192,14188,1,8,0:0:0:0:
36,192,14188,1,0,0:0:0:0:
475,192,14188,1,0,0:0:0:0:
402,192,14188,1,0,0:0:0:0:
109,192,14350,1,0,0:0:0:0:
182,192,14350,1,0,0:0:0:0:
329,192,14350,1,0,0:0:0:0:
475,192,14350,1,0,0:0:0:0:
256,192,14512,1,2,0:0:0:0:
36,192,14512,1,0,0:0:0:0:
402,192,14512,1,0,0:0:0:0:
475,192,14512,1,0,0:0:0:0:
36,192,14674,1,0,0:0:0:0:
182,192,14674,1,0,0:0:0:0:
475,192,14674,128,0,14836:0:0:0:0:
329,192,14674,1,0,0:0:0:0:
256,192,14836,1,12,0:0:0:0:
109,192,14836,1,0,0:0:0:0:
36,192,14998,1,0,0:0:0:0:
329,192,14999,1,0,0:0:0:0:
402,192,14999,1,0,0:0:0:0:
256,192,15160,1,2,0:0:0:0:
182,192,15160,1,0,0:0:0:0:
109,192,15160,1,0,0:0:0:0:
329,192,15161,1,0,0:0:0:0:
475,192,15161,1,0,0:0:0:0:
402,192,15323,1,0,0:0:0:0:
475,192,15323,1,0,0:0:0:0:
109,192,15323,1,0,0:0:0:0:
256,192,15485,1,8,0:0:0:0:
36,192,15485,1,0,0:0:0:0:
329,192,15647,1,0,0:0:0:0:
475,192,15647,1,0,0:0:0:0:
182,192,15647,1,0,0:0:0:0:
109,192,15647,1,0,0:0:0:0:
256,192,15809,1,2,0:0:0:0:
402,192,15809,1,0,0:0:0:0:
36,192,15809,1,0,0:0:0:0:
182,192,15971,1,0,0:0:0:0:
36,192,15971,1,0,0:0:0:0:
329,192,15972,1,0,0:0:0:0:
475,192,15972,1,0,0:0:0:0:
256,192,16134,1,12,0:0:0:0:
329,192,16134,1,0,0:0:0:0:
109,192,16134,1,0,0:0:0:0:
475,192,16296,1,0,0:0:0:0:
36,192,16296,1,0,0:0:0:0:
402,192,16377,1,0,0:0:0:0:
256,192,16458,1,2,0:0:0:0:
475,192,16458,1,0,0:0:0:0:
109,192,16458,1,0,0:0:0:0:
182,192,16458,1,0,0:0:0:0:
329,192,16620,1,0,0:0:0:0:
402,192,16620,1,0,0:0:0:0:
109,192,16621,1,0,0:0:0:0:
475,192,16782,1,0,0:0:0:0:
402,192,16782,1,0,0:0:0:0:
256,192,16783,1,8,0:0:0:0:
36,192,16783,1,0,0:0:0:0:
475,192,16945,1,0,0:0:0:0:
329,192,16945,1,0,0:0:0:0:
109,192,16945,1,0,0:0:0:0:
182,192,16945,1,0,0:0:0:0:
256,192,17107,1,2,0:0:0:0:
402,192,17107,1,0,0:0:0:0:
475,192,17107,1,0,0:0:0:0:
36,192,17107,1,0,0:0:0:0:
329,192,17269,1,0,0:0:0:0:
402,192,17269,1,0,0:0:0:0:
36,192,17269,1,0,0:0:0:0:
182,192,17269,1,0,0:0:0:0:
256,192,17431,1,12,0:0:0:0:
329,192,17431,1,0,0:0:0:0:
475,192,17431,1,0,0:0:0:0:
109,192,17431,1,0,0:0:0:0:
402,192,17593,1,0,0:0:0:0:
36,192,17593,1,0,0:0:0:0:
475,192,17647,1,0,0:0:0:0:
402,192,17701,1,0,0:0:0:0:
256,192,17755,1,2,0:0:0:0:
329,192,17755,1,0,0:0:0:0:
475,192,17755,1,0,0:0:0:0:
182,192,17755,1,0,0:0:0:0:
109,192,17755,1,0,0:0:0:0:
402,192,17918,1,0,0:0:0:0:
329,192,17918,1,0,0:0:0:0:
109,192,17918,1,0,0:0:0:0:
256,192,18080,1,8,0:0:0:0:
36,192,18080,1,0,0:0:0:0:
182,192,18242,1,0,0:0:0:0:
109,192,18242,1,0,0:0:0:0:
475,192,18242,1,0,0:0:0:0:
402,192,18242,1,0,0:0:0:0:
256,192,18404,1,2,0:0:0:0:
36,192,18404,1,0,0:0:0:0:
475,192,18404,1,0,0:0:0:0:
329,192,18404,1,0,0:0:0:0:
182,192,18566,1,0,0:0:0:0:
36,192,18566,1,0,0:0:0:0:
402,192,18566,1,0,0:0:0:0:
475,192,18566,1,0,0:0:0:0:
256,192,18728,1,12,0:0:0:0:
109,192,18728,1,0,0:0:0:0:
329,192,18891,1,0,0:0:0:0:
36,192,18891,1,0,0:0:0:0:
256,192,19052,1,2,0:0:0:0:
475,192,19053,1,0,0:0:0:0:
329,192,19053,1,0,0:0:0:0:
109,192,19053,1,0,0:0:0:0:
182,192,19053,1,0,0:0:0:0:
402,192,19215,1,0,0:0:0:0:
329,192,19215,1,0,0:0:0:0:
109,192,19215,1,0,0:0:0:0:
256,192,19377,1,8,0:0:0:0:
475,192,19377,1,0,0:0:0:0:
329,192,19377,1,0,0:0:0:0:
36,192,19377,1,0,0:0:0:0:
402,192,19539,1,0,0:0:0:0:
475,192,19539,1,0,0:0:0:0:
109,192,19539,1,0,0:0:0:0:
182,192,19539,1,0,0:0:0:0:
256,192,19701,1,2,0:0:0:0:
36,192,19701,1,0,0:0:0:0:
36,192,19863,1,0,0:0:0:0:
182,192,19863,1,0,0:0:0:0:
475,192,19863,128,0,20026:0:0:0:0:
402,192,19863,128,0,20026:0:0:0:0:
329,192,19863,128,0,20026:0:0:0:0:
256,192,20026,1,12,0:0:0:0:
109,192,20026,1,0,0:0:0:0:
36,192,20188,1,0,0:0:0:0:
329,192,20188,1,0,0:0:0:0:
402,192,20188,1,0,0:0:0:0:
256,192,20350,1,2,0:0:0:0:
109,192,20350,1,0,0:0:0:0:
182,192,20350,1,0,0:0:0:0:
329,192,20350,1,0,0:0:0:0:
475,192,20350,1,0,0:0:0:0:
109,192,20512,1,0,0:0:0:0:
475,192,20512,1,0,0:0:0:0:
402,192,20512,1,0,0:0:0:0:
36,192,20674,1,0,0:0:0:0:
475,192,20674,1,0,0:0:0:0:
256,192,20675,1,8,0:0:0:0:
109,192,20836,1,0,0:0:0:0:
182,192,20836,1,0,0:0:0:0:
402,192,20836,1,0,0:0:0:0:
475,192,20836,1,0,0:0:0:0:
256,192,20999,1,2,0:0:0:0:
36,192,20999,1,0,0:0:0:0:
402,192,20999,1,0,0:0:0:0:
329,192,20999,1,0,0:0:0:0:
36,192,21161,1,0,0:0:0:0:
182,192,21161,1,0,0:0:0:0:
329,192,21161,1,0,0:0:0:0:
256,192,21323,1,12,0:0:0:0:
475,192,21323,1,0,0:0:0:0:
402,192,21323,1,0,0:0:0:0:
36,192,21323,1,0,0:0:0:0:
402,192,21485,1,0,0:0:0:0:
329,192,21485,1,0,0:0:0:0:
109,192,21485,1,0,0:0:0:0:
256,192,21647,1,2,0:0:0:0:
182,192,21647,1,0,0:0:0:0:
36,192,21647,1,0,0:0:0:0:
402,192,21809,1,0,0:0:0:0:
475,192,21809,1,0,0:0:0:0:
109,192,21809,1,0,0:0:0:0:
256,192,21972,1,8,0:0:0:0:
36,192,21972,1,0,0:0:0:0:
402,192,22134,1,0,0:0:0:0:
475,192,22134,1,0,0:0:0:0:
109,192,22134,1,0,0:0:0:0:
182,192,22134,1,0,0:0:0:0:
256,192,22296,1,2,0:0:0:0:
475,192,22296,128,0,23269:0:0:0:0:
182,192,22296,1,0,0:0:0:0:
109,192,22458,1,0,0:0:0:0:
36,192,22458,1,0,0:0:0:0:
329,192,22458,1,0,0:0:0:0:
256,192,22620,1,12,0:0:0:0:
36,192,22620,1,0,0:0:0:0:
109,192,22782,1,0,0:0:0:0:
402,192,22782,1,0,0:0:0:0:
256,192,22944,1,2,0:0:0:0:
182,192,22945,1,0,0:0:0:0:
36,192,22945,1,0,0:0:0:0:
109,192,23107,1,0,0:0:0:0:
329,192,23107,1,0,0:0:0:0:
36,192,23269,1,0,0:0:0:0:
182,192,23269,1,0,0:0:0:0:
256,192,23269,128,0,23836:0:0:0:0:
182,192,23431,1,0,0:0:0:0:
109,192,23431,1,0,0:0:0:0:
36,192,23431,1,0,0:0:0:0:
182,192,23755,1,0,0:0:0:0:
329,192,23809,1,0,0:0:0:0:
402,192,23863,1,0,0:0:0:0:
109,192,23918,1,0,0:0:0:0:
36,192,23918,1,0,0:0:0:0:
402,192,24080,128,0,24242:0:0:0:0:
329,192,24080,1,0,0:0:0:0:
475,192,24080,1,0,0:0:0:0:
256,192,24161,1,0,0:0:0:0:
329,192,24242,1,0,0:0:0:0:
475,192,24242,1,0,0:0:0:0:
36,192,24242,1,0,0:0:0:0:
402,192,24404,128,0,24566:0:0:0:0:
109,192,24404,1,0,0:0:0:0:
475,192,24404,1,0,0:0:0:0:
329,192,24566,1,0,0:0:0:0:
36,192,24566,1,0,0:0:0:0:
402,192,24728,128,0,24891:0:0:0:0:
109,192,24728,1,0,0:0:0:0:
182,192,24728,1,0,0:0:0:0:
36,192,24728,1,0,0:0:0:0:
475,192,24728,1,0,0:0:0:0:
182,192,24891,1,0,0:0:0:0:
256,192,24891,1,0,0:0:0:0:
36,192,24891,1,0,0:0:0:0:
402,192,25053,128,0,25215:0:0:0:0:
256,192,25053,1,0,0:0:0:0:
329,192,25053,1,0,0:0:0:0:
36,192,25053,1,0,0:0:0:0:
475,192,25053,1,0,0:0:0:0:
36,192,25215,1,0,0:0:0:0:
402,192,25377,128,0,25539:0:0:0:0:
109,192,25377,1,0,0:0:0:0:
182,192,25377,1,0,0:0:0:0:
475,192,25377,1,0,0:0:0:0:
109,192,25539,1,0,0:0:0:0:
329,192,25539,1,0,0:0:0:0:
475,192,25539,1,0,0:0:0:0:
36,192,25539,1,0,0:0:0:0:
402,192,25701,128,0,25863:0:0:0:0:
256,192,25701,1,0,0:0:0:0:
329,192,25701,1,0,0:0:0:0:
475,192,25701,1,0,0:0:0:0:
182,192,25863,1,0,0:0:0:0:
36,192,25863,1,0,0:0:0:0:
402,192,26026,128,0,26188:0:0:0:0:
109,192,26026,1,0,0:0:0:0:
329,192,26026,1,0,0:0:0:0:
36,192,26026,1,0,0:0:0:0:
475,192,26026,1,0,0:0:0:0:
256,192,26188,1,0,0:0:0:0:
402,192,26350,128,0,26512:0:0:0:0:
329,192,26350,1,0,0:0:0:0:
109,192,26350,1,0,0:0:0:0:
475,192,26350,1,0,0:0:0:0:
36,192,26350,1,0,0:0:0:0:
109,192,26512,1,0,0:0:0:0:
36,192,26512,1,0,0:0:0:0:
329,192,26674,128,0,26836:0:0:0:0:
402,192,26674,1,0,0:0:0:0:
475,192,26674,1,0,0:0:0:0:
256,192,26755,1,0,0:0:0:0:
475,192,26836,1,0,0:0:0:0:
402,192,26836,1,0,0:0:0:0:
36,192,26836,1,0,0:0:0:0:
329,192,26999,128,0,27161:0:0:0:0:
109,192,26999,1,0,0:0:0:0:
475,192,26999,1,0,0:0:0:0:
256,192,27161,1,0,0:0:0:0:
36,192,27161,1,0,0:0:0:0:
182,192,27323,1,0,0:0:0:0:
329,192,27323,128,0,27485:0:0:0:0:
36,192,27323,1,0,0:0:0:0:
475,192,27323,1,0,0:0:0:0:
256,192,27485,1,0,0:0:0:0:
36,192,27485,1,0,0:0:0:0:
402,192,27647,1,0,0:0:0:0:
329,192,27647,128,0,27809:0:0:0:0:
36,192,27647,1,0,0:0:0:0:
475,192,27647,1,0,0:0:0:0:
109,192,27809,1,0,0:0:0:0:
402,192,27809,1,0,0:0:0:0:
36,192,27809,1,0,0:0:0:0:
182,192,27972,128,0,28134:0:0:0:0:
329,192,27972,1,0,0:0:0:0:
475,192,27972,1,0,0:0:0:0:
402,192,28026,1,0,0:0:0:0:
329,192,28080,1,0,0:0:0:0:
256,192,28134,1,0,0:0:0:0:
475,192,28134,1,0,0:0:0:0:
36,192,28134,1,0,0:0:0:0:
182,192,28296,128,0,28458:0:0:0:0:
109,192,28296,1,0,0:0:0:0:
475,192,28296,1,0,0:0:0:0:
36,192,28458,1,0,0:0:0:0:
182,192,28620,128,0,28782:0:0:0:0:
402,192,28620,1,0,0:0:0:0:
256,192,28620,1,0,0:0:0:0:
475,192,28620,1,0,0:0:0:0:
36,192,28620,1,0,0:0:0:0:
402,192,28782,1,0,0:0:0:0:
109,192,28782,1,0,0:0:0:0:
182,192,28945,128,0,29107:0:0:0:0:
256,192,28945,1,0,0:0:0:0:
402,192,28945,1,0,0:0:0:0:
36,192,28945,1,0,0:0:0:0:
475,192,28945,1,0,0:0:0:0:
36,192,29107,1,0,0:0:0:0:
256,192,29269,128,0,29431:0:0:0:0:
109,192,29269,1,0,0:0:0:0:
402,192,29269,1,0,0:0:0:0:
36,192,29269,1,0,0:0:0:0:
329,192,29431,1,0,0:0:0:0:
402,192,29431,1,0,0:0:0:0:
475,192,29431,1,0,0:0:0:0:
36,192,29431,1,0,0:0:0:0:
256,192,29593,128,0,29755:0:0:0:0:
182,192,29593,1,0,0:0:0:0:
109,192,29593,1,0,0:0:0:0:
36,192,29593,1,0,0:0:0:0:
329,192,29755,1,0,0:0:0:0:
182,192,29755,1,0,0:0:0:0:
36,192,29755,1,0,0:0:0:0:
256,192,29918,128,0,30080:0:0:0:0:
402,192,29918,1,0,0:0:0:0:
329,192,29918,1,0,0:0:0:0:
36,192,29918,1,0,0:0:0:0:
36,192,30080,1,0,0:0:0:0:
475,192,30080,1,0,0:0:0:0:
256,192,30242,128,0,30404:0:0:0:0:
329,192,30242,128,0,30566:0:0:0:0:
36,192,30242,1,0,0:0:0:0:
182,192,30404,1,0,0:0:0:0:
475,192,30404,1,0,0:0:0:0:
109,192,30566,128,0,30728:0:0:0:0:
256,192,30566,128,0,30728:0:0:0:0:
475,192,30566,1,0,0:0:0:0:
329,192,30728,128,0,30891:0:0:0:0:
182,192,30728,1,0,0:0:0:0:
475,192,30728,1,0,0:0:0:0:
36,192,30728,1,0,0:0:0:0:
109,192,30891,128,0,31053:0:0:0:0:
402,192,30891,128,0,31053:0:0:0:0:
475,192,30891,1,0,0:0:0:0:
329,192,31053,128,0,31215:0:0:0:0:
182,192,31053,1,0,0:0:0:0:
475,192,31053,1,0,0:0:0:0:
109,192,31215,128,0,31377:0:0:0:0:
256,192,31215,128,0,31377:0:0:0:0:
475,192,31215,1,0,0:0:0:0:
329,192,31377,128,0,31539:0:0:0:0:
402,192,31377,128,0,31539:0:0:0:0:
182,192,31377,1,0,0:0:0:0:
475,192,31377,1,0,0:0:0:0:
36,192,31377,1,0,0:0:0:0:
109,192,31539,128,0,31701:0:0:0:0:
256,192,31539,128,0,31701:0:0:0:0:
475,192,31539,1,0,0:0:0:0:
329,192,31701,128,0,31863:0:0:0:0:
402,192,31701,1,0,0:0:0:0:
36,192,31701,1,0,0:0:0:0:
182,192,31863,128,0,32026:0:0:0:0:
256,192,31863,128,0,32188:0:0:0:0:
36,192,31863,1,0,0:0:0:0:
475,192,31945,1,0,0:0:0:0:
402,192,32026,1,0,0:0:0:0:
36,192,32107,1,0,0:0:0:0:
182,192,32188,128,0,32350:0:0:0:0:
109,192,32188,128,0,32350:0:0:0:0:
475,192,32188,1,0,0:0:0:0:
402,192,32350,1,0,0:0:0:0:
475,192,32350,1,0,0:0:0:0:
36,192,32350,1,0,0:0:0:0:
182,192,32512,128,0,32674:0:0:0:0:
109,192,32512,128,0,32674:0:0:0:0:
475,192,32512,1,0,0:0:0:0:
36,192,32593,1,0,0:0:0:0:
256,192,32674,128,0,32999:0:0:0:0:
402,192,32674,1,0,0:0:0:0:
475,192,32674,1,0,0:0:0:0:
36,192,32755,1,0,0:0:0:0:
182,192,32836,128,0,32999:0:0:0:0:
475,192,32836,1,0,0:0:0:0:
109,192,32999,128,0,33323:0:0:0:0:
402,192,32999,128,0,33323:0:0:0:0:
329,192,32999,1,0,0:0:0:0:
36,192,32999,1,0,0:0:0:0:
475,192,33080,1,0,0:0:0:0:
182,192,33161,128,0,33323:0:0:0:0:
36,192,33161,1,0,0:0:0:0:
475,192,33242,1,0,0:0:0:0:
256,192,33323,128,0,33647:0:0:0:0:
329,192,33323,1,0,0:0:0:0:
36,192,33323,1,0,0:0:0:0:
475,192,33404,1,0,0:0:0:0:
182,192,33485,128,0,33647:0:0:0:0:
36,192,33485,1,0,0:0:0:0:
475,192,33566,1,0,0:0:0:0:
109,192,33647,1,0,0:0:0:0:
402,192,33647,1,0,0:0:0:0:
36,192,33728,1,0,0:0:0:0:
475,192,33728,1,0,0:0:0:0:
109,192,33809,1,0,0:0:0:0:
402,192,33809,1,0,0:0:0:0:
182,192,33891,1,0,0:0:0:0:
475,192,33891,1,0,0:0:0:0:
256,192,33972,1,0,0:0:0:0:
402,192,33972,1,0,0:0:0:0:
182,192,34053,1,0,0:0:0:0:
475,192,34053,1,0,0:0:0:0:
256,192,34134,1,0,0:0:0:0:
402,192,34134,1,0,0:0:0:0:
329,192,34215,1,0,0:0:0:0:
475,192,34215,1,0,0:0:0:0:
256,192,34296,128,0,36891:0:0:0:0:
182,192,34296,1,0,0:0:0:0:
402,192,34296,1,0,0:0:0:0:
329,192,34539,1,0,0:0:0:0:
182,192,34539,1,0,0:0:0:0:
329,192,34782,1,0,0:0:0:0:
109,192,34782,1,0,0:0:0:0:
36,192,34945,1,0,0:0:0:0:
109,192,35026,1,0,0:0:0:0:
182,192,35107,1,0,0:0:0:0:
329,192,35188,1,0,0:0:0:0:
402,192,35269,1,0,0:0:0:0:
329,192,35350,1,0,0:0:0:0:
402,192,35431,1,0,0:0:0:0:
475,192,35512,1,0,0:0:0:0:
402,192,35593,1,0,0:0:0:0:
182,192,35593,1,0,0:0:0:0:
329,192,35836,1,0,0:0:0:0:
182,192,35836,1,0,0:0:0:0:
475,192,36080,1,0,0:0:0:0:
182,192,36080,1,0,0:0:0:0:
402,192,36323,1,0,0:0:0:0:
182,192,36323,1,0,0:0:0:0:
329,192,36566,1,0,0:0:0:0:
182,192,36566,1,0,0:0:0:0:
109,192,36728,1,0,0:0:0:0:
329,192,36728,1,0,0:0:0:0:
36,192,36891,128,0,39485:0:0:0:0:
182,192,36891,1,0,0:0:0:0:
329,192,36891,1,0,0:0:0:0:
256,192,37134,1,0,0:0:0:0:
402,192,37134,1,0,0:0:0:0:
256,192,37377,1,0,0:0:0:0:
109,192,37377,1,0,0:0:0:0:
475,192,37701,1,0,0:0:0:0:
256,192,37701,1,0,0:0:0:0:
329,192,37782,1,0,0:0:0:0:
402,192,37863,1,0,0:0:0:0:
182,192,37863,1,0,0:0:0:0:
256,192,37945,1,0,0:0:0:0:
329,192,38026,1,0,0:0:0:0:
109,192,38026,1,0,0:0:0:0:
109,192,38512,1,0,0:0:0:0:
182,192,38593,1,0,0:0:0:0:
256,192,38674,1,0,0:0:0:0:
182,192,38755,1,0,0:0:0:0:
256,192,38836,1,0,0:0:0:0:
329,192,38918,1,0,0:0:0:0:
402,192,38999,1,0,0:0:0:0:
475,192,39080,1,0,0:0:0:0:
402,192,39161,1,0,0:0:0:0:
329,192,39242,1,0,0:0:0:0:
256,192,39323,1,0,0:0:0:0:
182,192,39404,1,0,0:0:0:0:
109,192,39485,128,0,42080:0:0:0:0:
402,192,39485,1,0,0:0:0:0:
256,192,39485,1,0,0:0:0:0:
36,192,39647,1,0,0:0:0:0:
182,192,39728,1,0,0:0:0:0:
329,192,39728,1,0,0:0:0:0:
36,192,39891,1,0,0:0:0:0:
256,192,39972,1,0,0:0:0:0:
402,192,39972,1,0,0:0:0:0:
36,192,40134,1,0,0:0:0:0:
182,192,40215,1,0,0:0:0:0:
256,192,40296,1,0,0:0:0:0:
329,192,40377,1,0,0:0:0:0:
475,192,40458,1,0,0:0:0:0:
402,192,40539,1,0,0:0:0:0:
329,192,40620,1,0,0:0:0:0:
256,192,40701,1,0,0:0:0:0:
475,192,40782,1,0,0:0:0:0:
329,192,40782,1,0,0:0:0:0:
182,192,40782,1,0,0:0:0:0:
36,192,40945,1,0,0:0:0:0:
256,192,41026,1,0,0:0:0:0:
402,192,41026,1,0,0:0:0:0:
36,192,41188,1,0,0:0:0:0:
329,192,41269,1,0,0:0:0:0:
182,192,41269,1,0,0:0:0:0:
475,192,41269,1,0,0:0:0:0:
36,192,41431,1,0,0:0:0:0:
182,192,41512,1,0,0:0:0:0:
256,192,41593,1,0,0:0:0:0:
329,192,41674,1,0,0:0:0:0:
402,192,41755,1,0,0:0:0:0:
329,192,41836,1,0,0:0:0:0:
402,192,41918,1,0,0:0:0:0:
475,192,41999,1,0,0:0:0:0:
182,192,42080,128,0,44674:0:0:0:0:
36,192,42080,1,0,0:0:0:0:
402,192,42080,128,0,42161:0:0:0:0:
475,192,42161,128,0,42242:0:0:0:0:
109,192,42242,1,0,0:0:0:0:
402,192,42323,128,0,42404:0:0:0:0:
109,192,42404,1,0,0:0:0:0:
36,192,42404,1,0,0:0:0:0:
475,192,42404,128,0,42485:0:0:0:0:
36,192,42566,1,0,0:0:0:0:
329,192,42566,128,0,42647:0:0:0:0:
109,192,42647,1,0,0:0:0:0:
402,192,42647,128,0,42728:0:0:0:0:
36,192,42728,1,0,0:0:0:0:
36,192,42891,1,0,0:0:0:0:
109,192,42891,1,0,0:0:0:0:
402,192,42891,128,0,43053:0:0:0:0:
475,192,42891,128,0,43053:0:0:0:0:
109,192,43053,1,0,0:0:0:0:
329,192,43053,128,0,43215:0:0:0:0:
256,192,43053,128,0,43215:0:0:0:0:
109,192,43215,1,0,0:0:0:0:
36,192,43215,1,0,0:0:0:0:
402,192,43215,128,0,44026:0:0:0:0:
475,192,43215,128,0,44026:0:0:0:0:
36,192,43377,1,0,0:0:0:0:
109,192,43539,1,0,0:0:0:0:
109,192,43701,1,0,0:0:0:0:
36,192,43701,1,0,0:0:0:0:
36,192,43863,1,0,0:0:0:0:
109,192,43945,1,0,0:0:0:0:
36,192,44026,1,0,0:0:0:0:
329,192,44026,1,0,0:0:0:0:
256,192,44107,1,0,0:0:0:0:
109,192,44188,1,0,0:0:0:0:
36,192,44188,1,0,0:0:0:0:
329,192,44188,1,0,0:0:0:0:
402,192,44269,1,0,0:0:0:0:
109,192,44350,1,0,0:0:0:0:
475,192,44350,1,0,0:0:0:0:
329,192,44431,1,0,0:0:0:0:
109,192,44512,1,0,0:0:0:0:
36,192,44512,1,0,0:0:0:0:
402,192,44512,1,0,0:0:0:0:
475,192,44593,1,0,0:0:0:0:
329,192,44674,128,0,44836:0:0:0:0:
402,192,44674,128,0,44836:0:0:0:0:
36,192,44674,1,0,0:0:0:0:
256,192,44674,128,0,47269:0:0:0:0:
475,192,44836,1,0,0:0:0:0:
329,192,44918,128,0,45080:0:0:0:0:
182,192,44918,128,0,45080:0:0:0:0:
36,192,44999,1,0,0:0:0:0:
475,192,44999,1,0,0:0:0:0:
109,192,45161,128,0,45242:0:0:0:0:
182,192,45161,128,0,45242:0:0:0:0:
475,192,45161,1,0,0:0:0:0:
109,192,45323,1,0,0:0:0:0:
36,192,45323,1,0,0:0:0:0:
182,192,45404,1,0,0:0:0:0:
329,192,45485,1,0,0:0:0:0:
475,192,45485,1,0,0:0:0:0:
402,192,45566,1,0,0:0:0:0:
329,192,45647,1,0,0:0:0:0:
182,192,45647,1,0,0:0:0:0:
36,192,45647,1,0,0:0:0:0:
109,192,45728,1,0,0:0:0:0:
182,192,45809,1,0,0:0:0:0:
329,192,45809,1,0,0:0:0:0:
475,192,45809,1,0,0:0:0:0:
402,192,45891,1,0,0:0:0:0:
329,192,45972,128,0,46215:0:0:0:0:
36,192,45972,1,0,0:0:0:0:
475,192,46134,1,0,0:0:0:0:
182,192,46215,128,0,46458:0:0:0:0:
475,192,46296,1,0,0:0:0:0:
36,192,46296,1,0,0:0:0:0:
402,192,46458,128,0,46782:0:0:0:0:
475,192,46458,1,0,0:0:0:0:
36,192,46620,1,0,0:0:0:0:
329,192,46782,128,0,46945:0:0:0:0:
475,192,46782,1,0,0:0:0:0:
182,192,46945,128,0,47107:0:0:0:0:
36,192,46945,1,0,0:0:0:0:
109,192,47107,128,0,47269:0:0:0:0:
475,192,47107,1,0,0:0:0:0:
36,192,47269,128,0,49863:0:0:0:0:
329,192,47269,1,0,0:0:0:0:
402,192,47269,1,0,0:0:0:0:
182,192,47269,1,0,0:0:0:0:
256,192,47431,1,0,0:0:0:0:
402,192,47512,1,0,0:0:0:0:
475,192,47512,1,0,0:0:0:0:
182,192,47593,1,0,0:0:0:0:
109,192,47593,1,0,0:0:0:0:
256,192,47755,1,0,0:0:0:0:
329,192,47755,1,0,0:0:0:0:
475,192,47755,1,0,0:0:0:0:
109,192,47918,1,0,0:0:0:0:
329,192,47999,1,0,0:0:0:0:
402,192,47999,1,0,0:0:0:0:
182,192,48080,1,0,0:0:0:0:
256,192,48080,1,0,0:0:0:0:
329,192,48242,1,0,0:0:0:0:
256,192,48242,1,0,0:0:0:0:
475,192,48242,1,0,0:0:0:0:
182,192,48404,1,0,0:0:0:0:
109,192,48404,1,0,0:0:0:0:
402,192,48404,1,0,0:0:0:0:
329,192,48404,1,0,0:0:0:0:
109,192,48566,1,0,0:0:0:0:
256,192,48728,1,0,0:0:0:0:
256,192,48891,1,0,0:0:0:0:
182,192,48891,1,0,0:0:0:0:
182,192,49053,1,0,0:0:0:0:
475,192,49053,1,0,0:0:0:0:
329,192,49134,1,0,0:0:0:0:
109,192,49215,1,0,0:0:0:0:
402,192,49215,1,0,0:0:0:0:
475,192,49296,1,0,0:0:0:0:
182,192,49377,1,0,0:0:0:0:
256,192,49377,1,0,0:0:0:0:
329,192,49377,1,0,0:0:0:0:
402,192,49458,1,0,0:0:0:0:
109,192,49539,1,0,0:0:0:0:
475,192,49539,1,0,0:0:0:0:
329,192,49620,1,0,0:0:0:0:
182,192,49701,1,0,0:0:0:0:
256,192,49701,1,0,0:0:0:0:
402,192,49701,1,0,0:0:0:0:
329,192,49782,1,0,0:0:0:0:
109,192,49863,128,0,52458:0:0:0:0:
182,192,49863,1,0,0:0:0:0:
402,192,49863,1,0,0:0:0:0:
182,192,50026,1,0,0:0:0:0:
329,192,50107,1,0,0:0:0:0:
36,192,50188,1,0,0:0:0:0:
182,192,50350,1,0,0:0:0:0:
402,192,50350,1,0,0:0:0:0:
36,192,50512,1,0,0:0:0:0:
256,192,50512,1,0,0:0:0:0:
182,192,50593,1,0,0:0:0:0:
329,192,50593,1,0,0:0:0:0:
36,192,50674,1,0,0:0:0:0:
402,192,50674,1,0,0:0:0:0:
475,192,50755,1,0,0:0:0:0:
182,192,50836,1,0,0:0:0:0:
475,192,50836,1,0,0:0:0:0:
402,192,50918,1,0,0:0:0:0:
36,192,50999,1,0,0:0:0:0:
329,192,50999,1,0,0:0:0:0:
256,192,51080,1,0,0:0:0:0:
36,192,51161,1,0,0:0:0:0:
182,192,51161,1,0,0:0:0:0:
402,192,51161,1,0,0:0:0:0:
36,192,51323,1,0,0:0:0:0:
402,192,51323,1,0,0:0:0:0:
329,192,51404,1,0,0:0:0:0:
182,192,51485,1,0,0:0:0:0:
36,192,51647,1,0,0:0:0:0:
402,192,51647,1,0,0:0:0:0:
182,192,51809,1,0,0:0:0:0:
256,192,51809,1,0,0:0:0:0:
36,192,51891,1,0,0:0:0:0:
329,192,51891,1,0,0:0:0:0:
182,192,51972,1,0,0:0:0:0:
402,192,51972,1,0,0:0:0:0:
475,192,52053,1,0,0:0:0:0:
36,192,52134,1,0,0:0:0:0:
402,192,52134,1,0,0:0:0:0:
329,192,52215,1,0,0:0:0:0:
182,192,52296,1,0,0:0:0:0:
402,192,52296,1,0,0:0:0:0:
475,192,52377,1,0,0:0:0:0:
402,192,52458,1,0,0:0:0:0:
256,192,52458,1,0,0:0:0:0:
182,192,52674,1,0,0:0:0:0:
329,192,52674,1,0,0:0:0:0:
475,192,52674,1,0,0:0:0:0:
109,192,52891,1,0,0:0:0:0:
256,192,52891,1,0,0:0:0:0:
402,192,52891,1,0,0:0:0:0:
329,192,53107,1,0,0:0:0:0:
182,192,53107,1,0,0:0:0:0:
36,192,53107,1,0,0:0:0:0:
109,192,53323,1,0,0:0:0:0:
256,192,53323,1,0,0:0:0:0:
402,192,53323,1,0,0:0:0:0:
182,192,53539,1,0,0:0:0:0:
329,192,53539,1,0,0:0:0:0:
475,192,53539,1,0,0:0:0:0:
36,192,54891,1,0,0:0:0:0:
329,192,54891,1,0,0:0:0:0:
109,192,54972,1,0,0:0:0:0:
402,192,54972,1,0,0:0:0:0:
182,192,55053,1,0,0:0:0:0:
475,192,55053,1,0,0:0:0:0:
256,192,55053,128,0,55215:0:0:0:0:
36,192,55053,1,0,0:0:0:0:
329,192,55215,128,0,55377:0:0:0:0:
475,192,55215,1,0,0:0:0:0:
36,192,55215,1,0,0:0:0:0:
402,192,55296,1,0,0:0:0:0:
109,192,55296,1,0,0:0:0:0:
256,192,55377,128,0,55539:0:0:0:0:
475,192,55458,1,0,0:0:0:0:
182,192,55458,1,0,0:0:0:0:
329,192,55539,128,0,55701:0:0:0:0:
402,192,55539,1,0,0:0:0:0:
36,192,55539,1,0,0:0:0:0:
475,192,55620,1,0,0:0:0:0:
182,192,55620,1,0,0:0:0:0:
256,192,55701,128,0,55863:0:0:0:0:
109,192,55701,1,0,0:0:0:0:
402,192,55701,1,0,0:0:0:0:
329,192,55863,128,0,56026:0:0:0:0:
109,192,55863,1,0,0:0:0:0:
402,192,55863,1,0,0:0:0:0:
36,192,55945,1,0,0:0:0:0:
475,192,55945,1,0,0:0:0:0:
256,192,56026,128,0,56188:0:0:0:0:
475,192,56107,1,0,0:0:0:0:
182,192,56107,1,0,0:0:0:0:
329,192,56188,128,0,56350:0:0:0:0:
402,192,56188,1,0,0:0:0:0:
36,192,56188,1,0,0:0:0:0:
475,192,56269,1,0,0:0:0:0:
182,192,56269,1,0,0:0:0:0:
256,192,56350,128,0,56512:0:0:0:0:
402,192,56350,1,0,0:0:0:0:
36,192,56431,1,0,0:0:0:0:
182,192,56512,128,0,56674:0:0:0:0:
329,192,56512,1,0,0:0:0:0:
402,192,56593,1,0,0:0:0:0:
256,192,56674,128,0,56836:0:0:0:0:
36,192,56674,1,0,0:0:0:0:
329,192,56755,1,0,0:0:0:0:
182,192,56836,128,0,56999:0:0:0:0:
109,192,56836,1,0,0:0:0:0:
402,192,56918,1,0,0:0:0:0:
256,192,56998,128,0,57160:0:0:0:0:
329,192,56999,128,0,57161:0:0:0:0:
182,192,57161,128,0,57323:0:0:0:0:
36,192,57161,1,0,0:0:0:0:
109,192,57242,1,0,0:0:0:0:
256,192,57323,128,0,57485:0:0:0:0:
329,192,57323,1,0,0:0:0:0:
402,192,57404,1,0,0:0:0:0:
182,192,57485,128,0,57647:0:0:0:0:
36,192,57485,1,0,0:0:0:0:
329,192,57485,1,0,0:0:0:0:
109,192,57566,1,0,0:0:0:0:
402,192,57566,1,0,0:0:0:0:
256,192,57647,128,0,57809:0:0:0:0:
475,192,57647,1,0,0:0:0:0:
329,192,57647,1,0,0:0:0:0:
402,192,57728,1,0,0:0:0:0:
109,192,57809,128,0,57972:0:0:0:0:
329,192,57809,1,0,0:0:0:0:
475,192,57809,1,0,0:0:0:0:
402,192,57891,1,0,0:0:0:0:
256,192,57971,128,0,58133:0:0:0:0:
182,192,57972,1,0,0:0:0:0:
329,192,57972,1,0,0:0:0:0:
402,192,58053,1,0,0:0:0:0:
109,192,58134,128,0,58296:0:0:0:0:
329,192,58134,1,0,0:0:0:0:
182,192,58134,1,0,0:0:0:0:
256,192,58215,1,0,0:0:0:0:
36,192,58215,1,0,0:0:0:0:
256,192,58295,128,0,58457:0:0:0:0:
329,192,58296,1,0,0:0:0:0:
475,192,58296,1,0,0:0:0:0:
402,192,58377,1,0,0:0:0:0:
182,192,58458,1,0,0:0:0:0:
109,192,58458,128,0,58620:0:0:0:0:
329,192,58458,1,0,0:0:0:0:
256,192,58539,1,0,0:0:0:0:
36,192,58539,1,0,0:0:0:0:
256,192,58620,128,0,58782:0:0:0:0:
182,192,58620,1,0,0:0:0:0:
402,192,58620,1,0,0:0:0:0:
329,192,58701,1,0,0:0:0:0:
109,192,58782,128,0,58945:0:0:0:0:
475,192,58782,1,0,0:0:0:0:
402,192,58782,1,0,0:0:0:0:
329,192,58863,1,0,0:0:0:0:
256,192,58945,128,0,59107:0:0:0:0:
402,192,58945,128,0,59593:0:0:0:0:
475,192,58945,128,0,59593:0:0:0:0:
36,192,59107,128,0,59269:0:0:0:0:
256,192,59269,128,0,59431:0:0:0:0:
36,192,59431,128,0,59593:0:0:0:0:
256,192,59593,128,0,59755:0:0:0:0:
109,192,59593,1,0,0:0:0:0:
182,192,59674,1,0,0:0:0:0:
36,192,59755,128,0,59918:0:0:0:0:
329,192,59755,1,0,0:0:0:0:
402,192,59836,1,0,0:0:0:0:
256,192,59918,128,0,60080:0:0:0:0:
109,192,59918,1,0,0:0:0:0:
329,192,59918,1,0,0:0:0:0:
182,192,59999,1,0,0:0:0:0:
402,192,59999,1,0,0:0:0:0:
36,192,60080,128,0,60242:0:0:0:0:
329,192,60080,1,0,0:0:0:0:
109,192,60080,1,0,0:0:0:0:
182,192,60161,1,0,0:0:0:0:
402,192,60161,1,0,0:0:0:0:
256,192,60242,1,0,0:0:0:0:
109,192,60242,1,0,0:0:0:0:
475,192,60242,1,0,0:0:0:0:
402,192,60404,128,0,60566:0:0:0:0:
109,192,60404,1,0,0:0:0:0:
475,192,60404,1,0,0:0:0:0:
182,192,60485,1,0,0:0:0:0:
329,192,60485,1,0,0:0:0:0:
109,192,60647,1,0,0:0:0:0:
475,192,60647,1,0,0:0:0:0:
402,192,60728,128,0,60891:0:0:0:0:
256,192,60728,1,0,0:0:0:0:
36,192,60728,1,0,0:0:0:0:
329,192,60728,1,0,0:0:0:0:
109,192,60809,1,0,0:0:0:0:
182,192,60809,1,0,0:0:0:0:
256,192,60891,1,0,0:0:0:0:
475,192,60891,1,0,0:0:0:0:
329,192,60891,1,0,0:0:0:0:
36,192,60972,1,0,0:0:0:0:
402,192,61053,128,0,61215:0:0:0:0:
475,192,61053,1,0,0:0:0:0:
329,192,61053,1,0,0:0:0:0:
182,192,61053,1,0,0:0:0:0:
475,192,61215,1,0,0:0:0:0:
329,192,61215,1,0,0:0:0:0:
109,192,61296,1,0,0:0:0:0:
402,192,61377,128,0,61539:0:0:0:0:
256,192,61377,1,0,0:0:0:0:
475,192,61377,1,0,0:0:0:0:
329,192,61377,1,0,0:0:0:0:
36,192,61458,1,0,0:0:0:0:
256,192,61539,1,0,0:0:0:0:
109,192,61539,128,0,61782:0:0:0:0:
329,192,61539,128,0,61701:0:0:0:0:
475,192,61539,128,0,61701:0:0:0:0:
256,192,61782,1,0,0:0:0:0:
182,192,61782,128,0,62026:0:0:0:0:
475,192,61782,128,0,61945:0:0:0:0:
402,192,61782,128,0,61945:0:0:0:0:
256,192,62026,1,0,0:0:0:0:
36,192,62026,128,0,62188:0:0:0:0:
329,192,62026,128,0,62107:0:0:0:0:
402,192,62026,128,0,62107:0:0:0:0:
256,192,62188,128,0,62512:0:0:0:0:
109,192,62188,128,0,62512:0:0:0:0:
329,192,62188,128,0,62512:0:0:0:0:
475,192,62188,128,0,62512:0:0:0:0:
256,192,62674,1,0,0:0:0:0:
36,192,62674,1,0,0:0:0:0:
182,192,62674,1,0,0:0:0:0:
329,192,62674,1,0,0:0:0:0:
475,192,62674,1,0,0:0:0:0:
256,192,62755,1,0,0:0:0:0:
36,192,62755,1,0,0:0:0:0:
182,192,62755,1,0,0:0:0:0:
329,192,62755,1,0,0:0:0:0:
475,192,62755,1,0,0:0:0:0:
109,192,62836,1,0,0:0:0:0:
402,192,62836,1,0,0:0:0:0:
36,192,62918,1,0,0:0:0:0:
256,192,62918,1,0,0:0:0:0:
109,192,62999,1,0,0:0:0:0:
402,192,62999,1,0,0:0:0:0:
182,192,63080,1,0,0:0:0:0:
256,192,63080,1,0,0:0:0:0:
329,192,63161,1,0,0:0:0:0:
109,192,63161,1,0,0:0:0:0:
402,192,63242,1,0,0:0:0:0:
256,192,63242,1,0,0:0:0:0:
475,192,63323,1,0,0:0:0:0:
109,192,63323,1,0,0:0:0:0:
402,192,63404,1,0,0:0:0:0:
256,192,63404,1,0,0:0:0:0:
329,192,63485,1,0,0:0:0:0:
475,192,63485,1,0,0:0:0:0:
256,192,63566,1,0,0:0:0:0:
402,192,63566,1,0,0:0:0:0:
182,192,63647,1,0,0:0:0:0:
475,192,63647,1,0,0:0:0:0:
109,192,63728,1,0,0:0:0:0:
402,192,63728,1,0,0:0:0:0:
256,192,63809,1,0,0:0:0:0:
329,192,63809,1,0,0:0:0:0:
182,192,63891,1,0,0:0:0:0:
475,192,63891,1,0,0:0:0:0:
109,192,63972,1,0,0:0:0:0:
329,192,63972,1,0,0:0:0:0:
36,192,64053,1,0,0:0:0:0:
475,192,64053,1,0,0:0:0:0:
402,192,64134,128,0,64296:0:0:0:0:
256,192,64134,128,0,64296:0:0:0:0:
109,192,64134,128,0,64296:0:0:0:0:
329,192,64215,1,0,0:0:0:0:
182,192,64215,1,0,0:0:0:0:
36,192,64377,128,0,64539:0:0:0:0:
182,192,64377,128,0,64539:0:0:0:0:
329,192,64377,128,0,64539:0:0:0:0:
109,192,64458,1,0,0:0:0:0:
256,192,64458,1,0,0:0:0:0:
109,192,64620,128,0,64782:0:0:0:0:
256,192,64620,128,0,64782:0:0:0:0:
402,192,64620,128,0,64782:0:0:0:0:
36,192,64701,1,0,0:0:0:0:
182,192,64782,128,0,65350:0:0:0:0:
329,192,64782,128,0,65269:0:0:0:0:
475,192,64782,128,0,65188:0:0:0:0:
36,192,64863,1,0,0:0:0:0:
109,192,64945,1,0,0:0:0:0:
256,192,65026,1,0,0:0:0:0:
36,192,65107,1,0,0:0:0:0:
256,192,65188,1,0,0:0:0:0:
402,192,65269,1,0,0:0:0:0:
475,192,65350,1,0,0:0:0:0:
402,192,65431,1,0,0:0:0:0:
36,192,65431,1,0,0:0:0:0:
256,192,65512,1,0,0:0:0:0:
402,192,65593,1,0,0:0:0:0:
475,192,65593,1,0,0:0:0:0:
256,192,65674,1,0,0:0:0:0:
109,192,65755,1,0,0:0:0:0:
475,192,65755,1,0,0:0:0:0:
36,192,65755,1,0,0:0:0:0:
256,192,65836,1,0,0:0:0:0:
182,192,65918,1,0,0:0:0:0:
36,192,65918,1,0,0:0:0:0:
256,192,65999,1,0,0:0:0:0:
109,192,66080,1,0,0:0:0:0:
475,192,66080,1,0,0:0:0:0:
256,192,66161,1,0,0:0:0:0:
402,192,66242,1,0,0:0:0:0:
475,192,66242,1,0,0:0:0:0:
36,192,66242,1,0,0:0:0:0:
256,192,66323,1,0,0:0:0:0:
182,192,66404,1,0,0:0:0:0:
475,192,66404,1,0,0:0:0:0:
109,192,66566,1,0,0:0:0:0:
475,192,66566,1,0,0:0:0:0:
36,192,66566,1,0,0:0:0:0:
256,192,66647,1,0,0:0:0:0:
109,192,66728,1,0,0:0:0:0:
36,192,66728,1,0,0:0:0:0:
256,192,66809,1,0,0:0:0:0:
402,192,66891,1,0,0:0:0:0:
475,192,66891,1,0,0:0:0:0:
256,192,66972,1,0,0:0:0:0:
109,192,67053,1,0,0:0:0:0:
475,192,67053,1,0,0:0:0:0:
36,192,67053,1,0,0:0:0:0:
256,192,67134,1,0,0:0:0:0:
182,192,67215,1,0,0:0:0:0:
475,192,67215,1,0,0:0:0:0:
329,192,67296,1,0,0:0:0:0:
256,192,67377,1,0,0:0:0:0:
36,192,67377,1,0,0:0:0:0:
182,192,67458,1,0,0:0:0:0:
109,192,67539,1,0,0:0:0:0:
475,192,67539,1,0,0:0:0:0:
36,192,67539,1,0,0:0:0:0:
182,192,67620,1,0,0:0:0:0:
256,192,67701,1,0,0:0:0:0:
36,192,67701,1,0,0:0:0:0:
329,192,67782,1,0,0:0:0:0:
402,192,67863,1,0,0:0:0:0:
36,192,67863,1,0,0:0:0:0:
475,192,67863,1,0,0:0:0:0:
182,192,67945,1,0,0:0:0:0:
329,192,67945,1,0,0:0:0:0:
402,192,68026,1,0,0:0:0:0:
36,192,68026,1,0,0:0:0:0:
475,192,68026,1,0,0:0:0:0:
329,192,68107,1,0,0:0:0:0:
402,192,68188,1,0,0:0:0:0:
475,192,68188,1,0,0:0:0:0:
329,192,68269,1,0,0:0:0:0:
256,192,68350,1,0,0:0:0:0:
36,192,68350,1,0,0:0:0:0:
329,192,68431,1,0,0:0:0:0:
475,192,68431,1,0,0:0:0:0:
256,192,68512,1,0,0:0:0:0:
36,192,68512,1,0,0:0:0:0:
182,192,68593,1,0,0:0:0:0:
475,192,68593,1,0,0:0:0:0:
256,192,68674,1,0,0:0:0:0:
36,192,68674,1,0,0:0:0:0:
182,192,68755,1,0,0:0:0:0:
109,192,68836,1,0,0:0:0:0:
36,192,68836,1,0,0:0:0:0:
475,192,68836,1,0,0:0:0:0:
182,192,68918,1,0,0:0:0:0:
329,192,68918,1,0,0:0:0:0:
109,192,68999,1,0,0:0:0:0:
36,192,68999,1,0,0:0:0:0:
182,192,69080,1,0,0:0:0:0:
256,192,69161,1,0,0:0:0:0:
36,192,69161,1,0,0:0:0:0:
475,192,69161,1,0,0:0:0:0:
182,192,69242,1,0,0:0:0:0:
256,192,69323,128,0,69647:0:0:0:0:
36,192,69323,1,0,0:0:0:0:
475,192,69404,1,0,0:0:0:0:
36,192,69485,1,0,0:0:0:0:
475,192,69566,1,0,0:0:0:0:
36,192,69647,1,0,0:0:0:0:
329,192,69728,1,0,0:0:0:0:
475,192,69728,1,0,0:0:0:0:
256,192,69809,1,0,0:0:0:0:
36,192,69809,1,0,0:0:0:0:
182,192,69891,1,0,0:0:0:0:
475,192,69891,1,0,0:0:0:0:
109,192,69972,1,0,0:0:0:0:
36,192,69972,1,0,0:0:0:0:
182,192,70053,1,0,0:0:0:0:
256,192,70134,1,0,0:0:0:0:
36,192,70134,1,0,0:0:0:0:
475,192,70134,1,0,0:0:0:0:
329,192,70215,1,0,0:0:0:0:
182,192,70296,1,0,0:0:0:0:
36,192,70296,1,0,0:0:0:0:
475,192,70296,1,0,0:0:0:0:
256,192,70377,1,0,0:0:0:0:
329,192,70458,1,0,0:0:0:0:
36,192,70458,1,0,0:0:0:0:
475,192,70458,1,0,0:0:0:0:
402,192,70539,1,0,0:0:0:0:
329,192,70620,1,0,0:0:0:0:
182,192,70620,1,0,0:0:0:0:
36,192,70620,1,0,0:0:0:0:
402,192,70782,1,0,0:0:0:0:
256,192,70782,1,0,0:0:0:0:
475,192,70782,1,0,0:0:0:0:
329,192,70863,1,0,0:0:0:0:
182,192,70863,1,0,0:0:0:0:
475,192,70945,1,0,0:0:0:0:
36,192,70945,1,0,0:0:0:0:
256,192,71026,1,0,0:0:0:0:
402,192,71026,1,0,0:0:0:0:
329,192,71107,1,0,0:0:0:0:
182,192,71107,1,0,0:0:0:0:
36,192,71107,1,0,0:0:0:0:
256,192,71188,1,0,0:0:0:0:
109,192,71188,1,0,0:0:0:0:
329,192,71269,1,0,0:0:0:0:
182,192,71269,1,0,0:0:0:0:
475,192,71269,1,0,0:0:0:0:
256,192,71350,1,0,0:0:0:0:
109,192,71350,1,0,0:0:0:0:
182,192,71431,1,0,0:0:0:0:
329,192,71431,1,0,0:0:0:0:
475,192,71431,1,0,0:0:0:0:
36,192,71431,1,0,0:0:0:0:
256,192,71512,1,0,0:0:0:0:
402,192,71512,1,0,0:0:0:0:
329,192,71593,1,0,0:0:0:0:
182,192,71593,1,0,0:0:0:0:
475,192,71593,1,0,0:0:0:0:
256,192,71674,1,0,0:0:0:0:
109,192,71674,1,0,0:0:0:0:
182,192,71755,1,0,0:0:0:0:
402,192,71755,1,0,0:0:0:0:
475,192,71755,1,0,0:0:0:0:
36,192,71755,1,0,0:0:0:0:
109,192,71836,1,0,0:0:0:0:
329,192,71836,1,0,0:0:0:0:
182,192,71918,1,0,0:0:0:0:
402,192,71918,1,0,0:0:0:0:
36,192,71918,1,0,0:0:0:0:
329,192,71999,1,0,0:0:0:0:
256,192,71999,1,0,0:0:0:0:
402,192,72080,1,0,0:0:0:0:
475,192,72080,1,0,0:0:0:0:
329,192,72161,1,0,0:0:0:0:
182,192,72161,1,0,0:0:0:0:
109,192,72242,1,0,0:0:0:0:
256,192,72242,1,0,0:0:0:0:
475,192,72242,1,0,0:0:0:0:
36,192,72242,1,0,0:0:0:0:
182,192,72323,1,0,0:0:0:0:
329,192,72323,1,0,0:0:0:0:
402,192,72404,1,0,0:0:0:0:
256,192,72404,1,0,0:0:0:0:
475,192,72404,1,0,0:0:0:0:
109,192,72485,1,0,0:0:0:0:
182,192,72485,1,0,0:0:0:0:
256,192,72566,128,0,72809:0:0:0:0:
329,192,72566,128,0,72809:0:0:0:0:
36,192,72566,1,0,0:0:0:0:
36,192,72728,1,0,0:0:0:0:
475,192,72728,1,0,0:0:0:0:
109,192,72891,1,0,0:0:0:0:
36,192,72891,1,0,0:0:0:0:
182,192,72972,1,0,0:0:0:0:
256,192,73053,1,0,0:0:0:0:
36,192,73053,1,0,0:0:0:0:
475,192,73053,1,0,0:0:0:0:
329,192,73134,1,0,0:0:0:0:
109,192,73215,128,0,73458:0:0:0:0:
256,192,73215,128,0,73458:0:0:0:0:
36,192,73215,1,0,0:0:0:0:
475,192,73215,1,0,0:0:0:0:
182,192,73458,128,0,73701:0:0:0:0:
329,192,73458,128,0,73701:0:0:0:0:
36,192,73458,1,0,0:0:0:0:
475,192,73458,1,0,0:0:0:0:
256,192,73701,128,0,73782:0:0:0:0:
402,192,73701,128,0,73863:0:0:0:0:
36,192,73701,1,0,0:0:0:0:
475,192,73701,1,0,0:0:0:0:
109,192,73863,128,0,74107:0:0:0:0:
256,192,73863,128,0,74107:0:0:0:0:
36,192,73863,1,0,0:0:0:0:
475,192,73863,1,0,0:0:0:0:
182,192,74107,128,0,74350:0:0:0:0:
329,192,74107,128,0,74350:0:0:0:0:
36,192,74107,1,0,0:0:0:0:
475,192,74107,1,0,0:0:0:0:
402,192,74350,128,0,74512:0:0:0:0:
256,192,74350,128,0,74431:0:0:0:0:
36,192,74350,1,0,0:0:0:0:
475,192,74350,1,0,0:0:0:0:
182,192,74512,1,0,0:0:0:0:
36,192,74512,1,0,0:0:0:0:
475,192,74512,1,0,0:0:0:0:
109,192,74593,1,0,0:0:0:0:
182,192,74674,1,0,0:0:0:0:
256,192,74755,1,0,0:0:0:0:
36,192,74755,1,0,0:0:0:0:
475,192,74755,1,0,0:0:0:0:
182,192,74836,1,0,0:0:0:0:
256,192,74918,1,0,0:0:0:0:
329,192,74999,1,0,0:0:0:0:
36,192,74999,1,0,0:0:0:0:
475,192,74999,1,0,0:0:0:0:
256,192,75080,1,0,0:0:0:0:
329,192,75161,1,0,0:0:0:0:
36,192,75161,1,0,0:0:0:0:
475,192,75161,1,0,0:0:0:0:
256,192,75242,1,0,0:0:0:0:
329,192,75323,1,0,0:0:0:0:
402,192,75404,1,0,0:0:0:0:
36,192,75404,1,0,0:0:0:0:
475,192,75404,1,0,0:0:0:0:
329,192,75485,1,0,0:0:0:0:
182,192,75485,1,0,0:0:0:0:
256,192,75566,1,0,0:0:0:0:
109,192,75566,1,0,0:0:0:0:
329,192,75647,1,0,0:0:0:0:
182,192,75647,1,0,0:0:0:0:
36,192,75647,1,0,0:0:0:0:
475,192,75647,1,0,0:0:0:0:
256,192,75728,1,0,0:0:0:0:
109,192,75728,1,0,0:0:0:0:
182,192,75809,128,0,77107:0:0:0:0:
402,192,75809,128,0,77107:0:0:0:0:
36,192,75809,1,0,0:0:0:0:
475,192,75809,1,0,0:0:0:0:
329,192,75809,1,0,0:0:0:0:
109,192,75891,1,0,0:0:0:0:
256,192,75972,1,0,0:0:0:0:
109,192,76053,1,0,0:0:0:0:
329,192,76134,1,0,0:0:0:0:
109,192,76215,1,0,0:0:0:0:
256,192,76296,1,0,0:0:0:0:
109,192,76377,1,0,0:0:0:0:
329,192,76458,1,0,0:0:0:0:
36,192,76620,1,0,0:0:0:0:
109,192,76674,1,0,0:0:0:0:
36,192,76728,1,0,0:0:0:0:
109,192,76782,1,0,0:0:0:0:
36,192,76945,1,0,0:0:0:0:
329,192,76999,1,0,0:0:0:0:
36,192,77026,1,0,0:0:0:0:
109,192,77107,128,0,78404:0:0:0:0:
256,192,77107,128,0,78404:0:0:0:0:
329,192,77107,1,0,0:0:0:0:
182,192,77918,128,0,78080:0:0:0:0:
329,192,78080,128,0,78242:0:0:0:0:
402,192,78242,128,0,78404:0:0:0:0:
475,192,78404,128,0,78647:0:0:0:0:
402,192,78647,128,0,78891:0:0:0:0:
109,192,78891,128,0,79134:0:0:0:0:
109,192,79215,128,0,79377:0:0:0:0:
256,192,79377,128,0,79539:0:0:0:0:
329,192,79539,128,0,79701:0:0:0:0:
402,192,79701,128,0,79945:0:0:0:0:
329,192,79945,128,0,80188:0:0:0:0:
475,192,80188,128,0,80431:0:0:0:0:
402,192,80512,128,0,80674:0:0:0:0:
329,192,80674,128,0,80836:0:0:0:0:
256,192,80836,128,0,80918:0:0:0:0:
256,192,80999,128,0,81242:0:0:0:0:
329,192,81242,128,0,81485:0:0:0:0:
182,192,81485,128,0,81647:0:0:0:0:
402,192,81809,128,0,81972:0:0:0:0:
256,192,81809,128,0,81972:0:0:0:0:
329,192,81972,128,0,82134:0:0:0:0:
182,192,81972,128,0,82134:0:0:0:0:
256,192,82134,128,0,82620:0:0:0:0:
109,192,82134,128,0,82620:0:0:0:0:
36,192,82782,128,0,82945:0:0:0:0:
109,192,82945,128,0,83107:0:0:0:0:
36,192,83107,128,0,83269:0:0:0:0:
109,192,83269,128,0,83431:0:0:0:0:
182,192,83431,128,0,83593:0:0:0:0:
36,192,83593,1,0,0:0:0:0:
256,192,83593,1,0,0:0:0:0:
475,192,83593,1,0,0:0:0:0:
402,192,83593,128,0,83836:0:0:0:0:
329,192,83593,128,0,83836:0:0:0:0:
36,192,83755,1,0,0:0:0:0:
256,192,83836,1,0,0:0:0:0:
182,192,83836,128,0,84080:0:0:0:0:
109,192,83836,128,0,84080:0:0:0:0:
475,192,83918,1,0,0:0:0:0:
36,192,83918,1,0,0:0:0:0:
256,192,84080,1,0,0:0:0:0:
36,192,84080,1,0,0:0:0:0:
329,192,84080,128,0,84242:0:0:0:0:
402,192,84080,128,0,84242:0:0:0:0:
256,192,84242,1,0,0:0:0:0:
109,192,84404,1,0,0:0:0:0:
256,192,84404,1,0,0:0:0:0:
36,192,84404,1,0,0:0:0:0:
109,192,84566,128,0,84728:0:0:0:0:
256,192,84566,1,0,0:0:0:0:
182,192,84728,128,0,84891:0:0:0:0:
256,192,84728,1,0,0:0:0:0:
475,192,84728,1,0,0:0:0:0:
402,192,84891,128,0,85134:0:0:0:0:
329,192,84891,128,0,85134:0:0:0:0:
256,192,84891,1,0,0:0:0:0:
36,192,84891,1,0,0:0:0:0:
475,192,84891,1,0,0:0:0:0:
36,192,85053,1,0,0:0:0:0:
109,192,85134,128,0,85377:0:0:0:0:
256,192,85134,1,0,0:0:0:0:
182,192,85134,128,0,85377:0:0:0:0:
475,192,85215,1,0,0:0:0:0:
36,192,85215,1,0,0:0:0:0:
402,192,85377,128,0,85539:0:0:0:0:
329,192,85377,128,0,85539:0:0:0:0:
256,192,85377,1,0,0:0:0:0:
36,192,85377,1,0,0:0:0:0:
36,192,85539,1,0,0:0:0:0:
36,192,85701,1,0,0:0:0:0:
256,192,85701,1,0,0:0:0:0:
109,192,85701,1,0,0:0:0:0:
182,192,85701,1,0,0:0:0:0:
36,192,85863,1,0,0:0:0:0:
475,192,85863,1,0,0:0:0:0:
182,192,85863,1,0,0:0:0:0:
329,192,85863,1,0,0:0:0:0:
475,192,86026,1,0,0:0:0:0:
256,192,86026,1,0,0:0:0:0:
36,192,86026,1,0,0:0:0:0:
329,192,86026,1,0,0:0:0:0:
402,192,86026,1,0,0:0:0:0:
182,192,86188,128,0,86296:0:0:0:0:
329,192,86188,128,0,86296:0:0:0:0:
475,192,86188,128,0,86296:0:0:0:0:
475,192,86404,128,0,86512:0:0:0:0:
329,192,86404,128,0,86512:0:0:0:0:
182,192,86404,128,0,86512:0:0:0:0:
402,192,86620,128,0,86728:0:0:0:0:
256,192,86620,128,0,86728:0:0:0:0:
109,192,86620,128,0,86728:0:0:0:0:
36,192,86836,128,0,86945:0:0:0:0:
182,192,86836,128,0,86945:0:0:0:0:
329,192,86836,128,0,86945:0:0:0:0:
109,192,87053,128,0,87161:0:0:0:0:
256,192,87053,128,0,87161:0:0:0:0:
402,192,87053,128,0,87161:0:0:0:0:
182,192,87269,128,0,87377:0:0:0:0:
329,192,87269,128,0,87377:0:0:0:0:
475,192,87269,128,0,87377:0:0:0:0:
36,192,87485,128,0,88458:0:0:0:0:
475,192,88782,128,0,88891:0:0:0:0:
329,192,88782,128,0,88891:0:0:0:0:
256,192,88782,128,0,88891:0:0:0:0:
256,192,88999,128,0,89107:0:0:0:0:
329,192,88999,128,0,89107:0:0:0:0:
475,192,88999,128,0,89107:0:0:0:0:
402,192,89215,128,0,89323:0:0:0:0:
109,192,89215,128,0,89323:0:0:0:0:
256,192,89215,128,0,89323:0:0:0:0:
182,192,89431,128,0,89539:0:0:0:0:
256,192,89431,128,0,89539:0:0:0:0:
36,192,89431,128,0,89539:0:0:0:0:
109,192,89647,128,0,89755:0:0:0:0:
256,192,89647,128,0,89755:0:0:0:0:
402,192,89647,128,0,89755:0:0:0:0:
256,192,89863,128,0,89972:0:0:0:0:
329,192,89863,128,0,89972:0:0:0:0:
475,192,89863,128,0,89972:0:0:0:0:
36,192,90080,128,0,90728:0:0:0:0:
182,192,90728,1,0,0:0:0:0:
329,192,90891,1,0,0:0:0:0:
475,192,91053,1,0,0:0:0:0:
402,192,91107,1,0,0:0:0:0:
329,192,91161,1,0,0:0:0:0:
182,192,91215,1,0,0:0:0:0:
109,192,91269,1,0,0:0:0:0:
36,192,91323,1,0,0:0:0:0:
475,192,91377,1,0,0:0:0:0:
256,192,91377,1,0,0:0:0:0:
109,192,91377,128,0,91701:0:0:0:0:
36,192,91458,1,0,0:0:0:0:
475,192,91539,1,0,0:0:0:0:
182,192,91620,1,0,0:0:0:0:
256,192,91701,1,0,0:0:0:0:
402,192,91701,1,0,0:0:0:0:
329,192,91701,128,0,92026:0:0:0:0:
182,192,91782,1,0,0:0:0:0:
109,192,91863,1,0,0:0:0:0:
182,192,91945,1,0,0:0:0:0:
475,192,92026,1,0,0:0:0:0:
256,192,92026,1,0,0:0:0:0:
109,192,92026,128,0,92350:0:0:0:0:
36,192,92107,1,0,0:0:0:0:
475,192,92188,1,0,0:0:0:0:
182,192,92269,1,0,0:0:0:0:
256,192,92350,1,0,0:0:0:0:
329,192,92350,1,0,0:0:0:0:
402,192,92350,128,0,92674:0:0:0:0:
182,192,92431,1,0,0:0:0:0:
109,192,92512,1,0,0:0:0:0:
182,192,92593,1,0,0:0:0:0:
475,192,92674,1,0,0:0:0:0:
329,192,92674,1,0,0:0:0:0:
256,192,92674,128,0,92999:0:0:0:0:
36,192,92755,1,0,0:0:0:0:
109,192,92836,1,0,0:0:0:0:
182,192,92918,1,0,0:0:0:0:
36,192,92999,1,0,0:0:0:0:
329,192,92999,1,0,0:0:0:0:
475,192,92999,1,0,0:0:0:0:
402,192,92999,128,0,93323:0:0:0:0:
182,192,93080,1,0,0:0:0:0:
109,192,93161,1,0,0:0:0:0:
256,192,93242,1,0,0:0:0:0:
182,192,93323,128,0,93485:0:0:0:0:
329,192,93323,1,0,0:0:0:0:
475,192,93323,128,0,93647:0:0:0:0:
36,192,93485,1,0,0:0:0:0:
109,192,93566,1,0,0:0:0:0:
182,192,93647,1,0,0:0:0:0:
329,192,93647,1,0,0:0:0:0:
402,192,93647,1,0,0:0:0:0:
36,192,93647,128,0,93809:0:0:0:0:
256,192,93728,1,0,0:0:0:0:
329,192,93809,1,0,0:0:0:0:
109,192,93809,128,0,93972:0:0:0:0:
402,192,93891,1,0,0:0:0:0:
475,192,93972,1,0,0:0:0:0:
36,192,93972,1,0,0:0:0:0:
256,192,93972,128,0,94296:0:0:0:0:
402,192,94053,1,0,0:0:0:0:
475,192,94134,1,0,0:0:0:0:
402,192,94215,1,0,0:0:0:0:
329,192,94296,1,0,0:0:0:0:
36,192,94296,1,0,0:0:0:0:
182,192,94296,1,0,0:0:0:0:
109,192,94296,128,0,94620:0:0:0:0:
402,192,94377,1,0,0:0:0:0:
256,192,94458,1,0,0:0:0:0:
182,192,94539,1,0,0:0:0:0:
256,192,94620,1,0,0:0:0:0:
329,192,94620,1,0,0:0:0:0:
475,192,94620,128,0,94782:0:0:0:0:
182,192,94701,1,0,0:0:0:0:
109,192,94782,1,0,0:0:0:0:
256,192,94782,128,0,94945:0:0:0:0:
36,192,94863,1,0,0:0:0:0:
109,192,94945,1,0,0:0:0:0:
329,192,94945,1,0,0:0:0:0:
402,192,94945,1,0,0:0:0:0:
475,192,94945,128,0,95269:0:0:0:0:
182,192,95026,1,0,0:0:0:0:
256,192,95107,1,0,0:0:0:0:
182,192,95188,1,0,0:0:0:0:
256,192,95269,128,0,95918:0:0:0:0:
36,192,95269,1,0,0:0:0:0:
329,192,95350,1,0,0:0:0:0:
109,192,95431,1,0,0:0:0:0:
402,192,95512,1,0,0:0:0:0:
182,192,95593,1,0,0:0:0:0:
475,192,95674,1,0,0:0:0:0:
109,192,95755,1,0,0:0:0:0:
402,192,95836,1,0,0:0:0:0:
36,192,95918,1,0,0:0:0:0:
109,192,95918,1,0,0:0:0:0:
182,192,95999,1,0,0:0:0:0:
256,192,96080,1,0,0:0:0:0:
402,192,96080,1,0,0:0:0:0:
329,192,96161,1,0,0:0:0:0:
475,192,96242,1,0,0:0:0:0:
109,192,96242,1,0,0:0:0:0:
36,192,96323,1,0,0:0:0:0:
256,192,96323,1,0,0:0:0:0:
109,192,96404,1,0,0:0:0:0:
329,192,96404,1,0,0:0:0:0:
475,192,96404,1,0,0:0:0:0:
182,192,96485,1,0,0:0:0:0:
402,192,96485,1,0,0:0:0:0:
256,192,96485,1,0,0:0:0:0:
475,192,96566,1,0,0:0:0:0:
109,192,96566,1,0,0:0:0:0:
329,192,96566,1,0,0:0:0:0:
36,192,96647,1,0,0:0:0:0:
182,192,96647,1,0,0:0:0:0:
475,192,96728,1,0,0:0:0:0:
329,192,96728,1,0,0:0:0:0:
402,192,96809,1,0,0:0:0:0:
182,192,96809,1,0,0:0:0:0:
36,192,96891,1,0,0:0:0:0:
109,192,96891,1,0,0:0:0:0:
256,192,96891,1,0,0:0:0:0:
402,192,96972,1,0,0:0:0:0:
329,192,97053,1,0,0:0:0:0:
256,192,97134,1,0,0:0:0:0:
402,192,97215,1,0,0:0:0:0:
36,192,97215,1,0,0:0:0:0:
182,192,97215,1,0,0:0:0:0:
329,192,97296,1,0,0:0:0:0:
256,192,97296,1,0,0:0:0:0:
402,192,97377,1,0,0:0:0:0:
182,192,97377,1,0,0:0:0:0:
475,192,97458,1,0,0:0:0:0:
256,192,97458,1,0,0:0:0:0:
402,192,97539,1,0,0:0:0:0:
36,192,97539,1,0,0:0:0:0:
109,192,97539,1,0,0:0:0:0:
329,192,97620,1,0,0:0:0:0:
256,192,97701,1,0,0:0:0:0:
182,192,97782,1,0,0:0:0:0:
256,192,97863,128,0,98026:0:0:0:0:
109,192,97863,1,0,0:0:0:0:
402,192,97863,1,0,0:0:0:0:
36,192,98026,1,0,0:0:0:0:
475,192,98026,1,0,0:0:0:0:
329,192,98107,128,0,98269:0:0:0:0:
402,192,98107,1,0,0:0:0:0:
109,192,98188,1,0,0:0:0:0:
256,192,98188,1,0,0:0:0:0:
36,192,98269,1,0,0:0:0:0:
475,192,98269,1,0,0:0:0:0:
182,192,98350,128,0,98431:0:0:0:0:
402,192,98350,1,0,0:0:0:0:
36,192,98431,1,0,0:0:0:0:
475,192,98431,1,0,0:0:0:0:
256,192,98512,128,0,99161:0:0:0:0:
329,192,98512,1,0,0:0:0:0:
109,192,98512,1,0,0:0:0:0:
36,192,98674,1,0,0:0:0:0:
182,192,98674,1,0,0:0:0:0:
329,192,98836,1,0,0:0:0:0:
402,192,98836,1,0,0:0:0:0:
109,192,98836,1,0,0:0:0:0:
36,192,98999,1,0,0:0:0:0:
182,192,98999,1,0,0:0:0:0:
109,192,99161,128,0,99404:0:0:0:0:
475,192,99161,1,0,0:0:0:0:
36,192,99161,1,0,0:0:0:0:
329,192,99161,1,0,0:0:0:0:
402,192,99242,1,0,0:0:0:0:
329,192,99323,1,0,0:0:0:0:
475,192,99404,1,0,0:0:0:0:
182,192,99404,128,0,99647:0:0:0:0:
36,192,99404,1,0,0:0:0:0:
402,192,99404,1,0,0:0:0:0:
329,192,99485,1,0,0:0:0:0:
402,192,99566,1,0,0:0:0:0:
256,192,99647,128,0,99809:0:0:0:0:
475,192,99647,1,0,0:0:0:0:
36,192,99647,1,0,0:0:0:0:
329,192,99647,1,0,0:0:0:0:
402,192,99728,1,0,0:0:0:0:
182,192,99809,128,0,100053:0:0:0:0:
475,192,99809,1,0,0:0:0:0:
36,192,99809,1,0,0:0:0:0:
109,192,99809,1,0,0:0:0:0:
402,192,99891,1,0,0:0:0:0:
109,192,99972,1,0,0:0:0:0:
256,192,100053,128,0,100296:0:0:0:0:
475,192,100053,1,0,0:0:0:0:
36,192,100053,1,0,0:0:0:0:
402,192,100053,1,0,0:0:0:0:
109,192,100134,1,0,0:0:0:0:
402,192,100215,1,0,0:0:0:0:
329,192,100296,128,0,100458:0:0:0:0:
475,192,100296,1,0,0:0:0:0:
36,192,100296,1,0,0:0:0:0:
109,192,100296,1,0,0:0:0:0:
402,192,100377,1,0,0:0:0:0:
256,192,100458,1,0,0:0:0:0:
36,192,100458,1,0,0:0:0:0:
182,192,100539,1,0,0:0:0:0:
256,192,100620,1,0,0:0:0:0:
109,192,100620,1,0,0:0:0:0:
329,192,100701,1,0,0:0:0:0:
36,192,100701,1,0,0:0:0:0:
256,192,100782,1,0,0:0:0:0:
329,192,100863,1,0,0:0:0:0:
182,192,100863,1,0,0:0:0:0:
402,192,100945,1,0,0:0:0:0:
36,192,100945,1,0,0:0:0:0:
329,192,101026,1,0,0:0:0:0:
182,192,101026,1,0,0:0:0:0:
402,192,101107,1,0,0:0:0:0:
36,192,101107,1,0,0:0:0:0:
329,192,101188,1,0,0:0:0:0:
402,192,101269,1,0,0:0:0:0:
109,192,101269,1,0,0:0:0:0:
475,192,101350,1,0,0:0:0:0:
36,192,101350,1,0,0:0:0:0:
402,192,101431,1,0,0:0:0:0:
109,192,101431,1,0,0:0:0:0:
36,192,101512,1,0,0:0:0:0:
329,192,101512,1,0,0:0:0:0:
256,192,101512,1,0,0:0:0:0:
182,192,101593,1,0,0:0:0:0:
475,192,101593,1,0,0:0:0:0:
256,192,101593,1,0,0:0:0:0:
256,192,101674,1,0,0:0:0:0:
109,192,101674,1,0,0:0:0:0:
402,192,101674,1,0,0:0:0:0:
475,192,101755,128,0,103053:0:0:0:0:
329,192,101755,128,0,103053:0:0:0:0:
256,192,101755,1,0,0:0:0:0:
36,192,101755,1,0,0:0:0:0:
109,192,101918,1,0,0:0:0:0:
256,192,102080,1,0,0:0:0:0:
36,192,102080,1,0,0:0:0:0:
182,192,102242,1,0,0:0:0:0:
36,192,102404,1,0,0:0:0:0:
182,192,102566,1,0,0:0:0:0:
256,192,102566,1,0,0:0:0:0:
36,192,102728,1,0,0:0:0:0:
109,192,102891,1,0,0:0:0:0:
182,192,102891,1,0,0:0:0:0:
182,192,103053,128,0,104350:0:0:0:0:
36,192,103053,128,0,104350:0:0:0:0:
256,192,103053,1,0,0:0:0:0:
109,192,103053,1,0,0:0:0:0:
402,192,103134,1,0,0:0:0:0:
256,192,103215,1,0,0:0:0:0:
109,192,103215,1,0,0:0:0:0:
402,192,103296,1,0,0:0:0:0:
329,192,103377,1,0,0:0:0:0:
109,192,103377,1,0,0:0:0:0:
475,192,103458,1,0,0:0:0:0:
329,192,103539,1,0,0:0:0:0:
109,192,103539,1,0,0:0:0:0:
475,192,103620,1,0,0:0:0:0:
109,192,103701,1,0,0:0:0:0:
256,192,103701,1,0,0:0:0:0:
402,192,103701,1,0,0:0:0:0:
109,192,103863,128,0,104026:0:0:0:0:
329,192,103863,1,0,0:0:0:0:
475,192,103918,1,0,0:0:0:0:
329,192,103972,1,0,0:0:0:0:
475,192,104026,1,0,0:0:0:0:
109,192,104188,128,0,104350:0:0:0:0:
256,192,104188,1,0,0:0:0:0:
402,192,104242,1,0,0:0:0:0:
256,192,104296,1,0,0:0:0:0:
402,192,104350,1,0,0:0:0:0:
36,192,104674,1,0,0:0:0:0:
182,192,104674,1,0,0:0:0:0:
109,192,104674,1,0,0:0:0:0:
329,192,104674,1,0,0:0:0:0:
402,192,104674,1,0,0:0:0:0:
256,192,104999,1,0,0:0:0:0:
475,192,105053,1,0,0:0:0:0:
256,192,105107,1,0,0:0:0:0:
402,192,105161,1,0,0:0:0:0:
329,192,105161,1,0,0:0:0:0:
182,192,105161,1,0,0:0:0:0:
109,192,105161,1,0,0:0:0:0:
36,192,105161,1,0,0:0:0:0:
256,192,105485,1,0,0:0:0:0:
36,192,105539,1,0,0:0:0:0:
256,192,105593,1,0,0:0:0:0:
475,192,105647,1,0,0:0:0:0:
402,192,105647,1,0,0:0:0:0:
329,192,105647,1,0,0:0:0:0:
182,192,105647,1,0,0:0:0:0:
109,192,105647,1,0,0:0:0:0:
109,192,105809,1,0,0:0:0:0:
182,192,105809,1,0,0:0:0:0:
256,192,105809,1,0,0:0:0:0:
402,192,105809,1,0,0:0:0:0:
475,192,105809,1,0,0:0:0:0:
475,192,105972,1,0,0:0:0:0:
329,192,105972,1,0,0:0:0:0:
182,192,105972,1,0,0:0:0:0:
36,192,105972,1,0,0:0:0:0:
36,192,106134,1,0,0:0:0:0:
109,192,106134,1,0,0:0:0:0:
182,192,106134,1,0,0:0:0:0:
329,192,106134,1,0,0:0:0:0:
475,192,106134,1,0,0:0:0:0:
402,192,106134,1,0,0:0:0:0:
