osu file format v14

[General]
AudioFilename: 01 Confiserie.mp3
AudioLeadIn: 0
PreviewTime: 53459
Countdown: 0
SampleSet: Normal
StackLeniency: 0.7
Mode: 1
LetterboxInBreaks: 0
WidescreenStoryboard: 0

[Editor]
DistanceSpacing: 1
BeatDivisor: 4
GridSize: 32
TimelineZoom: 1.8

[Metadata]
Title:Confiserie
TitleUnicode:Confiserie
Artist:L.E.D. vs S-C-U
ArtistUnicode:L.E.D. vs S-C-U
Creator:-xNaCLx-
Version:Oni
Source:jubeat saucer
Tags:jubeat plus Original Soundtrack - Gourzaemon - dance dance revolution DDR サウンドトラック beatmania IIDX 20 tricoro Toshiyuki Kakuta Shigeharu Saeki
BeatmapID:809957
BeatmapSetID:369596

[Difficulty]
HPDrainRate:5
CircleSize:5
OverallDifficulty:5
ApproachRate:5
SliderMultiplier:1.4
SliderTickRate:1

[Events]
//Background and Video events
0,0,"wallpaper-207364.jpg",0,0
//Break Periods
//Storyboard Layer 0 (Background)
//Storyboard Layer 1 (Fail)
//Storyboard Layer 2 (Pass)
//Storyboard Layer 3 (Foreground)
//Storyboard Sound Samples

[TimingPoints]
594,324.324324324324,4,1,0,80,1,0
52485,-100,4,1,0,50,0,0
53621,-100,4,1,0,80,0,0
53783,-100,4,1,0,80,0,1
77134,-100,4,1,0,80,0,0
90107,-100,4,1,0,80,0,1
104864,-100,4,1,0,80,0,0

[Colours]
Combo1 : 237,203,44
Combo2 : 255,98,251
Combo3 : 61,126,250
Combo4 : 54,245,112

[HitObjects]
256,192,594,5,8,0:0:0:0:
256,192,756,1,0,0:0:0:0:
256,192,837,1,0,0:0:0:0:
256,192,919,1,8,0:0:0:0:
256,192,1081,1,8,0:0:0:0:
256,192,1243,1,0,0:0:0:0:
256,192,1405,1,0,0:0:0:0:
256,192,1567,1,0,0:0:0:0:
256,192,1648,1,0,0:0:0:0:
256,192,1729,1,0,0:0:0:0:
256,192,1810,1,0,0:0:0:0:
256,192,1892,1,8,0:0:0:0:
256,192,2054,1,0,0:0:0:0:
256,192,2135,1,8,0:0:0:0:
256,192,2378,1,0,0:0:0:0:
256,192,2540,1,8,0:0:0:0:
256,192,2702,1,0,0:0:0:0:
256,192,2783,1,0,0:0:0:0:
256,192,2864,1,0,0:0:0:0:
256,192,3027,1,0,0:0:0:0:
256,192,3189,1,8,0:0:0:0:
256,192,3351,1,0,0:0:0:0:
256,192,3432,1,8,0:0:0:0:
256,192,3675,1,0,0:0:0:0:
256,192,3837,1,8,0:0:0:0:
256,192,4000,1,0,0:0:0:0:
256,192,4081,1,0,0:0:0:0:
256,192,4162,1,0,0:0:0:0:
256,192,4324,1,0,0:0:0:0:
256,192,4486,1,8,0:0:0:0:
256,192,4648,1,0,0:0:0:0:
256,192,4729,1,8,0:0:0:0:
256,192,4973,1,0,0:0:0:0:
256,192,5216,1,8,0:0:0:0:
256,192,5378,1,0,0:0:0:0:
256,192,5459,1,8,0:0:0:0:
256,192,5621,1,0,0:0:0:0:
256,192,5702,1,0,0:0:0:0:
256,192,5783,1,8,0:0:0:0:
256,192,5946,1,0,0:0:0:0:
256,192,6108,1,8,0:0:0:0:
256,192,6189,1,8,0:0:0:0:
256,192,6270,1,8,0:0:0:0:
256,192,6432,1,0,0:0:0:0:
256,192,6594,1,0,0:0:0:0:
256,192,6675,1,0,0:0:0:0:
256,192,6756,1,8,0:0:0:0:
256,192,6919,1,0,0:0:0:0:
256,192,7000,1,8,0:0:0:0:
256,192,7081,1,0,0:0:0:0:
256,192,7324,1,0,0:0:0:0:
256,192,7405,1,8,0:0:0:0:
256,192,7567,1,0,0:0:0:0:
256,192,7729,1,8,0:0:0:0:
256,192,7891,1,0,0:0:0:0:
256,192,8054,1,8,0:0:0:0:
256,192,8216,1,8,0:0:0:0:
256,192,8297,1,8,0:0:0:0:
256,192,8378,1,0,0:0:0:0:
256,192,8540,1,0,0:0:0:0:
256,192,8702,1,8,0:0:0:0:
256,192,8864,1,0,0:0:0:0:
256,192,9027,1,8,0:0:0:0:
256,192,9108,1,8,0:0:0:0:
256,192,9189,1,8,0:0:0:0:
256,192,9270,1,8,0:0:0:0:
256,192,9351,1,0,0:0:0:0:
256,192,9513,1,0,0:0:0:0:
256,192,9594,1,0,0:0:0:0:
256,192,9675,1,8,0:0:0:0:
256,192,9837,1,0,0:0:0:0:
256,192,10000,1,8,0:0:0:0:
256,192,10162,1,8,0:0:0:0:
256,192,10324,1,0,0:0:0:0:
256,192,10486,1,0,0:0:0:0:
256,192,10648,1,8,0:0:0:0:
256,192,10729,1,8,0:0:0:0:
256,192,10810,1,0,0:0:0:0:
256,192,10891,1,0,0:0:0:0:
256,192,10973,1,8,0:0:0:0:
256,192,11216,1,12,0:0:0:0:
256,192,11459,1,12,0:0:0:0:
256,192,11621,1,4,0:0:0:0:
256,192,12108,1,0,0:0:0:0:
256,192,12189,1,0,0:0:0:0:
256,192,12270,1,8,0:0:0:0:
256,192,12432,1,0,0:0:0:0:
256,192,12513,1,8,0:0:0:0:
256,192,12594,1,0,0:0:0:0:
256,192,12756,1,0,0:0:0:0:
256,192,12919,1,8,0:0:0:0:
256,192,13081,1,0,0:0:0:0:
256,192,13243,1,0,0:0:0:0:
256,192,13405,1,8,0:0:0:0:
256,192,13729,1,0,0:0:0:0:
256,192,13891,1,8,0:0:0:0:
256,192,14054,1,8,0:0:0:0:
256,192,14378,1,0,0:0:0:0:
256,192,14702,1,8,0:0:0:0:
256,192,14864,1,0,0:0:0:0:
256,192,15027,1,8,0:0:0:0:
256,192,15108,1,0,0:0:0:0:
256,192,15189,1,8,0:0:0:0:
256,192,15351,1,0,0:0:0:0:
256,192,15513,1,8,0:0:0:0:
256,192,15675,1,0,0:0:0:0:
256,192,15837,1,0,0:0:0:0:
256,192,16000,1,0,0:0:0:0:
256,192,16162,1,8,0:0:0:0:
256,192,16324,1,0,0:0:0:0:
256,192,16405,1,8,0:0:0:0:
256,192,16486,1,0,0:0:0:0:
256,192,16648,1,8,0:0:0:0:
256,192,16973,1,8,0:0:0:0:
256,192,17135,1,0,0:0:0:0:
256,192,17297,1,8,0:0:0:0:
256,192,17621,1,0,0:0:0:0:
256,192,17783,1,8,0:0:0:0:
256,192,17946,1,0,0:0:0:0:
256,192,18108,1,0,0:0:0:0:
256,192,18270,1,8,0:0:0:0:
256,192,18594,1,8,0:0:0:0:
256,192,18919,1,0,0:0:0:0:
256,192,19000,1,0,0:0:0:0:
256,192,19081,1,0,0:0:0:0:
256,192,19243,1,8,0:0:0:0:
256,192,19405,1,8,0:0:0:0:
256,192,19567,1,0,0:0:0:0:
256,192,19648,1,0,0:0:0:0:
256,192,19729,1,8,0:0:0:0:
256,192,19891,1,0,0:0:0:0:
256,192,20054,1,8,0:0:0:0:
256,192,20216,1,0,0:0:0:0:
256,192,20540,1,8,0:0:0:0:
256,192,20864,1,0,0:0:0:0:
256,192,21027,1,8,0:0:0:0:
256,192,21351,1,0,0:0:0:0:
256,192,21432,1,0,0:0:0:0:
256,192,21513,1,8,0:0:0:0:
256,192,21675,1,0,0:0:0:0:
256,192,21837,1,8,0:0:0:0:
256,192,22000,1,0,0:0:0:0:
256,192,22162,1,8,0:0:0:0:
256,192,22486,1,0,0:0:0:0:
256,192,22567,1,0,0:0:0:0:
256,192,22648,1,8,0:0:0:0:
256,192,22810,1,0,0:0:0:0:
256,192,22891,1,8,0:0:0:0:
256,192,22972,1,0,0:0:0:0:
256,192,23134,1,0,0:0:0:0:
256,192,23297,1,8,0:0:0:0:
256,192,23459,1,0,0:0:0:0:
256,192,23621,1,0,0:0:0:0:
256,192,23783,1,8,0:0:0:0:
256,192,24107,1,0,0:0:0:0:
256,192,24269,1,8,0:0:0:0:
256,192,24432,1,8,0:0:0:0:
256,192,24756,1,0,0:0:0:0:
256,192,25080,1,8,0:0:0:0:
256,192,25242,1,0,0:0:0:0:
256,192,25405,1,8,0:0:0:0:
256,192,25486,1,0,0:0:0:0:
256,192,25567,1,8,0:0:0:0:
256,192,25729,1,0,0:0:0:0:
256,192,25891,1,8,0:0:0:0:
256,192,26053,1,0,0:0:0:0:
256,192,26215,1,0,0:0:0:0:
256,192,26378,1,0,0:0:0:0:
256,192,26540,1,8,0:0:0:0:
256,192,26702,1,0,0:0:0:0:
256,192,26783,1,8,0:0:0:0:
256,192,26864,1,0,0:0:0:0:
256,192,27026,1,8,0:0:0:0:
256,192,27351,1,8,0:0:0:0:
256,192,27513,1,0,0:0:0:0:
256,192,27675,1,8,0:0:0:0:
256,192,27999,1,0,0:0:0:0:
256,192,28161,1,8,0:0:0:0:
256,192,28324,1,0,0:0:0:0:
256,192,28486,1,0,0:0:0:0:
256,192,28648,1,8,0:0:0:0:
256,192,28972,1,8,0:0:0:0:
256,192,29297,1,0,0:0:0:0:
256,192,29378,1,0,0:0:0:0:
256,192,29459,1,0,0:0:0:0:
256,192,29621,1,8,0:0:0:0:
256,192,29783,1,8,0:0:0:0:
256,192,29945,1,0,0:0:0:0:
256,192,30026,1,0,0:0:0:0:
256,192,30107,1,8,0:0:0:0:
256,192,30269,1,0,0:0:0:0:
256,192,30432,1,8,0:0:0:0:
256,192,30594,1,0,0:0:0:0:
256,192,30919,1,0,0:0:0:0:
256,192,31243,1,0,0:0:0:0:
256,192,31405,1,8,0:0:0:0:
256,192,31729,1,0,0:0:0:0:
256,192,31891,1,0,0:0:0:0:
256,192,32054,1,8,0:0:0:0:
256,192,32216,1,0,0:0:0:0:
256,192,32378,1,8,0:0:0:0:
256,192,32540,1,0,0:0:0:0:
256,192,32621,1,0,0:0:0:0:
256,192,32702,1,0,0:0:0:0:
256,192,32864,1,0,0:0:0:0:
256,192,32946,1,0,0:0:0:0:
256,192,33027,1,8,0:0:0:0:
256,192,33270,1,8,0:0:0:0:
256,192,33513,1,0,0:0:0:0:
256,192,33675,1,8,0:0:0:0:
256,192,33837,1,0,0:0:0:0:
256,192,33919,1,0,0:0:0:0:
256,192,34000,1,8,0:0:0:0:
256,192,34162,1,0,0:0:0:0:
256,192,34324,1,8,0:0:0:0:
256,192,34567,1,0,0:0:0:0:
256,192,34810,1,8,0:0:0:0:
256,192,34973,1,0,0:0:0:0:
256,192,35054,1,8,0:0:0:0:
256,192,35135,1,8,0:0:0:0:
256,192,35297,1,8,0:0:0:0:
256,192,35459,1,0,0:0:0:0:
256,192,35621,1,0,0:0:0:0:
256,192,35864,1,8,0:0:0:0:
256,192,36108,1,0,0:0:0:0:
256,192,36432,1,8,0:0:0:0:
256,192,36513,1,8,0:0:0:0:
256,192,36594,1,8,0:0:0:0:
256,192,36756,1,0,0:0:0:0:
256,192,36919,1,0,0:0:0:0:
256,192,37243,1,8,0:0:0:0:
256,192,37405,1,0,0:0:0:0:
256,192,37486,1,0,0:0:0:0:
256,192,37567,1,8,0:0:0:0:
256,192,37729,1,0,0:0:0:0:
256,192,37891,1,8,0:0:0:0:
256,192,38054,1,0,0:0:0:0:
256,192,38216,1,8,0:0:0:0:
256,192,38459,1,0,0:0:0:0:
256,192,38702,1,8,0:0:0:0:
256,192,38864,1,0,0:0:0:0:
256,192,39027,1,0,0:0:0:0:
256,192,39108,1,0,0:0:0:0:
256,192,39189,1,8,0:0:0:0:
256,192,39351,1,0,0:0:0:0:
256,192,39513,1,8,0:0:0:0:
256,192,39756,1,0,0:0:0:0:
256,192,40000,1,8,0:0:0:0:
256,192,40162,1,0,0:0:0:0:
256,192,40324,1,0,0:0:0:0:
256,192,40405,1,0,0:0:0:0:
256,192,40486,1,8,0:0:0:0:
256,192,40648,1,0,0:0:0:0:
256,192,40810,1,8,0:0:0:0:
256,192,41054,1,8,0:0:0:0:
256,192,41297,1,0,0:0:0:0:
256,192,41621,1,8,0:0:0:0:
256,192,41702,1,8,0:0:0:0:
256,192,41783,1,0,0:0:0:0:
256,192,41946,1,8,0:0:0:0:
256,192,42108,1,0,0:0:0:0:
256,192,42432,1,8,0:0:0:0:
256,192,42594,1,0,0:0:0:0:
256,192,42675,1,0,0:0:0:0:
256,192,42756,1,8,0:0:0:0:
256,192,42919,1,0,0:0:0:0:
256,192,43081,1,8,0:0:0:0:
256,192,43243,1,0,0:0:0:0:
256,192,43324,1,0,0:0:0:0:
256,192,43405,1,8,0:0:0:0:
256,192,43648,1,8,0:0:0:0:
256,192,43891,1,0,0:0:0:0:
256,192,44053,1,8,0:0:0:0:
256,192,44215,1,0,0:0:0:0:
256,192,44297,1,0,0:0:0:0:
256,192,44378,1,8,0:0:0:0:
256,192,44540,1,0,0:0:0:0:
256,192,44702,1,8,0:0:0:0:
256,192,44945,1,0,0:0:0:0:
256,192,45188,1,8,0:0:0:0:
256,192,45351,1,0,0:0:0:0:
256,192,45432,1,8,0:0:0:0:
256,192,45513,1,8,0:0:0:0:
256,192,45675,1,8,0:0:0:0:
256,192,45837,1,0,0:0:0:0:
256,192,45999,1,4,0:0:0:0:
256,192,46242,1,8,0:0:0:0:
256,192,46486,1,0,0:0:0:0:
256,192,46810,1,8,0:0:0:0:
256,192,46891,1,8,0:0:0:0:
256,192,46972,1,8,0:0:0:0:
256,192,47134,1,0,0:0:0:0:
256,192,47297,1,4,0:0:0:0:
256,192,47621,1,8,0:0:0:0:
256,192,47783,1,0,0:0:0:0:
256,192,47864,1,0,0:0:0:0:
256,192,47945,1,8,0:0:0:0:
256,192,48107,1,0,0:0:0:0:
256,192,48269,1,8,0:0:0:0:
256,192,48432,1,0,0:0:0:0:
256,192,48594,1,12,0:0:0:0:
256,192,48837,1,0,0:0:0:0:
256,192,49080,1,8,0:0:0:0:
256,192,49242,1,0,0:0:0:0:
256,192,49405,1,0,0:0:0:0:
256,192,49486,1,0,0:0:0:0:
256,192,49567,1,8,0:0:0:0:
256,192,49729,1,0,0:0:0:0:
256,192,49891,1,12,0:0:0:0:
256,192,50134,1,0,0:0:0:0:
256,192,50378,1,8,0:0:0:0:
256,192,50540,1,0,0:0:0:0:
256,192,50702,1,0,0:0:0:0:
256,192,50783,1,0,0:0:0:0:
256,192,50864,1,8,0:0:0:0:
256,192,51026,1,0,0:0:0:0:
256,192,51189,1,12,0:0:0:0:
256,192,51405,1,12,0:0:0:0:
256,192,51621,1,4,0:0:0:0:
256,192,51837,1,4,0:0:0:0:
256,192,52054,1,12,0:0:0:0:
256,192,52270,1,12,0:0:0:0:
256,192,52485,12,0,53458,0:0:0:0:
256,192,53621,5,0,0:0:0:0:
256,192,53702,1,0,0:0:0:0:
256,192,53783,1,8,0:0:0:0:
256,192,53946,1,8,0:0:0:0:
256,192,54027,1,0,0:0:0:0:
256,192,54270,1,0,0:0:0:0:
256,192,54432,1,8,0:0:0:0:
256,192,54594,1,8,0:0:0:0:
256,192,54675,1,0,0:0:0:0:
256,192,54919,1,0,0:0:0:0:
256,192,55000,1,0,0:0:0:0:
256,192,55081,1,8,0:0:0:0:
256,192,55243,1,0,0:0:0:0:
256,192,55405,1,8,0:0:0:0:
256,192,55567,1,0,0:0:0:0:
256,192,55648,1,8,0:0:0:0:
256,192,55729,1,0,0:0:0:0:
256,192,55891,1,8,0:0:0:0:
256,192,56054,1,0,0:0:0:0:
256,192,56135,1,0,0:0:0:0:
256,192,56216,1,8,0:0:0:0:
256,192,56297,1,0,0:0:0:0:
256,192,56378,1,8,0:0:0:0:
256,192,56540,1,0,0:0:0:0:
256,192,56702,1,8,0:0:0:0:
256,192,56783,1,8,0:0:0:0:
256,192,56864,1,0,0:0:0:0:
256,192,57027,1,8,0:0:0:0:
256,192,57189,1,0,0:0:0:0:
256,192,57270,1,0,0:0:0:0:
256,192,57351,1,0,0:0:0:0:
256,192,57513,1,8,0:0:0:0:
256,192,57675,1,8,0:0:0:0:
256,192,57837,1,8,0:0:0:0:
256,192,57919,1,8,0:0:0:0:
256,192,58000,1,0,0:0:0:0:
256,192,58162,1,8,0:0:0:0:
256,192,58324,1,0,0:0:0:0:
256,192,58486,1,0,0:0:0:0:
256,192,58567,1,0,0:0:0:0:
256,192,58648,1,8,0:0:0:0:
256,192,58810,1,0,0:0:0:0:
256,192,58973,1,8,0:0:0:0:
256,192,59135,1,8,0:0:0:0:
256,192,59216,1,0,0:0:0:0:
256,192,59459,1,8,0:0:0:0:
256,192,59540,1,0,0:0:0:0:
256,192,59621,1,8,0:0:0:0:
256,192,59783,1,8,0:0:0:0:
256,192,59946,1,0,0:0:0:0:
256,192,60108,1,8,0:0:0:0:
256,192,60189,1,0,0:0:0:0:
256,192,60270,1,8,0:0:0:0:
256,192,60432,1,0,0:0:0:0:
256,192,60513,1,8,0:0:0:0:
256,192,60756,1,0,0:0:0:0:
256,192,60919,1,8,0:0:0:0:
256,192,61243,1,0,0:0:0:0:
256,192,61405,1,0,0:0:0:0:
256,192,61486,1,0,0:0:0:0:
256,192,61567,1,8,0:0:0:0:
256,192,61729,1,0,0:0:0:0:
256,192,61891,1,8,0:0:0:0:
256,192,62054,1,8,0:0:0:0:
256,192,62216,1,0,0:0:0:0:
256,192,62378,1,0,0:0:0:0:
256,192,62459,1,0,0:0:0:0:
256,192,62540,1,8,0:0:0:0:
256,192,62702,1,0,0:0:0:0:
256,192,62864,1,8,0:0:0:0:
256,192,63027,1,8,0:0:0:0:
256,192,63108,1,0,0:0:0:0:
256,192,63351,1,0,0:0:0:0:
256,192,63513,1,8,0:0:0:0:
256,192,63675,1,8,0:0:0:0:
256,192,63837,1,0,0:0:0:0:
256,192,63919,1,0,0:0:0:0:
256,192,64000,1,0,0:0:0:0:
256,192,64081,1,0,0:0:0:0:
256,192,64162,1,8,0:0:0:0:
256,192,64324,1,8,0:0:0:0:
256,192,64486,1,0,0:0:0:0:
256,192,64648,1,0,0:0:0:0:
256,192,64729,1,8,0:0:0:0:
256,192,64810,1,0,0:0:0:0:
256,192,64973,1,8,0:0:0:0:
256,192,65135,1,0,0:0:0:0:
256,192,65297,1,0,0:0:0:0:
256,192,65378,1,8,0:0:0:0:
256,192,65459,1,0,0:0:0:0:
256,192,65621,1,8,0:0:0:0:
256,192,65783,1,0,0:0:0:0:
256,192,65946,1,8,0:0:0:0:
256,192,66108,1,8,0:0:0:0:
256,192,66270,1,0,0:0:0:0:
256,192,66351,1,0,0:0:0:0:
256,192,66432,1,8,0:0:0:0:
256,192,66594,1,0,0:0:0:0:
256,192,66756,1,8,0:0:0:0:
256,192,66837,1,8,0:0:0:0:
256,192,66919,1,8,0:0:0:0:
256,192,67081,1,0,0:0:0:0:
256,192,67162,1,0,0:0:0:0:
256,192,67243,1,0,0:0:0:0:
256,192,67405,1,8,0:0:0:0:
256,192,67567,1,0,0:0:0:0:
256,192,67729,1,8,0:0:0:0:
256,192,67891,1,0,0:0:0:0:
256,192,67973,1,0,0:0:0:0:
256,192,68054,1,8,0:0:0:0:
256,192,68216,1,0,0:0:0:0:
256,192,68378,1,8,0:0:0:0:
256,192,68459,1,8,0:0:0:0:
256,192,68540,1,0,0:0:0:0:
256,192,68702,1,8,0:0:0:0:
256,192,68864,1,0,0:0:0:0:
256,192,69027,1,0,0:0:0:0:
256,192,69108,1,0,0:0:0:0:
256,192,69189,1,8,0:0:0:0:
256,192,69270,1,0,0:0:0:0:
256,192,69351,1,8,0:0:0:0:
256,192,69513,1,8,0:0:0:0:
256,192,69594,1,0,0:0:0:0:
256,192,69837,1,8,0:0:0:0:
256,192,69919,1,0,0:0:0:0:
256,192,70000,1,8,0:0:0:0:
256,192,70162,1,8,0:0:0:0:
256,192,70324,1,0,0:0:0:0:
256,192,70486,1,8,0:0:0:0:
256,192,70566,1,0,0:0:0:0:
256,192,70648,1,8,0:0:0:0:
256,192,70810,1,0,0:0:0:0:
256,192,70891,1,8,0:0:0:0:
256,192,71135,1,0,0:0:0:0:
256,192,71297,1,8,0:0:0:0:
256,192,71621,1,0,0:0:0:0:
256,192,71702,1,0,0:0:0:0:
256,192,71783,1,0,0:0:0:0:
256,192,71864,1,0,0:0:0:0:
256,192,71946,1,8,0:0:0:0:
256,192,72189,1,0,0:0:0:0:
256,192,72432,1,8,0:0:0:0:
256,192,72594,1,0,0:0:0:0:
256,192,72837,1,0,0:0:0:0:
256,192,73081,1,8,0:0:0:0:
256,192,73243,1,0,0:0:0:0:
256,192,73486,1,0,0:0:0:0:
256,192,73729,1,0,0:0:0:0:
256,192,73891,1,8,0:0:0:0:
256,192,74135,1,8,0:0:0:0:
256,192,74378,1,8,0:0:0:0:
192,128,74540,2,0,L|480:128,1,280
256,192,75351,1,8,0:0:0:0:
256,192,75432,1,8,0:0:0:0:
256,192,75513,1,0,0:0:0:0:
256,192,75675,1,0,0:0:0:0:
256,192,75756,1,0,0:0:0:0:
256,192,75837,1,8,0:0:0:0:
256,192,76162,1,8,0:0:0:0:
256,192,76486,1,0,0:0:0:0:
256,192,76648,1,0,0:0:0:0:
256,192,76810,1,8,0:0:0:0:
256,192,76973,1,0,0:0:0:0:
256,192,77135,1,12,0:0:0:0:
256,192,77378,1,8,0:0:0:0:
256,192,77621,1,0,0:0:0:0:
256,192,77946,1,0,0:0:0:0:
256,192,78108,1,8,0:0:0:0:
256,192,78270,1,0,0:0:0:0:
256,192,78432,1,8,0:0:0:0:
256,192,78675,1,0,0:0:0:0:
256,192,78919,1,8,0:0:0:0:
256,192,79243,1,8,0:0:0:0:
256,192,79405,1,0,0:0:0:0:
256,192,79567,1,8,0:0:0:0:
256,192,79729,1,0,0:0:0:0:
256,192,79973,1,8,0:0:0:0:
256,192,80216,1,0,0:0:0:0:
256,192,80540,1,8,0:0:0:0:
256,192,80702,1,8,0:0:0:0:
256,192,80864,1,0,0:0:0:0:
256,192,81513,1,0,0:0:0:0:
256,192,81675,1,8,0:0:0:0:
256,192,81837,1,0,0:0:0:0:
256,192,82000,1,0,0:0:0:0:
256,192,82162,1,8,0:0:0:0:
256,192,82324,1,12,0:0:0:0:
256,192,82486,1,0,0:0:0:0:
256,192,82567,1,0,0:0:0:0:
256,192,82810,1,8,0:0:0:0:
256,192,83135,1,0,0:0:0:0:
256,192,83297,1,0,0:0:0:0:
256,192,83459,1,8,0:0:0:0:
256,192,83621,1,12,0:0:0:0:
256,192,83783,1,0,0:0:0:0:
256,192,83864,1,0,0:0:0:0:
256,192,84108,1,8,0:0:0:0:
256,192,84432,1,0,0:0:0:0:
256,192,84513,1,0,0:0:0:0:
256,192,84594,1,0,0:0:0:0:
256,192,84756,1,8,0:0:0:0:
256,192,84919,1,12,0:0:0:0:
256,192,85135,1,12,0:0:0:0:
256,192,85351,1,4,0:0:0:0:
256,192,85567,1,4,0:0:0:0:
256,192,85783,1,12,0:0:0:0:
256,192,86000,1,12,0:0:0:0:
256,192,87513,1,12,0:0:0:0:
256,192,87729,1,12,0:0:0:0:
256,192,87946,1,4,0:0:0:0:
256,192,88162,1,4,0:0:0:0:
256,192,88378,1,12,0:0:0:0:
256,192,88594,1,12,0:0:0:0:
256,192,89459,1,0,0:0:0:0:
256,192,89621,1,0,0:0:0:0:
256,192,89783,1,0,0:0:0:0:
256,192,89864,1,0,0:0:0:0:
256,192,89946,1,0,0:0:0:0:
256,192,90027,1,0,0:0:0:0:
256,192,90107,1,8,0:0:0:0:
256,192,90270,1,8,0:0:0:0:
256,192,90351,1,0,0:0:0:0:
256,192,90513,1,8,0:0:0:0:
256,192,90594,1,0,0:0:0:0:
256,192,90756,1,8,0:0:0:0:
256,192,90918,1,8,0:0:0:0:
256,192,90999,1,0,0:0:0:0:
256,192,91162,1,8,0:0:0:0:
256,192,91243,1,0,0:0:0:0:
256,192,91405,1,8,0:0:0:0:
256,192,91567,1,0,0:0:0:0:
256,192,91729,1,8,0:0:0:0:
256,192,91891,1,0,0:0:0:0:
256,192,91972,1,8,0:0:0:0:
256,192,92053,1,0,0:0:0:0:
256,192,92215,1,8,0:0:0:0:
256,192,92378,1,0,0:0:0:0:
256,192,92459,1,0,0:0:0:0:
256,192,92540,1,8,0:0:0:0:
256,192,92621,1,0,0:0:0:0:
256,192,92702,1,8,0:0:0:0:
256,192,92864,1,0,0:0:0:0:
256,192,93026,1,8,0:0:0:0:
256,192,93107,1,8,0:0:0:0:
256,192,93188,1,0,0:0:0:0:
256,192,93351,1,8,0:0:0:0:
256,192,93513,1,0,0:0:0:0:
256,192,93675,1,0,0:0:0:0:
256,192,93756,1,0,0:0:0:0:
256,192,93837,1,8,0:0:0:0:
256,192,93919,1,0,0:0:0:0:
256,192,93999,1,8,0:0:0:0:
256,192,94161,1,8,0:0:0:0:
256,192,94243,1,8,0:0:0:0:
256,192,94324,1,0,0:0:0:0:
256,192,94486,1,8,0:0:0:0:
256,192,94648,1,0,0:0:0:0:
256,192,94810,1,0,0:0:0:0:
256,192,94891,1,0,0:0:0:0:
256,192,94972,1,8,0:0:0:0:
256,192,95134,1,0,0:0:0:0:
256,192,95297,1,8,0:0:0:0:
256,192,95459,1,8,0:0:0:0:
256,192,95540,1,0,0:0:0:0:
256,192,95702,1,0,0:0:0:0:
256,192,95783,1,8,0:0:0:0:
256,192,95864,1,0,0:0:0:0:
256,192,95945,1,8,0:0:0:0:
256,192,96107,1,8,0:0:0:0:
256,192,96270,1,0,0:0:0:0:
256,192,96432,1,8,0:0:0:0:
256,192,96513,1,0,0:0:0:0:
256,192,96594,1,8,0:0:0:0:
256,192,96756,1,0,0:0:0:0:
256,192,96837,1,8,0:0:0:0:
256,192,97000,1,0,0:0:0:0:
256,192,97080,1,0,0:0:0:0:
256,192,97243,1,8,0:0:0:0:
256,192,97567,1,0,0:0:0:0:
256,192,97648,1,0,0:0:0:0:
256,192,97729,1,0,0:0:0:0:
256,192,97810,1,0,0:0:0:0:
256,192,97892,1,8,0:0:0:0:
256,192,98135,1,0,0:0:0:0:
256,192,98378,1,8,0:0:0:0:
256,192,98540,1,0,0:0:0:0:
256,192,98783,1,0,0:0:0:0:
256,192,99027,1,8,0:0:0:0:
256,192,99189,1,0,0:0:0:0:
256,192,99351,1,8,0:0:0:0:
256,192,99432,1,0,0:0:0:0:
256,192,99594,1,8,0:0:0:0:
256,192,99675,1,0,0:0:0:0:
256,192,99837,1,8,0:0:0:0:
256,192,100000,1,0,0:0:0:0:
256,192,100081,1,8,0:0:0:0:
256,192,100243,1,0,0:0:0:0:
256,192,100324,1,8,0:0:0:0:
256,192,100486,1,8,0:0:0:0:
256,192,100648,1,0,0:0:0:0:
256,192,100810,1,8,0:0:0:0:
256,192,100973,1,0,0:0:0:0:
256,192,101135,1,8,0:0:0:0:
256,192,101297,1,0,0:0:0:0:
256,192,101459,1,8,0:0:0:0:
256,192,101621,1,8,0:0:0:0:
128,96,101783,2,0,L|416:96,1,280
256,192,102594,1,8,0:0:0:0:
256,192,102675,1,8,0:0:0:0:
256,192,102756,1,0,0:0:0:0:
256,192,102919,1,8,0:0:0:0:
256,192,103000,1,8,0:0:0:0:
256,192,103405,1,12,0:0:0:0:
256,192,103729,1,0,0:0:0:0:
256,192,103891,1,12,0:0:0:0:
256,192,104216,1,0,0:0:0:0:
256,192,104378,1,12,0:0:0:0:
256,192,104540,1,12,0:0:0:0:
256,192,104702,1,12,0:0:0:0:
256,192,104864,1,4,0:0:0:0:
