osu file format v9

[General]
AudioFilename: 15 - THE LAST STRIKER.mp3
AudioLeadIn: 2000
PreviewTime: 93765
Countdown: 0
SampleSet: Normal
StackLeniency: 0.7
Mode: 0
LetterboxInBreaks: 1

[Editor]
Bookmarks: 73008
DistanceSpacing: 1
BeatDivisor: 2
GridSize: 8

[Metadata]
Title:THE LAST STRIKER
Artist:L.E.D.
Creator:Nakagawa-Kanon
Version:Standard
Source:Beatmania IIDX
Tags:17 SIRIUS 15 TROOPERS CS dksslqj Natteke inaba-tan Ra-s LED

[Difficulty]
HPDrainRate:4
CircleSize:4
OverallDifficulty:3
ApproachRate:6
SliderMultiplier:1
SliderTickRate:1

[Events]
//Background and Video events
0,0,"wow.png"
//Break Periods
2,10938,16823
2,73207,82337
//Storyboard Layer 0 (Background)
//Storyboard Layer 1 (Fail)
//Storyboard Layer 2 (Pass)
//Storyboard Layer 3 (Foreground)
//Storyboard Sound Samples
//Background Colour Transformations
3,100,163,162,255

[TimingPoints]
360,324.324324324324,4,1,0,70,1,0
441,-100,4,2,0,70,0,0
10657,-100,4,1,0,40,0,0
30116,-100,4,1,1,70,0,0
71954,-100,4,1,1,70,0,0
83224,-100,4,1,1,40,0,0
83468,-100,4,2,0,70,0,0
91089,-100,4,1,1,70,0,0
93765,-100,4,1,1,70,0,1
114522,-100,4,1,1,40,0,0
114603,-100,4,2,0,70,0,0
123603,-100,4,2,0,5,0,0
121008,-100,4,2,0,60,0,0
121657,-100,4,2,0,50,0,0
122305,-100,4,2,0,40,0,0
122954,-100,4,2,0,30,0,0

[Colours]
Combo1 : 0,128,192
Combo2 : 128,128,255
Combo3 : 0,0,255
Combo4 : 128,255,255

[HitObjects]
256,192,360,1,4
128,344,1008,2,0,B|40:344|40:248,2,150
256,264,2468,6,0,B|256:160,2,99.9999999999999
384,344,3603,2,0,B|472:344|472:248,2,150
304,288,4900,5,0
208,288,5224,1,0
168,192,5549,2,0,B|256:104|344:192,2,200
256,248,7170,2,0,B|256:352,2,99.9999999999999
256,144,8143,5,0
208,56,8468,2,0,B|256:32|304:56,2,99.9999999999999
168,152,9441,2,0,B|168:256|256:284|344:256|344:152,1,300
256,104,10738,5,4
256,192,17873,12,4,21116
128,304,21765,5,0
48,248,22089,2,0,B|32:136,2,99.9999999999999,8|0|8
128,304,23062,1,0
224,280,23387,1,8
320,304,23711,2,0,B|432:304,1,99.9999999999999,0|8
256,192,24684,6,0,B|136:192,1,99.9999999999999,8|0
56,192,25332,2,0,B|40:152|64:104,2,74.9999999999999,8|8|0
48,240,25981,2,0,B|56:304|128:312,1,100,8|4
208,312,26630,6,0,B|320:304,1,99.9999999999999,8|0
400,336,27278,1,8
464,256,27603,2,0,B|456:208|464:152,1,99.9999999999999,0|8
280,80,28576,6,0,B|168:72,2,99.9999999999999,8|0|8
320,168,29549,1,0
224,176,29873,1,8
256,192,30197,12,4,31495
64,192,31819,6,8,B|72:312|184:328,1,200
256,264,32792,1,0
327,328,33116,2,8,B|440:312|448:192,1,200
352,160,34089,5,0
304,72,34414,1,8
208,72,34738,1,0
160,160,35063,1,8
256,160,35387,1,0
200,248,35711,2,8,B|200:320|256:336|312:320|312:248,1,200
344,152,36684,6,0,B|368:88|328:40,2,99.9999999999999,0|8|0
256,112,37657,1,8
168,152,37981,2,0,B|144:88|184:40,2,99.9999999999999,0|8|0
256,192,38954,1,8
168,240,39278,5,0
144,336,39603,1,8
48,304,39927,1,0
72,208,40251,1,8
168,240,40576,2,0,B|272:240,1,99.9999999999999,0|8
352,296,41224,2,0,B|448:264|408:152,1,150,0|8
408,128,41873,5,4
312,128,42197,1,8
256,48,42522,1,0
200,128,42846,1,8
104,128,43170,1,0
152,216,43495,2,0,B|200:240|208:304,1,99.9999999999999,8|0
305,295,44143,2,0,B|312:240|360:216,1,99.9999999999999,8|0
404,308,44792,5,8
256,176,45441,1,8
108,308,46089,1,8
208,324,46414,1,0
304,324,46738,1,8
404,308,47062,5,4
480,244,47387,2,0,B|468:140|340:160,1,150,8|0
328,160,48035,1,8
256,224,48359,1,0
176,160,48684,2,0,B|164:264|36:244,1,150,8|0
24,244,49332,1,8
32,144,49657,5,0
96,64,49981,1,8
192,32,50305,1,0
288,40,50630,1,8
376,88,50954,1,0
440,160,51278,2,0,B|464:288|328:328,1,200,8|8
264,360,52251,6,0,B|256:216|80:312|64:144,1,300,4|8
104,72,53549,2,0,B|208:0|328:64|320:208,1,300,0|8
304,272,54846,6,0,B|448:320|528:200|512:112,1,300,0|8
456,48,56143,2,0,B|128:64,1,300,0|8
120,160,57441,6,0,B|280:112|400:248,1,300,4|8
312,304,58738,2,0,B|160:240|40:368,1,300,0|8
0,280,60035,6,0,B|152:224|160:48,1,300,0|8
256,40,61332,2,0,B|368:0|496:88|440:224,1,300,0|8
408,280,62630,6,0,B|296:256|224:344,1,200,4|0
128,352,63603,1,8
40,304,63927,2,0,B|56:208|48:104,1,200
136,48,64900,1,8
224,96,65224,6,0,B|432:80,1,200
488,160,66197,1,8
440,248,66522,2,0,B|328:224|248:304,1,200
160,328,67495,1,8
64,328,67819,6,0,B|128:152|24:216|80:32,1,300,0|8
176,24,69116,2,0,B|304:32|320:192|208:248,1,300,0|8
216,344,70414,6,0,B|344:240|512:304,1,300,4|8
504,200,71711,1,4
432,128,72035,1,8
336,144,72359,2,8,B|216:136|240:160|128:152,1,200,8|4
64,96,83387,5,4
256,144,84035,1,0
448,96,84684,1,0
308,236,85332,1,0
204,236,85657,1,0
256,320,85981,5,0
156,148,86630,1,0
356,148,87278,1,0
208,280,87927,1,0
256,192,88251,1,0
312,280,88576,6,0,B|368:224|464:240,2,150
208,280,89873,2,0,B|152:224|56:240,2,150
256,368,91170,6,0,B|256:152,1,200,8|8
256,64,92143,1,8
336,120,92468,2,8,B|384:192|360:288,2,150
256,176,93765,5,4
160,176,94089,2,0,B|48:192,1,99.9999999999999,10|0
16,168,94576,2,0,B|24:280,1,99.9999999999999,2|0
8,312,95062,2,0,B|120:296,1,99.9999999999999,2|8
136,344,95549,2,0,B|184:256|280:296,1,150,2|10
312,304,96197,1,2
408,288,96522,6,0,B|416:224,1,50,2|8
320,216,97008,2,0,B|328:152,1,50,2|0
224,160,97495,2,0,B|232:96,1,50,2|4
128,112,97981,2,0,B|136:48,1,50,10|0
32,48,98468,2,2,B|16:160,1,99.9999999999999,2|2
48,240,99116,5,2
96,232,99278,2,2,B|208:224,1,99.9999999999999,10|0
240,200,99765,2,2,B|232:256|240:320,1,99.9999999999999,2|0
224,344,100251,2,2,B|288:328|352:336,1,99.9999999999999,2|10
376,336,100738,1,2
464,296,101062,2,0,B|472:240,2,50,2|8|2
384,240,101711,6,2,B|360:128|456:96,2,150,2|2|2
272,344,103170,1,10
144,264,103657,2,2,B|96:280|40:264,1,99.9999999999999
24,224,104143,5,4
24,120,104468,2,0,B|136:104,1,99.9999999999999,10|0
160,72,104954,2,2,B|168:184,1,99.9999999999999,2|0
216,168,105441,2,2,B|200:288,1,99.9999999999999,2|8
232,312,105927,2,2,B|328:336|376:240,1,150,2|10
368,216,106576,1,2
424,136,106901,6,0,B|417:86,1,50,2|8
336,144,107387,2,0,B|344:208,1,50,2|0
248,216,107874,2,0,B|256:280,1,50,2|0
152,272,108360,2,0,B|160:336,1,50,10|0
64,344,108847,2,2,B|48:232,1,99.9999999999999
48,144,109495,5,2
96,152,109657,2,2,B|208:160,1,99.9999999999999,10|0
240,184,110144,2,2,B|232:128|240:64,1,99.9999999999999,2|0
224,40,110630,2,2,B|288:56|352:48,1,99.9999999999999,2|8
376,48,111117,1,2
464,88,111441,2,0,B|472:144,2,50,2|8|2
384,144,112090,6,0,B|360:256|456:288,2,150,2|2|2
272,40,113549,1,10
144,120,114036,2,2,B|96:104|40:120,1,99.9999999999999
24,160,114522,5,4
128,344,115170,2,0,B|40:344|40:248,2,150
256,264,116630,6,0,B|256:160,2,99.9999999999999
384,344,117765,2,0,B|472:344|472:248,2,150
304,216,119224,5,0
208,216,119549,2,0,B|240:280,1,50,0|4
256,192,119873,12,0,123603
