osu file format v9

[General]
AudioFilename: 15 - THE LAST STRIKER.mp3
AudioLeadIn: 2000
PreviewTime: 93765
Countdown: 0
SampleSet: Soft
StackLeniency: 0.7
Mode: 0
LetterboxInBreaks: 1

[Editor]
Bookmarks: 73008
DistanceSpacing: 1
BeatDivisor: 4
GridSize: 8

[Metadata]
Title:THE LAST STRIKER
Artist:L.E.D.
Creator:Nakagawa-Kanon
Version:Another
Source:Beatmania IIDX
Tags:17 SIRIUS 15 TROOPERS CS dksslqj Natteke inaba-tan Ra-s LED

[Difficulty]
HPDrainRate:7
CircleSize:4
OverallDifficulty:7
ApproachRate:9
SliderMultiplier:1.9
SliderTickRate:1

[Events]
//Background and Video events
0,0,"wow.png"
//Break Periods
2,10938,17273
2,73208,82787
//Storyboard Layer 0 (Background)
//Storyboard Layer 1 (Fail)
//Storyboard Layer 2 (Pass)
//Storyboard Layer 3 (Foreground)
//Storyboard Sound Samples
//Background Colour Transformations
3,100,163,162,255

[TimingPoints]
360,324.324324324324,4,1,0,70,1,0
441,-100,4,2,0,70,0,0
10657,-100,4,1,0,40,0,0
30116,-100,4,1,1,70,0,0
52170,-100,4,1,1,50,0,0
71954,-100,4,1,1,70,0,0
83224,-100,4,1,1,40,0,0
83468,-100,4,2,0,70,0,0
91089,-100,4,1,1,70,0,0
93765,-100,4,1,1,70,0,1
114522,-100,4,1,1,40,0,0
114603,-100,4,2,0,70,0,0
121008,-100,4,2,0,60,0,0
121657,-100,4,2,0,50,0,0
122305,-100,4,2,0,40,0,0
122954,-100,4,2,0,30,0,0
123603,-100,4,2,0,5,0,0

[Colours]
Combo1 : 0,128,192
Combo2 : 128,128,255
Combo3 : 0,0,255
Combo4 : 128,255,255

[HitObjects]
256,192,360,1,4
160,192,522,2,0,B|112:136|144:48|216:48,1,190,2|0
304,48,1008,2,0,B|371:47|403:135|355:191,1,190,2|0
336,288,1495,2,0,B|304:344|208:344|176:288,1,190,2|0
256,240,1981,5,2
256,144,2143,1,0
256,240,2305,1,0
176,192,2468,2,0,B|160:144|160:144|176:104,1,95,2|0
335,102,2792,2,0,B|352:144|352:144|336:192,1,95,2|0
336,287,3116,6,0,B|304:344|208:344|176:288,1,190,2|0
155,191,3603,2,0,B|108:135|140:47|208:48,1,190,2|0
300,48,4089,2,0,B|368:48|400:136|352:192,1,190,2|0
256,176,4576,6,0,B|256:280,1,95,2|0
160,280,4900,2,0,B|168:328|168:328|208:352,1,95,0|2
352,280,5224,2,0,B|344:328|344:328|304:352,1,95,0|2
256,272,5549,5,0
344,184,5711,2,0,B|400:176|440:232,1,95,2|0
256,272,6035,1,0
168,184,6197,2,0,B|112:176|72:232,1,95,2|0
256,152,6522,5,0
328,88,6684,2,0,B|424:56,2,95,2|0|0
184,88,7170,2,0,B|88:56,2,95,2|0|0
256,152,7657,1,2
256,248,7819,1,0
256,344,7981,1,2
176,296,8143,6,0,B|136:200,2,95,0|2|0
336,296,8630,2,0,B|376:200,2,95,0|2|0
136,264,9116,2,0,B|72:184,2,95,0|2|0
376,264,9603,2,0,B|440:184,2,95,0|2|0
256,336,10089,2,0,B|256:224,1,95,0|2
256,48,10414,2,0,B|256:160,1,95,0|2
256,336,10738,5,4
256,192,17873,12,4,21116
256,304,21278,5,0
168,264,21441,2,0,B|88:272|32:352,2,142.5,8|0|0
224,184,22089,1,8
120,96,22251,6,0,B|104:48,2,47.5
104,192,22576,1,0
168,264,22738,2,0,B|200:312|272:296|288:256,1,142.5,8|0
312,216,23062,1,0
316,168,23143,1,0
304,124,23224,1,0
424,184,23387,2,0,B|400:288,1,95,8|0
408,312,23630,1,0
416,344,23711,6,0,B|320:360,1,95
232,320,24035,1,8
144,344,24197,1,0
96,344,24278,1,0
56,320,24359,1,0
40,280,24441,1,0
40,232,24522,2,0,B|56:136,1,95,0|8
128,264,24846,5,0
128,264,24927,1,0
128,264,25008,2,0,B|240:248,1,95
424,328,25332,2,8,B|376:360|320:352|280:304,1,142.5
272,272,25657,2,0,B|264:224|272:176,1,95
456,208,25981,2,0,B|464:256|456:304,1,95,8|0
248,184,26305,6,0,B|240:136|248:88,1,95
176,248,26630,2,0,B|136:168|40:208,1,142.5,8|0
16,224,26954,1,0
8,272,27035,1,0
32,312,27116,1,0
208,352,27278,2,0,B|88:352,1,95,8|0
272,272,27603,6,0,B|376:272,1,95
392,272,27846,1,0
424,272,27927,1,8
424,88,28089,1,0
428,116,28170,1,0
440,144,28251,1,0
464,160,28332,1,0
492,168,28414,2,0,B|512:216|512:216|496:280,1,95,0|8
504,80,28738,1,0
368,192,28900,6,0,B|312:208|312:208|216:176,1,142.5
184,192,29224,2,0,B|160:144|192:104,1,95,8|0
320,40,29549,2,0,B|344:88|312:128,1,95,0|0
256,296,29873,1,8
256,296,30035,1,0
196,368,30197,5,0
172,340,30278,1,0
164,304,30359,1,0
168,264,30441,1,0
188,232,30522,1,0
220,212,30603,1,0
256,204,30684,1,0
292,212,30765,1,0
324,232,30846,1,0
344,264,30927,1,0
348,304,31009,1,0
340,340,31090,1,0
316,368,31171,1,4
440,192,31495,6,0,B|464:152|464:152|464:96,1,95,4|0
248,112,31819,2,0,B|304:112|304:112|328:128|328:128|392:128,1,142.5,8|0
385,128,32143,2,0,B|385:9,1,95
280,192,32468,2,0,B|176:192,1,95,8|0
144,192,32711,1,0
104,192,32792,6,0,B|96:240|96:240|104:296,1,95
288,376,33116,2,0,B|296:328|296:328|288:272,1,95,8|0
256,264,33359,2,0,B|344:296|368:192,1,142.5
272,96,33765,2,0,B|264:144|280:192,1,95,8|0
176,320,34089,6,0,B|64:312,1,95
16,248,34414,2,0,B|0:176|0:176|32:104,1,142.5,8|0
27,113,34738,1,0
168,200,34900,2,0,B|72:184,1,95,0|8
248,216,35224,1,0
288,304,35387,6,0,B|392:296,1,95
472,128,35711,2,8,B|448:176|448:176|464:272,1,142.5
376,152,36116,1,0
376,152,36197,2,0,B|432:56,1,95,0|8
384,232,36522,1,0
296,128,36684,6,0,B|160:136,1,95,4|0
120,184,37008,2,0,B|144:208|144:208|136:288,1,95,8|0
112,304,37251,2,0,B|264:288,1,142.5
408,360,37657,2,0,B|352:384|304:344,1,95,8|0
384,232,37981,6,0,B|480:240,1,95
304,272,38305,2,0,B|280:216|320:168,1,95,8|0
310,181,38549,2,0,B|232:192|232:192|176:144,1,142.5
264,96,38954,2,0,B|376:80,1,95,8|0
224,272,39278,6,0,B|112:288,1,95,0|0
56,344,39603,2,0,B|24:304|24:304|32:200,1,142.5,8|0
112,80,40008,1,0
112,80,40089,2,0,B|96:216,1,95,0|8
48,32,40414,1,0
184,120,40576,6,0,B|288:112,1,95
360,152,40900,2,0,B|440:144|472:72,1,142.5,8|8
470,75,41224,2,0,B|512:192,1,95
456,344,41549,2,0,B|414:227,1,95,8|0
208,344,41873,6,0,B|312:344,1,95,4|0
112,344,42197,1,8
48,280,42359,1,0
28,248,42441,1,0
28,212,42522,1,0
44,180,42603,1,0
80,168,42684,1,0
204,236,42846,2,0,B|100:236,1,95,8|0
264,168,43170,5,0
264,168,43251,1,0
264,168,43332,2,0,B|308:184|308:184|356:168,1,95,0|8
400,280,43657,1,0
400,280,43738,2,0,B|400:224|400:224|424:200|424:200|424:144,1,142.5
360,352,44143,2,0,B|316:336|316:336|268:352,1,95,8|0
96,320,44468,6,0,B|208:320,1,95
32,264,44792,2,0,B|-32:200|40:128,1,142.5,8|0
30,137,45116,1,0
176,200,45278,2,0,B|72:200,2,95,0|8|0
272,200,45765,5,0
352,152,45927,1,0
352,248,46089,1,8
432,200,46251,2,0,B|488:200,1,47.5,0|8
272,304,46495,1,0
272,304,46576,2,0,B|136:304,1,95,0|8
96,352,46900,1,0
64,112,47062,6,0,B|-24:152|16:248,1,142.5,4|0
48,248,47387,2,0,B|143:236,1,95,8|0
160,208,47630,1,0
176,184,47711,1,0
288,208,47873,2,0,B|280:112,2,95,0|8|0
448,64,48359,6,0,B|504:72|512:136,1,95
464,208,48684,2,0,B|448:312,1,95,8|0
488,328,48927,2,0,B|416:344|416:344|344:296,1,142.5
208,368,49332,2,0,B|312:368,1,95,8|0
112,328,49657,6,0,B|88:280|112:232,1,95
192,280,49981,1,8
112,152,50143,2,0,B|112:96,1,47.5
256,160,50387,2,0,B|256:216,1,47.5
312,64,50630,2,0,B|368:56|400:104,1,95,8|0
416,120,50873,1,0
432,144,50954,6,0,B|424:256,1,95
464,328,51278,2,8,B|312:344,1,142.5
322,342,51603,1,0
156,308,51765,1,0
268,180,51927,1,8
252,272,52089,1,0
88,240,52251,5,4
30,165,52414,1,0
30,165,52495,1,0
82,87,52657,1,0
82,87,52738,1,0
173,113,52900,1,0
173,113,52981,1,0
176,207,53143,1,0
200,216,53224,1,8
224,224,53305,1,0
248,232,53387,1,0
272,240,53468,1,0
296,248,53549,5,0
385,279,53712,1,0
385,279,53793,1,0
443,206,53955,1,0
443,206,54036,1,0
390,127,54198,1,0
390,127,54279,1,0
300,154,54441,1,0
272,144,54522,1,8
248,136,54603,1,0
224,128,54684,1,0
200,120,54765,1,0
176,112,54846,6,0,B|144:208,1,95
184,344,55170,1,8
220,356,55251,1,0
256,352,55332,1,0
288,328,55414,1,0
300,292,55495,1,0
292,256,55576,1,0
276,224,55657,1,0
264,188,55738,1,0
268,152,55819,1,8
292,120,55900,1,0
328,108,55981,1,0
364,116,56062,1,0
388,148,56143,1,0
464,368,56305,5,0
444,336,56387,1,0
440,300,56468,1,8
456,264,56549,1,0
488,244,56630,1,0
504,212,56711,1,8
512,176,56792,1,0
504,140,56873,1,0
480,112,56954,1,0
408,172,57116,1,8
388,140,57197,1,0
384,104,57278,1,0
396,68,57359,1,0
424,40,57441,1,4
352,256,57603,5,0
332,288,57684,1,0
300,308,57765,1,8
264,316,57846,1,0
228,308,57927,1,0
196,288,58008,1,0
176,256,58089,1,0
148,232,58170,1,0
112,224,58251,1,0
76,232,58332,1,0
48,260,58414,1,8
36,296,58495,1,0
52,332,58576,1,0
268,220,58738,5,0
348,172,58900,1,0
384,176,58981,1,0
416,200,59062,1,8
440,232,59143,1,0
448,268,59224,1,0
436,304,59305,1,0
408,332,59387,1,0
372,348,59468,1,0
336,344,59549,1,0
304,324,59630,1,0
268,312,59711,1,8
232,320,59792,1,0
204,348,59873,1,0
52,332,60035,5,0
136,288,60197,1,0
148,252,60278,1,0
144,216,60359,1,8
80,148,60522,1,0
228,180,60684,1,0
252,212,60765,1,0
288,228,60846,1,0
324,220,60927,1,0
356,200,61008,1,8
368,164,61089,1,0
364,128,61170,1,0
340,96,61251,1,0
304,84,61332,1,0
80,72,61495,6,0,B|28:80,2,47.5,0|0|8
116,84,61738,1,0
144,108,61819,1,0
156,144,61900,1,8
148,180,61981,1,0
124,208,62062,1,0
88,220,62143,1,0
60,244,62224,1,0
48,280,62305,1,8
56,316,62387,1,0
80,344,62468,1,0
116,356,62549,1,0
152,344,62630,1,4
360,344,62792,5,0
396,356,62873,1,0
432,344,62954,1,8
456,316,63035,1,0
464,280,63117,1,0
452,244,63198,1,0
424,220,63279,1,0
388,208,63360,1,0
352,220,63441,1,0
276,280,63603,1,8
256,248,63684,1,0
252,212,63765,1,0
260,176,63846,1,0
284,148,63927,1,0
112,80,64089,5,0
96,112,64170,1,0
96,148,64251,1,8
112,184,64332,1,0
140,212,64414,1,0
160,244,64495,1,0
172,280,64576,1,0
168,316,64657,1,0
152,352,64738,1,0
120,372,64819,1,0
84,380,64900,1,8
48,368,64981,1,0
20,344,65062,1,0
8,308,65143,1,0
16,272,65224,1,0
232,132,65387,6,0,B|184:136,2,47.5,0|0|8
268,136,65630,1,0
300,152,65711,1,0
324,180,65792,1,0
332,216,65873,1,0
324,252,65954,1,0
304,284,66035,1,0
424,364,66197,1,8
412,328,66278,1,0
416,292,66359,1,0
432,256,66441,1,0
464,236,66522,1,0
232,224,66684,6,0,B|124:232,1,95,0|8
100,236,66927,1,0
64,236,67008,1,0
28,220,67089,1,8
12,184,67170,1,0
20,148,67251,1,0
40,116,67332,1,0
76,104,67414,1,0
112,116,67495,1,8
144,136,67576,1,0
180,132,67657,1,0
208,108,67738,1,0
220,72,67819,1,4
376,164,67981,6,0,B|372:136|380:108,2,47.5,0|0|8
384,200,68224,1,0
404,232,68305,1,0
436,252,68387,1,0
472,256,68468,1,0
336,280,68630,2,0,B|276:272|232:328,1,95,0|8
320,372,68954,1,0
164,352,69116,5,0
68,360,69278,1,0
40,332,69359,1,0
28,296,69441,1,8
32,260,69522,1,0
52,228,69603,1,0
88,212,69684,1,0
124,216,69765,1,0
160,212,69846,1,0
192,192,69927,1,0
208,160,70008,1,0
212,124,70089,1,8
196,88,70170,1,0
168,64,70251,1,0
132,56,70332,1,0
96,68,70414,1,4
208,280,70576,6,0,B|108:296,2,95,0|8|0
244,276,70981,1,0
280,276,71062,1,0
316,284,71143,1,0
348,300,71224,1,0
380,320,71305,1,0
408,348,71387,1,8
500,336,71549,1,0
432,232,71711,6,0,B|412:184|436:136,1,95,4|0
408,48,72035,2,8,B|256:56,1,142.5
220,60,72359,1,8
176,80,72441,1,8
148,120,72522,1,8
156,168,72603,1,8
188,204,72684,1,8
220,236,72765,1,8
224,284,72846,1,8
204,328,72927,1,8
160,348,73008,1,4
256,240,83387,5,4
160,240,83549,2,0,B|176:336|256:348|336:336|352:240,2,285,2|2|2
256,240,84684,5,0
256,144,84846,1,0
352,144,85008,2,0,B|336:48|256:36|176:48|160:144,1,285,2|2
256,144,85657,2,0,B|256:256,1,95,0|2
208,320,85981,6,0,B|160:344|112:320,2,95,0|2|0
304,320,86468,2,0,B|352:344|400:320,2,95,0|2|0
256,240,86954,1,0
176,192,87116,6,0,B|256:140|256:140|336:192,1,190,2|0
336,96,87603,2,0,B|256:44|256:44|176:96,1,190,2|0
176,192,88089,2,0,B|152:240|176:288,1,95,2|0
338,283,88414,2,0,B|360:240|336:192,1,95,2|0
256,336,88738,5,2
96,240,89062,1,0
96,144,89224,1,2
176,192,89387,1,0
256,136,89549,1,0
336,192,89711,1,2
416,144,89874,1,0
416,240,90036,1,0
336,288,90197,6,0,B|256:340|256:340|176:288,1,190,2|0
256,240,90684,1,2
176,112,90846,1,0
328,112,91008,1,2
460,64,91170,6,0,B|412:32,2,47.5
484,96,91414,1,0
492,132,91495,1,0
488,168,91576,1,0
464,196,91657,1,0
432,212,91738,1,0
396,212,91819,1,0
360,212,91900,1,0
324,220,91981,1,0
300,248,92062,1,0
288,284,92143,1,0
296,320,92224,1,0
320,348,92305,1,0
356,360,92387,1,0
392,364,92468,6,0,B|440:360,2,47.5
376,328,92711,1,0
392,296,92792,1,8
120,364,92954,2,0,B|72:360,2,47.5
136,328,93197,1,0
120,296,93278,1,8
256,352,93441,2,0,B|256:248,1,95,0|8
128,80,93765,5,0
32,136,93927,2,2,B|16:192|48:240,1,95,2|10
144,272,94251,1,0
144,272,94332,1,0
144,272,94414,1,2
216,184,94576,1,2
384,256,94738,2,2,B|336:264|264:256,1,95,8|2
496,272,95062,6,2,B|504:320|496:368,1,95,2|0
464,176,95387,2,2,B|456:128|464:80,1,95,10|2
488,64,95630,2,0,B|424:88|344:64,1,142.5
168,104,96035,2,0,B|264:96,1,95,10|2
96,192,96359,5,0
96,192,96441,1,0
96,192,96522,2,2,B|80:240|96:288,1,95,2|10
192,344,96846,1,0
296,296,97008,2,0,B|352:312,2,47.5,2|0|2
296,104,97332,5,8
216,184,97495,1,2
216,184,97576,1,0
216,184,97657,2,2,B|320:248|400:152,1,190,6|10
480,240,98143,1,2
456,264,98224,2,0,B|448:320|464:392,1,95,4|0
424,368,98468,2,0,B|376:352|296:368,1,95,2|10
256,280,98792,1,2
72,352,98954,6,2,B|56:304|64:248,1,95,0|2
136,168,99278,1,8
248,192,99441,1,0
328,112,99603,1,2
416,184,99765,2,0,B|432:240|416:296,1,95,2|8
264,376,100089,6,0,B|248:320|264:264,1,95,2|2
144,256,100414,1,0
224,176,100576,1,10
328,216,100738,2,2,B|440:192|400:272|512:248,1,190
472,80,101224,2,0,B|504:120|480:184,1,95,10|2
344,104,101549,5,0
240,152,101711,2,2,B|184:160|128:152,1,95,2|8
48,96,102035,1,0
48,96,102116,1,0
48,96,102197,2,2,B|40:208,1,95,2|0
120,272,102522,2,0,B|112:384,1,95,8|2
256,296,102846,6,0,B|304:312|336:360,1,95
408,272,103170,2,0,B|392:168,1,95,10|0
400,144,103414,1,8
424,112,103495,2,0,B|480:96|528:120,1,95,0|2
312,200,103819,2,0,B|256:216|208:192,1,95,8|2
56,144,104143,5,4
16,248,104305,2,2,B|32:352,1,95,2|10
144,352,104630,1,0
192,320,104711,1,0
248,344,104792,2,2,B|304:336|360:360,2,95,2|2|8
168,232,105278,6,2,B|152:184|168:128,1,95
272,176,105603,1,0
328,80,105765,1,10
416,152,105927,2,0,B|464:160,1,47.5,2|0
504,128,106089,2,0,B|512:184|504:248,1,95
392,352,106414,1,10
504,336,106576,1,2
296,296,106738,5,0
192,344,106900,1,2
192,344,106981,1,0
192,344,107062,2,0,B|144:336|80:344,1,95,10|0
8,224,107387,2,0,B|56:232|120:224,1,95,2|2
216,224,107711,1,8
320,176,107873,6,2,B|304:128|320:80,1,95,2|6
440,168,108197,1,0
440,168,108278,1,0
440,168,108359,2,2,B|456:216|440:264,1,95,10|2
400,296,108603,1,0
416,352,108684,2,0,B|464:344|520:360,1,95,4|2
312,312,109008,2,0,B|264:320|208:304,1,95,10|2
80,360,109332,6,0,B|72:240,1,95,4|2
96,152,109657,1,10
200,208,109819,1,0
200,208,109900,1,0
200,208,109981,2,2,B|272:200|328:224,1,95,2|2
352,368,110305,2,0,B|280:376|224:352,1,95,8|2
376,176,110630,6,2,B|456:184|472:288|416:336,1,190,2|10
288,144,111116,1,2
288,144,111197,1,0
288,144,111278,2,0,B|296:88|368:80,1,95,0|2
304,232,111603,2,2,B|256:248|208:208,1,95,10|2
120,336,111927,5,4
16,280,112089,2,2,B|0:232|8:184,1,95,2|10
72,40,112414,1,0
176,96,112576,2,2,B|192:144|184:192,1,95,2|2
120,336,112900,1,8
232,360,113062,1,2
336,304,113224,5,8
368,288,113305,1,8
384,256,113387,1,8
376,216,113468,1,8
352,184,113549,1,8
320,168,113630,1,8
304,136,113711,2,0,B|296:56|400:16|448:88,1,190,8|2
480,232,114197,2,0,B|504:192|496:136,1,95,8|2
512,312,114522,5,4
440,368,114684,2,0,B|328:360,1,95,2|0
256,320,115008,2,0,B|272:272|256:224,2,95,0|2|0
168,360,115495,1,0
80,320,115657,6,0,B|24:288|8:208|80:152,1,190,2|0
120,240,116143,2,0,B|320:232,1,190,2|0
352,152,116630,2,0,B|408:184|424:264|352:320,1,190,2|0
256,144,117116,5,0
312,64,117278,2,0,B|360:40|416:80,2,95,2|0|0
200,64,117765,2,0,B|152:40|96:80,2,95,2|0|0
160,152,118251,6,0,B|120:264|216:320,1,190,2|0
300,317,118738,2,0,B|392:264|352:152,1,190,2|0
256,144,119224,2,0,B|256:264,2,95,2|0|2
256,48,119711,1,4
256,192,119792,12,0,123603
