osu file format v11

[General]
AudioFilename: DIAVOLO.mp3
AudioLeadIn: 0
PreviewTime: -1
Countdown: 0
SampleSet: Normal
StackLeniency: 0.7
Mode: 3
LetterboxInBreaks: 1

[Editor]
DistanceSpacing: 0.3
BeatDivisor: 12
GridSize: 4

[Metadata]
Title:DIAVOLO
TitleUnicode:DIAVOLO
Artist:L.E.D vs wac
ArtistUnicode:度胸兄弟
Creator:IIDX_TR
Version:Another
Source:Beatmania IIDX 19th Lincle
Tags:l.e.d,wac,diavolo,lincle,iidx,beatmania
BeatmapID:203767
BeatmapSetID:70946

[Difficulty]
HPDrainRate:5
CircleSize:7
OverallDifficulty:5
ApproachRate:5
SliderMultiplier:1.4
SliderTickRate:4

[Events]
//Background and Video events
0,0,"DIAVOLO.png"
//Break Periods
2,13961,18655
//Storyboard Layer 0 (Background)
//Storyboard Layer 1 (Fail)
//Storyboard Layer 2 (Pass)
//Storyboard Layer 3 (Foreground)
//Storyboard Sound Samples
//Background Colour Transformations
3,100,163,162,255

[TimingPoints]
-20,375,4,1,0,50,1,0
55855,-100,4,1,0,50,0,1
67855,-100,4,1,0,50,0,0

[HitObjects]
329,356,1855,1,0,0:0:0
182,312,2230,1,0,0:0:0
329,288,2323,1,0,0:0:0
182,264,2417,1,0,0:0:0
36,240,2511,1,0,0:0:0
475,236,2605,1,0,0:0:0
36,188,2886,1,0,0:0:0
182,188,2980,1,0,0:0:0
402,152,3073,1,0,0:0:0
256,148,3167,1,0,0:0:0
109,148,3261,1,0,0:0:0
329,112,3355,1,0,0:0:0
182,360,3730,1,0,0:0:0
329,336,3823,1,0,0:0:0
182,316,3917,1,0,0:0:0
36,320,4011,1,0,0:0:0
475,280,4105,1,0,0:0:0
256,272,4480,1,0,0:0:0
329,356,4855,1,0,0:0:0
182,312,5230,1,0,0:0:0
329,288,5323,1,0,0:0:0
182,264,5417,1,0,0:0:0
36,240,5511,1,0,0:0:0
475,236,5605,1,0,0:0:0
36,188,5886,1,0,0:0:0
182,188,5980,1,0,0:0:0
402,152,6073,1,0,0:0:0
256,148,6167,1,0,0:0:0
109,148,6261,1,0,0:0:0
329,112,6355,1,0,0:0:0
182,360,6730,1,0,0:0:0
329,336,6823,1,0,0:0:0
182,316,6917,1,0,0:0:0
36,320,7011,1,0,0:0:0
475,280,7105,1,0,0:0:0
256,272,7480,1,0,0:0:0
36,360,7855,1,0,0:0:0
256,360,7855,1,0,0:0:0
182,360,7855,1,0,0:0:0
329,360,7855,1,0,0:0:0
475,360,7855,1,0,0:0:0
182,292,8230,1,0,0:0:0
256,288,8323,1,0,0:0:0
329,272,8417,1,0,0:0:0
402,256,8511,1,0,0:0:0
36,360,8605,1,0,0:0:0
109,360,8605,1,0,0:0:0
182,360,8605,1,0,0:0:0
256,360,8605,1,0,0:0:0
475,360,8605,1,0,0:0:0
109,272,8886,1,0,0:0:0
329,212,9073,1,0,0:0:0
402,192,9167,1,0,0:0:0
475,184,9261,1,0,0:0:0
256,360,9355,1,0,0:0:0
182,360,9355,1,0,0:0:0
329,360,9355,1,0,0:0:0
402,360,9355,1,0,0:0:0
36,360,9355,1,0,0:0:0
256,264,9730,1,0,0:0:0
182,252,9823,1,0,0:0:0
109,224,9917,1,0,0:0:0
182,204,10011,1,0,0:0:0
109,360,10105,1,0,0:0:0
256,360,10105,1,0,0:0:0
475,360,10105,1,0,0:0:0
329,360,10105,1,0,0:0:0
36,360,10105,1,0,0:0:0
36,220,10386,1,0,0:0:0
256,200,10573,1,0,0:0:0
329,184,10667,1,0,0:0:0
402,192,10761,1,0,0:0:0
109,312,10855,1,0,0:0:0
256,312,10855,1,0,0:0:0
329,312,10855,1,0,0:0:0
475,312,10855,1,0,0:0:0
182,312,10855,1,0,0:0:0
109,272,11136,1,0,0:0:0
36,272,11230,1,0,0:0:0
182,268,11230,1,0,0:0:0
256,268,11230,1,0,0:0:0
402,272,11230,1,0,0:0:0
475,268,11230,1,0,0:0:0
329,120,11323,1,0,0:0:0
256,104,11417,1,0,0:0:0
182,72,11511,1,0,0:0:0
109,232,11605,1,0,0:0:0
256,228,11605,1,0,0:0:0
329,232,11605,1,0,0:0:0
36,224,11605,1,0,0:0:0
402,232,11605,1,0,0:0:0
109,332,11886,1,0,0:0:0
182,360,11980,1,0,0:0:0
36,360,11980,1,0,0:0:0
256,364,11980,1,0,0:0:0
329,364,11980,1,0,0:0:0
402,360,11980,1,0,0:0:0
475,336,12073,1,0,0:0:0
402,304,12167,1,0,0:0:0
329,276,12261,1,0,0:0:0
109,360,12355,1,0,0:0:0
182,360,12355,1,0,0:0:0
475,360,12355,1,0,0:0:0
109,308,12542,1,0,0:0:0
182,308,12542,1,0,0:0:0
402,272,12636,1,0,0:0:0
109,252,12730,1,0,0:0:0
182,248,12730,1,0,0:0:0
329,232,12730,1,0,0:0:0
475,228,12823,1,0,0:0:0
109,192,12917,1,0,0:0:0
182,192,12917,1,0,0:0:0
402,196,12917,1,0,0:0:0
329,168,13011,1,0,0:0:0
109,136,13105,1,0,0:0:0
182,136,13105,1,0,0:0:0
475,136,13105,1,0,0:0:0
182,80,13292,1,0,0:0:0
109,80,13292,1,0,0:0:0
256,64,13339,1,0,0:0:0
329,48,13386,1,0,0:0:0
36,28,13433,1,0,0:0:0
475,28,13433,1,0,0:0:0
402,24,13433,1,0,0:0:0
109,360,13620,1,0,0:0:0
182,360,13620,1,0,0:0:0
256,340,13667,1,0,0:0:0
329,324,13714,1,0,0:0:0
402,304,13761,1,0,0:0:0
475,304,13761,1,0,0:0:0
36,308,13761,1,0,0:0:0
256,360,19855,5,0,0:0:0
36,352,19855,1,0,0:0:0
329,360,19855,1,0,0:0:0
109,312,20042,1,0,0:0:0
36,288,20230,1,0,0:0:0
182,328,20230,1,0,0:0:0
256,312,20323,1,0,0:0:0
109,260,20417,1,0,0:0:0
329,296,20417,1,0,0:0:0
402,280,20511,1,0,0:0:0
36,232,20605,1,0,0:0:0
475,264,20605,1,0,0:0:0
109,200,20792,1,0,0:0:0
475,216,20886,1,0,0:0:0
36,172,20980,1,0,0:0:0
475,168,21073,1,0,0:0:0
109,140,21167,1,0,0:0:0
402,164,21167,1,0,0:0:0
329,156,21261,1,0,0:0:0
36,352,21355,1,0,0:0:0
182,136,21355,1,0,0:0:0
109,312,21542,1,0,0:0:0
36,288,21730,1,0,0:0:0
182,100,21730,1,0,0:0:0
256,92,21823,1,0,0:0:0
109,260,21917,1,0,0:0:0
329,96,21917,1,0,0:0:0
402,100,22011,1,0,0:0:0
36,232,22105,1,0,0:0:0
475,64,22105,1,0,0:0:0
109,200,22292,1,0,0:0:0
256,28,22386,1,0,0:0:0
36,172,22480,1,0,0:0:0
475,364,22573,1,0,0:0:0
109,140,22667,1,0,0:0:0
402,352,22667,1,0,0:0:0
329,336,22761,1,0,0:0:0
36,352,22855,1,0,0:0:0
182,320,22855,1,0,0:0:0
109,312,23042,1,0,0:0:0
329,280,23136,1,0,0:0:0
36,288,23230,1,0,0:0:0
182,236,23323,1,0,0:0:0
109,260,23417,1,0,0:0:0
256,224,23417,1,0,0:0:0
329,212,23511,1,0,0:0:0
36,232,23605,1,0,0:0:0
475,184,23605,1,0,0:0:0
109,200,23792,1,0,0:0:0
475,328,23886,1,0,0:0:0
36,172,23980,1,0,0:0:0
475,268,24073,1,0,0:0:0
109,140,24167,1,0,0:0:0
402,268,24167,1,0,0:0:0
329,256,24261,1,0,0:0:0
36,352,24355,1,0,0:0:0
256,352,24355,1,0,0:0:0
109,312,24542,1,0,0:0:0
182,328,24542,1,0,0:0:0
36,288,24730,1,0,0:0:0
182,264,24730,1,0,0:0:0
256,256,24823,1,0,0:0:0
109,260,24917,1,0,0:0:0
329,212,24917,1,0,0:0:0
36,232,25105,1,0,0:0:0
109,200,25292,1,0,0:0:0
36,172,25480,1,0,0:0:0
109,140,25667,1,0,0:0:0
329,360,25855,1,0,0:0:0
256,360,25855,1,0,0:0:0
182,360,25948,1,0,0:0:0
329,312,26042,1,0,0:0:0
182,312,26136,1,0,0:0:0
329,264,26230,1,0,0:0:0
402,264,26230,1,0,0:0:0
182,264,26323,1,0,0:0:0
329,216,26417,1,0,0:0:0
182,216,26511,1,0,0:0:0
329,172,26605,1,0,0:0:0
256,172,26605,1,0,0:0:0
182,172,26698,1,0,0:0:0
329,128,26792,1,0,0:0:0
182,128,26886,1,0,0:0:0
329,84,26980,1,0,0:0:0
402,84,26980,1,0,0:0:0
182,84,27073,1,0,0:0:0
329,40,27167,1,0,0:0:0
182,40,27261,1,0,0:0:0
329,360,27355,1,0,0:0:0
256,360,27355,1,0,0:0:0
182,360,27448,1,0,0:0:0
329,312,27542,1,0,0:0:0
182,312,27636,1,0,0:0:0
329,264,27730,1,0,0:0:0
402,264,27730,1,0,0:0:0
182,264,27823,1,0,0:0:0
329,216,27917,1,0,0:0:0
182,216,28011,1,0,0:0:0
329,172,28105,1,0,0:0:0
256,176,28105,1,0,0:0:0
182,172,28198,1,0,0:0:0
329,128,28292,1,0,0:0:0
182,128,28386,1,0,0:0:0
329,84,28480,1,0,0:0:0
402,84,28480,1,0,0:0:0
182,84,28573,1,0,0:0:0
329,40,28667,1,0,0:0:0
182,40,28761,1,0,0:0:0
329,360,28855,1,0,0:0:0
256,360,28855,1,0,0:0:0
36,356,28855,1,0,0:0:0
475,360,28855,1,0,0:0:0
182,360,28948,1,0,0:0:0
329,312,29042,1,0,0:0:0
182,312,29136,1,0,0:0:0
329,264,29230,1,0,0:0:0
402,264,29230,1,0,0:0:0
182,264,29323,1,0,0:0:0
329,216,29417,1,0,0:0:0
182,216,29511,1,0,0:0:0
329,172,29605,1,0,0:0:0
36,356,29605,1,0,0:0:0
256,360,29605,1,0,0:0:0
475,360,29605,1,0,0:0:0
182,172,29698,1,0,0:0:0
329,128,29792,1,0,0:0:0
182,128,29886,1,0,0:0:0
329,84,29980,1,0,0:0:0
256,84,29980,1,0,0:0:0
182,84,30073,1,0,0:0:0
329,40,30167,1,0,0:0:0
182,40,30261,1,0,0:0:0
329,360,30355,1,0,0:0:0
36,356,30355,1,0,0:0:0
256,360,30355,1,0,0:0:0
475,360,30355,1,0,0:0:0
182,360,30448,1,0,0:0:0
329,312,30542,1,0,0:0:0
182,312,30636,1,0,0:0:0
329,264,30730,1,0,0:0:0
36,356,30730,1,0,0:0:0
256,360,30730,1,0,0:0:0
475,360,30730,1,0,0:0:0
182,264,30823,1,0,0:0:0
329,216,30917,1,0,0:0:0
182,216,31011,1,0,0:0:0
329,172,31105,1,0,0:0:0
36,356,31105,1,0,0:0:0
256,360,31105,1,0,0:0:0
475,360,31105,1,0,0:0:0
182,172,31198,1,0,0:0:0
329,128,31292,1,0,0:0:0
182,128,31386,1,0,0:0:0
329,84,31480,1,0,0:0:0
36,356,31480,1,0,0:0:0
256,360,31480,1,0,0:0:0
475,360,31480,1,0,0:0:0
182,84,31573,1,0,0:0:0
329,40,31667,1,0,0:0:0
182,40,31761,1,0,0:0:0
475,36,31761,2,0,P|475:284,1,245
36,360,32417,2,0,P|36:276,1,70
109,360,32605,2,0,P|109:280,1,70
182,360,32792,2,0,P|182:280,1,70
256,360,32980,2,0,P|256:204,1,140
475,36,33355,2,0,P|475:264,1,210
36,360,33917,2,0,P|36:276,1,70
329,360,34105,2,0,P|329:280,1,70
256,360,34292,2,0,P|256:284,1,70
182,360,34480,2,0,P|182:272,1,70
109,360,34667,2,0,P|109:280,1,70
475,144,34855,2,0,P|475:372,1,210
36,224,34855,1,0,0:0:0
109,208,34948,1,0,0:0:0
182,200,35042,1,0,0:0:0
256,184,35136,1,0,0:0:0
109,168,35230,1,0,0:0:0
182,144,35323,1,0,0:0:0
36,360,35417,2,0,P|36:276,1,70
256,132,35417,1,0,0:0:0
329,108,35511,1,0,0:0:0
109,360,35605,2,0,P|109:280,1,70
475,96,35605,1,0,0:0:0
402,76,35698,1,0,0:0:0
182,360,35792,2,0,P|182:280,1,70
329,60,35792,1,0,0:0:0
402,32,35886,1,0,0:0:0
256,360,35980,2,0,P|256:204,1,140
329,16,35980,1,0,0:0:0
182,16,36073,1,0,0:0:0
109,12,36167,1,0,0:0:0
36,16,36261,1,0,0:0:0
475,144,36355,2,0,P|475:372,1,210
109,60,36355,1,0,0:0:0
182,72,36448,1,0,0:0:0
256,96,36542,1,0,0:0:0
329,108,36636,1,0,0:0:0
402,120,36730,1,0,0:0:0
329,156,36823,1,0,0:0:0
36,360,36917,2,0,P|36:276,1,70
256,172,36917,1,0,0:0:0
182,200,37011,1,0,0:0:0
329,360,37105,2,0,P|329:280,1,70
109,232,37105,1,0,0:0:0
182,256,37198,1,0,0:0:0
256,360,37292,2,0,P|256:284,1,70
475,280,37292,1,0,0:0:0
402,256,37386,1,0,0:0:0
182,360,37480,2,0,P|182:272,1,70
329,224,37480,1,0,0:0:0
402,204,37573,1,0,0:0:0
109,360,37667,2,0,P|109:280,1,70
475,176,37667,1,0,0:0:0
402,148,37761,1,0,0:0:0
36,360,37855,2,0,P|36:136,1,210
475,364,37855,1,0,0:0:0
402,352,37948,1,0,0:0:0
329,332,38042,1,0,0:0:0
256,316,38136,1,0,0:0:0
182,280,38230,1,0,0:0:0
109,264,38323,1,0,0:0:0
256,28,38417,2,0,P|256:112,1,70
182,232,38417,1,0,0:0:0
109,208,38511,1,0,0:0:0
475,32,38605,2,0,P|475:120,1,70
36,172,38605,1,0,0:0:0
109,160,38698,1,0,0:0:0
402,28,38792,2,0,P|402:112,1,70
182,148,38792,1,0,0:0:0
256,136,38886,1,0,0:0:0
329,32,38980,2,0,P|329:104,1,70
36,120,38980,1,0,0:0:0
109,112,39073,1,0,0:0:0
256,28,39167,2,0,P|256:104,1,70
182,96,39167,1,0,0:0:0
109,72,39261,1,0,0:0:0
475,32,39355,2,0,P|475:256,1,210
36,364,39355,1,0,0:0:0
109,356,39448,1,0,0:0:0
182,344,39542,1,0,0:0:0
256,336,39636,1,0,0:0:0
329,328,39730,1,0,0:0:0
402,320,39823,1,0,0:0:0
256,28,39917,2,0,P|256:112,1,70
329,288,39917,1,0,0:0:0
402,268,40011,1,0,0:0:0
36,28,40105,2,0,P|36:112,1,70
475,352,40105,1,0,0:0:0
402,348,40198,1,0,0:0:0
109,32,40292,2,0,P|109:112,1,70
329,344,40292,1,0,0:0:0
256,336,40386,1,0,0:0:0
182,32,40480,2,0,P|182:120,1,70
475,304,40480,1,0,0:0:0
402,288,40573,1,0,0:0:0
256,16,40667,2,0,P|256:112,1,70
329,288,40667,1,0,0:0:0
402,236,40761,1,0,0:0:0
36,28,40855,2,0,P|36:264,1,210
109,356,40855,1,0,0:0:0
182,344,40948,1,0,0:0:0
256,336,41042,1,0,0:0:0
329,328,41136,1,0,0:0:0
109,288,41230,1,0,0:0:0
182,280,41323,1,0,0:0:0
256,20,41417,2,0,P|256:108,1,70
329,260,41417,1,0,0:0:0
402,252,41511,1,0,0:0:0
475,24,41605,2,0,P|475:248,1,210
329,212,41605,1,0,0:0:0
182,184,41698,1,0,0:0:0
109,168,41792,1,0,0:0:0
36,156,41886,1,0,0:0:0
402,312,41980,1,0,0:0:0
329,288,42073,1,0,0:0:0
256,24,42167,2,0,P|256:104,1,70
182,280,42167,1,0,0:0:0
36,264,42261,1,0,0:0:0
109,24,42355,2,0,P|109:112,1,70
256,348,42355,1,0,0:0:0
402,340,42448,1,0,0:0:0
329,20,42542,2,0,P|329:108,1,70
475,320,42542,1,0,0:0:0
402,284,42636,1,0,0:0:0
182,24,42730,2,0,P|182:96,1,70
109,288,42730,1,0,0:0:0
36,264,42823,1,0,0:0:0
256,24,42917,2,0,P|256:260,1,210
109,240,42917,1,0,0:0:0
329,240,43011,1,0,0:0:0
402,220,43105,1,0,0:0:0
475,204,43198,1,0,0:0:0
402,168,43292,1,0,0:0:0
329,144,43386,1,0,0:0:0
182,120,43480,1,0,0:0:0
182,368,43855,1,0,0:0:0
475,360,43855,1,0,0:0:0
36,364,43855,1,0,0:0:0
109,364,43855,1,0,0:0:0
256,348,43917,1,0,0:0:0
402,324,43980,1,0,0:0:0
109,316,44105,1,0,0:0:0
329,320,44105,1,0,0:0:0
475,320,44105,1,0,0:0:0
256,280,44230,1,0,0:0:0
475,280,44230,1,0,0:0:0
36,292,44230,1,0,0:0:0
109,288,44230,1,0,0:0:0
182,256,44355,1,0,0:0:0
109,212,44480,1,0,0:0:0
402,248,44480,1,0,0:0:0
109,240,44605,1,0,0:0:0
475,236,44605,1,0,0:0:0
36,240,44605,1,0,0:0:0
256,236,44605,1,0,0:0:0
329,200,44667,1,0,0:0:0
402,200,44730,1,0,0:0:0
256,184,44855,1,0,0:0:0
475,184,44855,1,0,0:0:0
402,156,44980,1,0,0:0:0
182,152,44980,1,0,0:0:0
36,172,44980,1,0,0:0:0
109,176,44980,1,0,0:0:0
109,84,45105,1,0,0:0:0
256,48,45230,1,0,0:0:0
475,56,45230,1,0,0:0:0
109,136,45355,1,0,0:0:0
475,144,45355,1,0,0:0:0
36,140,45355,1,0,0:0:0
329,120,45417,1,0,0:0:0
402,100,45480,1,0,0:0:0
182,76,45605,1,0,0:0:0
329,84,45605,1,0,0:0:0
256,32,45730,1,0,0:0:0
475,28,45730,1,0,0:0:0
36,88,45730,1,0,0:0:0
109,84,45730,1,0,0:0:0
109,32,45855,1,0,0:0:0
36,12,45980,1,0,0:0:0
329,12,45980,1,0,0:0:0
256,352,46105,1,0,0:0:0
402,356,46105,1,0,0:0:0
36,56,46105,1,0,0:0:0
109,64,46105,1,0,0:0:0
182,368,46855,1,0,0:0:0
36,364,46855,1,0,0:0:0
475,360,46855,1,0,0:0:0
109,364,46855,1,0,0:0:0
256,348,46917,1,0,0:0:0
402,324,46980,1,0,0:0:0
329,320,47105,1,0,0:0:0
109,316,47105,1,0,0:0:0
475,320,47105,1,0,0:0:0
256,280,47230,1,0,0:0:0
109,288,47230,1,0,0:0:0
475,280,47230,1,0,0:0:0
36,292,47230,1,0,0:0:0
182,256,47355,1,0,0:0:0
402,248,47480,1,0,0:0:0
109,212,47480,1,0,0:0:0
256,236,47605,1,0,0:0:0
36,240,47605,1,0,0:0:0
109,240,47605,1,0,0:0:0
475,236,47605,1,0,0:0:0
329,200,47667,1,0,0:0:0
402,200,47730,1,0,0:0:0
256,184,47855,1,0,0:0:0
475,184,47855,1,0,0:0:0
182,152,47980,1,0,0:0:0
109,176,47980,1,0,0:0:0
36,172,47980,1,0,0:0:0
402,156,47980,1,0,0:0:0
256,120,48105,1,0,0:0:0
256,48,48230,1,0,0:0:0
475,56,48230,1,0,0:0:0
109,136,48355,1,0,0:0:0
36,140,48355,1,0,0:0:0
475,144,48355,1,0,0:0:0
329,120,48417,1,0,0:0:0
402,100,48480,1,0,0:0:0
36,120,48480,1,0,0:0:0
109,116,48480,1,0,0:0:0
329,84,48605,1,0,0:0:0
182,76,48605,1,0,0:0:0
36,204,48605,1,0,0:0:0
109,212,48605,1,0,0:0:0
256,32,48730,1,0,0:0:0
109,84,48730,1,0,0:0:0
475,28,48730,1,0,0:0:0
36,88,48730,1,0,0:0:0
109,32,48855,1,0,0:0:0
36,32,48855,1,0,0:0:0
36,12,48980,1,0,0:0:0
329,12,48980,1,0,0:0:0
109,8,48980,1,0,0:0:0
109,64,49105,1,0,0:0:0
402,356,49105,1,0,0:0:0
36,56,49105,1,0,0:0:0
256,352,49105,1,0,0:0:0
475,348,49105,1,0,0:0:0
329,332,49230,1,0,0:0:0
36,356,49355,1,0,0:0:0
109,356,49355,1,0,0:0:0
182,312,49355,1,0,0:0:0
256,312,49355,1,0,0:0:0
475,312,49355,1,0,0:0:0
109,236,49480,1,0,0:0:0
36,308,49605,1,0,0:0:0
109,308,49605,1,0,0:0:0
475,272,49605,1,0,0:0:0
329,272,49605,1,0,0:0:0
256,272,49605,1,0,0:0:0
109,360,49855,1,0,0:0:0
182,360,49855,1,0,0:0:0
329,332,49917,1,0,0:0:0
402,316,49980,1,0,0:0:0
402,272,50105,1,0,0:0:0
182,180,50105,1,0,0:0:0
36,316,50167,1,0,0:0:0
109,316,50230,1,0,0:0:0
182,316,50230,1,0,0:0:0
329,212,50230,1,0,0:0:0
256,200,50230,1,0,0:0:0
402,176,50355,1,0,0:0:0
109,120,50480,1,0,0:0:0
475,132,50480,1,0,0:0:0
36,268,50542,1,0,0:0:0
109,272,50605,1,0,0:0:0
182,272,50605,1,0,0:0:0
256,92,50605,1,0,0:0:0
402,96,50605,1,0,0:0:0
329,68,50667,1,0,0:0:0
475,48,50730,1,0,0:0:0
182,360,50855,1,0,0:0:0
109,232,50980,1,0,0:0:0
182,228,50980,1,0,0:0:0
256,360,50980,1,0,0:0:0
402,360,50980,1,0,0:0:0
329,304,51105,1,0,0:0:0
402,272,51230,1,0,0:0:0
109,272,51230,1,0,0:0:0
36,192,51292,1,0,0:0:0
109,192,51355,1,0,0:0:0
182,192,51355,1,0,0:0:0
329,244,51355,1,0,0:0:0
475,240,51355,1,0,0:0:0
256,200,51417,1,0,0:0:0
182,164,51480,1,0,0:0:0
329,140,51605,1,0,0:0:0
402,144,51605,1,0,0:0:0
36,144,51667,1,0,0:0:0
109,152,51730,1,0,0:0:0
182,152,51730,1,0,0:0:0
256,108,51730,1,0,0:0:0
475,112,51730,1,0,0:0:0
182,44,51855,1,0,0:0:0
329,32,51980,1,0,0:0:0
475,32,51980,1,0,0:0:0
36,104,52042,1,0,0:0:0
109,108,52105,1,0,0:0:0
182,108,52105,1,0,0:0:0
256,52,52105,1,0,0:0:0
402,56,52105,1,0,0:0:0
329,104,52167,1,0,0:0:0
475,128,52230,1,0,0:0:0
182,164,52355,1,0,0:0:0
402,168,52355,1,0,0:0:0
36,56,52417,1,0,0:0:0
109,64,52480,1,0,0:0:0
182,64,52480,1,0,0:0:0
256,200,52480,1,0,0:0:0
475,204,52480,1,0,0:0:0
329,244,52605,1,0,0:0:0
402,272,52730,1,0,0:0:0
109,352,52855,1,0,0:0:0
36,352,52855,1,0,0:0:0
475,360,52855,1,0,0:0:0
402,336,52917,1,0,0:0:0
109,300,52980,1,0,0:0:0
36,304,52980,1,0,0:0:0
329,320,52980,1,0,0:0:0
109,252,53105,1,0,0:0:0
182,252,53105,1,0,0:0:0
256,264,53105,1,0,0:0:0
109,204,53230,1,0,0:0:0
36,208,53230,1,0,0:0:0
329,244,53230,1,0,0:0:0
109,152,53355,1,0,0:0:0
36,148,53355,1,0,0:0:0
402,224,53355,1,0,0:0:0
109,108,53480,1,0,0:0:0
182,108,53480,1,0,0:0:0
475,204,53480,1,0,0:0:0
109,64,53605,1,0,0:0:0
36,56,53605,1,0,0:0:0
402,148,53605,1,0,0:0:0
329,132,53667,1,0,0:0:0
109,16,53730,1,0,0:0:0
36,12,53730,1,0,0:0:0
256,112,53730,1,0,0:0:0
109,352,53855,1,0,0:0:0
182,352,53855,1,0,0:0:0
329,84,53855,1,0,0:0:0
109,300,53980,1,0,0:0:0
36,304,53980,1,0,0:0:0
402,64,53980,1,0,0:0:0
109,252,54105,1,0,0:0:0
36,256,54105,1,0,0:0:0
475,44,54105,1,0,0:0:0
109,204,54230,1,0,0:0:0
182,204,54230,1,0,0:0:0
329,360,54230,1,0,0:0:0
109,152,54355,1,0,0:0:0
182,152,54355,1,0,0:0:0
475,336,54355,1,0,0:0:0
256,300,54417,1,0,0:0:0
109,108,54480,1,0,0:0:0
36,108,54480,1,0,0:0:0
329,288,54480,1,0,0:0:0
109,64,54605,1,0,0:0:0
182,72,54605,1,0,0:0:0
402,244,54605,1,0,0:0:0
109,16,54730,1,0,0:0:0
36,16,54730,1,0,0:0:0
329,208,54730,1,0,0:0:0
475,204,54730,1,0,0:0:0
109,352,54855,1,0,0:0:0
36,348,54855,1,0,0:0:0
256,160,54855,1,0,0:0:0
402,164,54855,1,0,0:0:0
109,300,54980,1,0,0:0:0
182,296,54980,1,0,0:0:0
329,132,54980,1,0,0:0:0
475,136,54980,1,0,0:0:0
256,28,55105,1,0,0:0:0
182,28,55105,1,0,0:0:0
402,88,55105,1,0,0:0:0
475,364,55480,1,0,0:0:0
329,360,55542,1,0,0:0:0
182,360,55605,1,0,0:0:0
475,364,55667,1,0,0:0:0
329,360,55730,1,0,0:0:0
182,360,55792,1,0,0:0:0
36,348,55855,5,0,0:0:0
182,324,56042,1,0,0:0:0
256,304,56089,1,0,0:0:0
329,280,56136,1,0,0:0:0
109,256,56183,1,0,0:0:0
329,248,56230,1,0,0:0:0
256,176,56417,1,0,0:0:0
329,152,56464,1,0,0:0:0
402,132,56511,1,0,0:0:0
475,100,56558,1,0,0:0:0
256,104,56605,1,0,0:0:0
256,360,56792,1,0,0:0:0
329,348,56839,1,0,0:0:0
402,312,56886,1,0,0:0:0
256,268,56933,1,0,0:0:0
475,256,56980,1,0,0:0:0
256,224,57167,1,0,0:0:0
182,212,57214,1,0,0:0:0
109,196,57261,1,0,0:0:0
36,168,57308,1,0,0:0:0
256,80,57355,1,0,0:0:0
402,240,57542,1,0,0:0:0
329,216,57589,1,0,0:0:0
256,192,57636,1,0,0:0:0
475,168,57683,1,0,0:0:0
329,144,57730,1,0,0:0:0
329,324,57917,1,0,0:0:0
256,304,57964,1,0,0:0:0
182,280,58011,1,0,0:0:0
109,244,58058,1,0,0:0:0
402,184,58105,1,0,0:0:0
256,360,58292,1,0,0:0:0
36,352,58339,1,0,0:0:0
109,328,58386,1,0,0:0:0
182,312,58433,1,0,0:0:0
256,288,58480,1,0,0:0:0
402,356,58667,1,0,0:0:0
329,360,58667,1,0,0:0:0
182,252,58714,1,0,0:0:0
256,244,58761,1,0,0:0:0
329,232,58808,1,0,0:0:0
402,216,58855,1,0,0:0:0
36,212,58855,1,0,0:0:0
109,152,59042,1,0,0:0:0
36,116,59230,1,0,0:0:0
329,176,59230,1,0,0:0:0
402,156,59292,1,0,0:0:0
475,136,59355,1,0,0:0:0
109,92,59417,1,0,0:0:0
402,100,59417,1,0,0:0:0
329,88,59464,1,0,0:0:0
256,80,59511,1,0,0:0:0
182,68,59558,1,0,0:0:0
36,72,59605,1,0,0:0:0
329,48,59605,1,0,0:0:0
109,48,59792,1,0,0:0:0
36,28,59980,1,0,0:0:0
475,32,59980,1,0,0:0:0
329,332,60026,1,0,0:0:0
402,288,60073,1,0,0:0:0
329,264,60120,1,0,0:0:0
256,244,60167,1,0,0:0:0
182,220,60214,1,0,0:0:0
109,208,60261,1,0,0:0:0
36,188,60308,1,0,0:0:0
256,192,60308,1,0,0:0:0
402,208,60495,1,0,0:0:0
36,348,60683,1,0,0:0:0
109,324,60761,1,0,0:0:0
182,296,60823,1,0,0:0:0
256,276,60886,1,0,0:0:0
329,264,60940,1,0,0:0:0
402,244,60987,1,0,0:0:0
475,228,61034,1,0,0:0:0
36,264,61081,1,0,0:0:0
109,240,61128,1,0,0:0:0
182,220,61175,1,0,0:0:0
256,192,61222,1,0,0:0:0
329,172,61269,1,0,0:0:0
402,144,61362,1,0,0:0:0
475,116,61409,1,0,0:0:0
402,88,61456,1,0,0:0:0
329,68,61542,1,0,0:0:0
256,60,61605,1,0,0:0:0
182,52,61667,1,0,0:0:0
109,48,61698,1,0,0:0:0
36,44,61730,1,0,0:0:0
256,360,61792,1,0,0:0:0
329,336,61855,1,0,0:0:0
182,320,61917,1,0,0:0:0
109,272,61980,1,0,0:0:0
475,276,61980,1,0,0:0:0
36,228,62167,1,0,0:0:0
182,196,62230,1,0,0:0:0
36,160,62292,1,0,0:0:0
109,128,62355,1,0,0:0:0
475,144,62355,1,0,0:0:0
256,104,62417,1,0,0:0:0
109,48,62480,1,0,0:0:0
329,360,62542,1,0,0:0:0
402,324,62605,1,0,0:0:0
256,280,62667,1,0,0:0:0
182,264,62730,1,0,0:0:0
475,276,62730,1,0,0:0:0
329,232,62792,1,0,0:0:0
182,196,62855,1,0,0:0:0
109,168,62917,1,0,0:0:0
256,152,62980,1,0,0:0:0
109,96,63042,1,0,0:0:0
36,84,63105,1,0,0:0:0
475,96,63105,1,0,0:0:0
182,352,63292,1,0,0:0:0
256,336,63355,1,0,0:0:0
109,288,63417,1,0,0:0:0
36,256,63480,1,0,0:0:0
475,236,63480,1,0,0:0:0
36,224,63667,1,0,0:0:0
182,228,63730,1,0,0:0:0
36,184,63792,1,0,0:0:0
109,176,63855,1,0,0:0:0
475,184,63855,1,0,0:0:0
256,160,63917,1,0,0:0:0
109,128,63980,1,0,0:0:0
182,120,64042,1,0,0:0:0
329,108,64105,1,0,0:0:0
182,64,64167,1,0,0:0:0
256,64,64230,1,0,0:0:0
475,68,64230,1,0,0:0:0
402,36,64292,1,0,0:0:0
256,16,64355,1,0,0:0:0
36,360,64417,1,0,0:0:0
182,328,64480,1,0,0:0:0
36,308,64542,1,0,0:0:0
109,288,64605,1,0,0:0:0
475,292,64605,1,0,0:0:0
256,272,64667,1,0,0:0:0
109,240,64730,1,0,0:0:0
36,224,64792,1,0,0:0:0
329,232,64792,1,0,0:0:0
402,200,64855,1,0,0:0:0
256,180,64917,1,0,0:0:0
182,164,64980,1,0,0:0:0
36,112,65167,1,0,0:0:0
256,120,65355,1,0,0:0:0
402,92,65417,1,0,0:0:0
256,64,65480,1,0,0:0:0
36,160,65542,1,0,0:0:0
329,168,65542,1,0,0:0:0
475,164,65605,1,0,0:0:0
329,128,65667,1,0,0:0:0
256,208,65730,1,0,0:0:0
402,240,65792,1,0,0:0:0
256,296,65855,1,0,0:0:0
36,324,65917,1,0,0:0:0
182,328,65917,1,0,0:0:0
329,276,65980,1,0,0:0:0
182,256,66042,1,0,0:0:0
109,240,66105,1,0,0:0:0
36,32,66292,1,0,0:0:0
182,32,66292,1,0,0:0:0
329,64,66355,1,0,0:0:0
256,120,66417,1,0,0:0:0
109,112,66480,1,0,0:0:0
36,112,66667,1,0,0:0:0
475,112,66667,1,0,0:0:0
36,360,66855,1,0,0:0:0
182,328,66917,1,0,0:0:0
36,292,66980,1,0,0:0:0
109,284,67042,1,0,0:0:0
256,268,67105,1,0,0:0:0
109,240,67167,1,0,0:0:0
182,216,67230,1,0,0:0:0
329,212,67292,1,0,0:0:0
182,164,67355,1,0,0:0:0
256,152,67417,1,0,0:0:0
402,140,67480,1,0,0:0:0
256,120,67542,1,0,0:0:0
475,88,67605,1,0,0:0:0
329,64,67667,1,0,0:0:0
182,32,67730,1,0,0:0:0
36,16,67855,1,0,0:0:0
329,4,67855,1,0,0:0:0
402,12,67855,1,0,0:0:0
475,8,67855,1,0,0:0:0
36,344,68230,5,0,0:0:0
182,344,68230,1,0,0:0:0
109,312,68323,1,0,0:0:0
256,316,68323,1,0,0:0:0
182,288,68417,1,0,0:0:0
329,292,68417,1,0,0:0:0
256,260,68511,1,0,0:0:0
402,268,68511,1,0,0:0:0
182,236,68605,1,0,0:0:0
329,236,68605,1,0,0:0:0
109,204,68698,1,0,0:0:0
256,208,68698,1,0,0:0:0
36,176,68792,1,0,0:0:0
182,176,68792,1,0,0:0:0
256,152,68886,1,0,0:0:0
109,152,68886,1,0,0:0:0
182,124,68980,1,0,0:0:0
329,128,68980,1,0,0:0:0
256,96,69073,1,0,0:0:0
402,104,69073,1,0,0:0:0
475,80,69167,1,0,0:0:0
329,76,69167,1,0,0:0:0
256,48,69261,1,0,0:0:0
402,48,69261,1,0,0:0:0
182,28,69355,1,0,0:0:0
329,24,69355,1,0,0:0:0
475,28,69355,1,0,0:0:0
109,24,69355,1,0,0:0:0
182,364,69730,1,0,0:0:0
329,368,69730,1,0,0:0:0
256,340,69823,1,0,0:0:0
402,344,69823,1,0,0:0:0
329,312,69917,1,0,0:0:0
475,312,69917,1,0,0:0:0
402,288,70011,1,0,0:0:0
256,284,70011,1,0,0:0:0
329,256,70105,1,0,0:0:0
475,252,70105,1,0,0:0:0
402,236,70198,1,0,0:0:0
256,232,70198,1,0,0:0:0
329,208,70292,1,0,0:0:0
182,208,70292,1,0,0:0:0
256,184,70386,1,0,0:0:0
109,180,70386,1,0,0:0:0
182,156,70480,1,0,0:0:0
329,156,70480,1,0,0:0:0
256,140,70573,1,0,0:0:0
109,136,70573,1,0,0:0:0
36,104,70667,1,0,0:0:0
182,104,70667,1,0,0:0:0
256,72,70761,1,0,0:0:0
109,72,70761,1,0,0:0:0
36,32,70855,1,0,0:0:0
182,28,70855,1,0,0:0:0
329,24,70855,1,0,0:0:0
402,28,70855,1,0,0:0:0
329,368,71230,1,0,0:0:0
475,360,71230,1,0,0:0:0
402,344,71323,1,0,0:0:0
256,340,71323,1,0,0:0:0
329,312,71417,1,0,0:0:0
182,308,71417,1,0,0:0:0
256,284,71511,1,0,0:0:0
109,280,71511,1,0,0:0:0
475,264,71605,1,0,0:0:0
329,256,71605,1,0,0:0:0
402,220,71698,1,0,0:0:0
256,212,71698,1,0,0:0:0
329,176,71792,1,0,0:0:0
182,176,71792,1,0,0:0:0
256,140,71886,1,0,0:0:0
109,136,71886,1,0,0:0:0
329,116,71980,1,0,0:0:0
182,104,71980,1,0,0:0:0
256,72,72073,1,0,0:0:0
109,72,72073,1,0,0:0:0
36,32,72167,1,0,0:0:0
182,28,72167,1,0,0:0:0
109,24,72261,1,0,0:0:0
256,24,72261,1,0,0:0:0
36,352,72355,1,0,0:0:0
182,352,72355,1,0,0:0:0
109,312,72448,1,0,0:0:0
256,312,72448,1,0,0:0:0
182,272,72542,1,0,0:0:0
329,256,72542,1,0,0:0:0
109,232,72636,1,0,0:0:0
256,232,72636,1,0,0:0:0
182,192,72730,1,0,0:0:0
329,188,72730,1,0,0:0:0
256,168,72823,1,0,0:0:0
402,164,72823,1,0,0:0:0
329,116,72917,1,0,0:0:0
475,128,72917,1,0,0:0:0
256,72,73011,1,0,0:0:0
402,72,73011,1,0,0:0:0
36,88,73105,2,0,P|36:240,1,140
329,360,73105,1,0,0:0:0
475,336,73151,1,0,0:0:0
329,316,73198,1,0,0:0:0
475,292,73245,1,0,0:0:0
329,276,73292,1,0,0:0:0
475,256,73339,1,0,0:0:0
329,232,73386,1,0,0:0:0
475,224,73433,1,0,0:0:0
109,232,73480,2,0,P|109:80,1,140
329,188,73480,1,0,0:0:0
475,172,73526,1,0,0:0:0
329,148,73573,1,0,0:0:0
256,144,73620,1,0,0:0:0
182,128,73667,1,0,0:0:0
402,28,73667,1,0,0:0:0
256,24,73730,1,0,0:0:0
182,24,73792,1,0,0:0:0
402,356,73855,1,0,0:0:0
475,368,73855,1,0,0:0:0
256,356,73855,1,0,0:0:0
475,340,74230,5,0,0:0:0
329,340,74230,1,0,0:0:0
402,308,74323,1,0,0:0:0
256,312,74323,1,0,0:0:0
182,288,74417,1,0,0:0:0
329,284,74417,1,0,0:0:0
256,256,74511,1,0,0:0:0
109,264,74511,1,0,0:0:0
182,232,74605,1,0,0:0:0
329,232,74605,1,0,0:0:0
256,204,74698,1,0,0:0:0
402,200,74698,1,0,0:0:0
475,172,74792,1,0,0:0:0
329,172,74792,1,0,0:0:0
402,148,74886,1,0,0:0:0
256,148,74886,1,0,0:0:0
182,124,74980,1,0,0:0:0
329,120,74980,1,0,0:0:0
109,100,75073,1,0,0:0:0
256,92,75073,1,0,0:0:0
36,76,75167,1,0,0:0:0
182,72,75167,1,0,0:0:0
109,44,75261,1,0,0:0:0
256,44,75261,1,0,0:0:0
182,20,75355,1,0,0:0:0
36,24,75355,1,0,0:0:0
329,24,75355,1,0,0:0:0
402,20,75355,1,0,0:0:0
182,364,75730,1,0,0:0:0
329,360,75730,1,0,0:0:0
109,340,75823,1,0,0:0:0
256,336,75823,1,0,0:0:0
36,308,75917,1,0,0:0:0
182,308,75917,1,0,0:0:0
256,280,76011,1,0,0:0:0
109,284,76011,1,0,0:0:0
36,248,76105,1,0,0:0:0
182,252,76105,1,0,0:0:0
256,228,76198,1,0,0:0:0
109,232,76198,1,0,0:0:0
329,204,76292,1,0,0:0:0
182,204,76292,1,0,0:0:0
402,176,76386,1,0,0:0:0
256,180,76386,1,0,0:0:0
182,152,76480,1,0,0:0:0
329,152,76480,1,0,0:0:0
256,136,76573,1,0,0:0:0
402,132,76573,1,0,0:0:0
475,100,76667,1,0,0:0:0
329,100,76667,1,0,0:0:0
402,68,76761,1,0,0:0:0
256,68,76761,1,0,0:0:0
109,24,76855,1,0,0:0:0
329,24,76855,1,0,0:0:0
475,28,76855,1,0,0:0:0
182,20,76855,1,0,0:0:0
182,364,77230,1,0,0:0:0
36,360,77230,1,0,0:0:0
256,336,77323,1,0,0:0:0
109,340,77323,1,0,0:0:0
182,308,77417,1,0,0:0:0
329,304,77417,1,0,0:0:0
256,280,77511,1,0,0:0:0
402,276,77511,1,0,0:0:0
182,252,77605,1,0,0:0:0
329,248,77605,1,0,0:0:0
109,216,77698,1,0,0:0:0
256,208,77698,1,0,0:0:0
182,172,77792,1,0,0:0:0
329,172,77792,1,0,0:0:0
256,136,77886,1,0,0:0:0
402,132,77886,1,0,0:0:0
182,112,77980,1,0,0:0:0
329,100,77980,1,0,0:0:0
256,68,78073,1,0,0:0:0
402,68,78073,1,0,0:0:0
475,28,78167,1,0,0:0:0
329,24,78167,1,0,0:0:0
402,20,78261,1,0,0:0:0
256,20,78261,1,0,0:0:0
475,348,78355,1,0,0:0:0
329,348,78355,1,0,0:0:0
402,308,78448,1,0,0:0:0
256,308,78448,1,0,0:0:0
329,268,78542,1,0,0:0:0
182,252,78542,1,0,0:0:0
402,228,78636,1,0,0:0:0
256,228,78636,1,0,0:0:0
329,188,78730,1,0,0:0:0
182,184,78730,1,0,0:0:0
256,164,78823,1,0,0:0:0
109,160,78823,1,0,0:0:0
182,112,78917,1,0,0:0:0
36,124,78917,1,0,0:0:0
256,68,79011,1,0,0:0:0
109,68,79011,1,0,0:0:0
182,36,79105,1,0,0:0:0
36,32,79105,1,0,0:0:0
402,44,79105,1,0,0:0:0
329,52,79105,1,0,0:0:0
475,56,79105,2,0,P|475:200,1,140
182,356,79292,1,0,0:0:0
36,364,79292,1,0,0:0:0
109,316,79386,1,0,0:0:0
36,284,79480,1,0,0:0:0
402,196,79480,2,0,P|402:336,1,140
109,256,79573,1,0,0:0:0
36,232,79667,1,0,0:0:0
109,204,79761,1,0,0:0:0
36,184,79855,1,0,0:0:0
475,348,79855,2,0,P|475:208,1,140
182,184,79948,1,0,0:0:0
256,188,79948,1,0,0:0:0
109,160,80042,1,0,0:0:0
256,164,80136,1,0,0:0:0
329,160,80136,1,0,0:0:0
182,132,80230,1,0,0:0:0
36,364,80230,2,0,P|36:224,1,140
329,136,80323,1,0,0:0:0
402,144,80323,1,0,0:0:0
256,100,80417,1,0,0:0:0
402,120,80511,1,0,0:0:0
475,120,80511,1,0,0:0:0
329,68,80605,1,0,0:0:0
182,268,80605,2,0,P|182:128,1,140
402,232,80698,1,0,0:0:0
475,248,80698,1,0,0:0:0
256,176,80792,1,0,0:0:0
329,268,80886,1,0,0:0:0
402,276,80886,1,0,0:0:0
475,284,80980,1,0,0:0:0
36,364,80980,2,0,P|36:224,1,140
256,320,81073,1,0,0:0:0
329,328,81073,1,0,0:0:0
402,316,81167,1,0,0:0:0
182,344,81261,1,0,0:0:0
256,360,81261,1,0,0:0:0
329,360,81355,1,0,0:0:0
402,368,81355,2,0,P|402:88,1,280
109,308,81448,1,0,0:0:0
182,312,81448,1,0,0:0:0
256,276,81542,1,0,0:0:0
36,260,81636,1,0,0:0:0
109,264,81636,1,0,0:0:0
182,232,81730,1,0,0:0:0
109,184,81823,1,0,0:0:0
256,196,81823,1,0,0:0:0
36,136,81917,1,0,0:0:0
182,148,82011,1,0,0:0:0
329,152,82011,1,0,0:0:0
109,100,82105,1,0,0:0:0
36,44,82261,1,0,0:0:0
109,48,82261,1,0,0:0:0
256,48,82261,1,0,0:0:0
475,48,82261,1,0,0:0:0
36,96,82448,1,0,0:0:0
182,96,82448,1,0,0:0:0
256,100,82448,1,0,0:0:0
402,96,82448,1,0,0:0:0
256,160,82636,1,0,0:0:0
182,172,82636,1,0,0:0:0
109,164,82636,1,0,0:0:0
475,180,82636,1,0,0:0:0
256,216,82823,1,0,0:0:0
402,224,82823,1,0,0:0:0
329,220,82823,1,0,0:0:0
36,216,82823,1,0,0:0:0
256,276,83011,1,0,0:0:0
329,284,83011,1,0,0:0:0
475,288,83011,1,0,0:0:0
109,264,83011,1,0,0:0:0
256,320,83198,1,0,0:0:0
182,320,83198,1,0,0:0:0
36,312,83198,1,0,0:0:0
402,328,83198,1,0,0:0:0
256,360,83386,1,0,0:0:0
109,360,83386,1,0,0:0:0
475,360,83386,1,0,0:0:0
402,364,83386,1,0,0:0:0
256,20,83573,1,0,0:0:0
475,24,83573,1,0,0:0:0
109,24,83573,1,0,0:0:0
36,24,83573,1,0,0:0:0
256,68,83761,1,0,0:0:0
182,68,83761,1,0,0:0:0
36,72,83761,1,0,0:0:0
402,64,83761,1,0,0:0:0
256,120,83948,1,0,0:0:0
182,120,83948,1,0,0:0:0
329,116,83948,1,0,0:0:0
402,120,83948,1,0,0:0:0
256,160,84136,1,0,0:0:0
109,164,84136,1,0,0:0:0
182,172,84136,1,0,0:0:0
402,172,84136,1,0,0:0:0
256,216,84323,1,0,0:0:0
329,220,84323,1,0,0:0:0
475,216,84323,1,0,0:0:0
402,224,84323,1,0,0:0:0
256,256,84511,1,0,0:0:0
36,260,84511,1,0,0:0:0
182,260,84511,1,0,0:0:0
475,272,84511,1,0,0:0:0
256,296,84698,1,0,0:0:0
109,312,84698,1,0,0:0:0
36,312,84698,1,0,0:0:0
329,296,84698,1,0,0:0:0
256,336,84886,1,0,0:0:0
182,340,84886,1,0,0:0:0
402,336,84886,1,0,0:0:0
475,336,84886,1,0,0:0:0
36,360,85073,1,0,0:0:0
109,344,85105,1,0,0:0:0
182,316,85136,1,0,0:0:0
256,296,85167,1,0,0:0:0
329,272,85198,1,0,0:0:0
402,256,85230,1,0,0:0:0
475,228,85261,1,0,0:0:0
402,224,85292,1,0,0:0:0
329,200,85323,1,0,0:0:0
256,192,85355,1,0,0:0:0
182,192,85386,1,0,0:0:0
109,180,85417,1,0,0:0:0
36,168,85448,1,0,0:0:0
475,160,85480,1,0,0:0:0
402,144,85511,1,0,0:0:0
329,116,85542,1,0,0:0:0
256,116,85573,1,0,0:0:0
182,116,85604,1,0,0:0:0
109,104,85635,1,0,0:0:0
36,92,85666,1,0,0:0:0
475,96,85698,1,0,0:0:0
402,88,85730,1,0,0:0:0
329,76,85761,1,0,0:0:0
256,64,85792,1,0,0:0:0
182,56,85823,1,0,0:0:0
36,56,85823,1,0,0:0:0
329,372,85925,1,0,0:0:0
109,372,86019,1,0,0:0:0
256,372,86019,1,0,0:0:0
475,352,86112,1,0,0:0:0
36,312,86206,1,0,0:0:0
182,316,86206,1,0,0:0:0
402,284,86300,1,0,0:0:0
109,288,86394,1,0,0:0:0
256,296,86394,1,0,0:0:0
329,248,86487,1,0,0:0:0
36,360,86581,1,0,0:0:0
109,344,86613,1,0,0:0:0
182,316,86644,1,0,0:0:0
256,296,86675,1,0,0:0:0
329,272,86706,1,0,0:0:0
402,256,86738,1,0,0:0:0
475,228,86769,1,0,0:0:0
402,224,86800,1,0,0:0:0
329,200,86831,1,0,0:0:0
256,192,86863,1,0,0:0:0
182,192,86894,1,0,0:0:0
109,180,86925,1,0,0:0:0
36,168,86956,1,0,0:0:0
475,160,86988,1,0,0:0:0
402,144,87019,1,0,0:0:0
329,116,87050,1,0,0:0:0
256,112,87081,1,0,0:0:0
182,104,87113,1,0,0:0:0
109,104,87144,1,0,0:0:0
36,100,87175,1,0,0:0:0
475,96,87206,1,0,0:0:0
402,88,87238,1,0,0:0:0
329,76,87269,1,0,0:0:0
256,64,87300,1,0,0:0:0
182,56,87331,1,0,0:0:0
109,56,87378,1,0,0:0:0
36,40,87425,1,0,0:0:0
109,24,87472,1,0,0:0:0
182,16,87519,1,0,0:0:0
256,16,87565,1,0,0:0:0
329,16,87612,1,0,0:0:0
402,20,87659,1,0,0:0:0
475,24,87706,1,0,0:0:0
36,360,87753,1,0,0:0:0
109,344,87800,1,0,0:0:0
182,348,87847,1,0,0:0:0
256,344,87894,1,0,0:0:0
329,320,87940,1,0,0:0:0
402,320,87987,1,0,0:0:0
475,324,88034,1,0,0:0:0
36,356,88081,1,0,0:0:0
109,340,88113,1,0,0:0:0
182,312,88144,1,0,0:0:0
256,292,88175,1,0,0:0:0
329,268,88206,1,0,0:0:0
402,252,88238,1,0,0:0:0
475,224,88269,1,0,0:0:0
402,220,88300,1,0,0:0:0
329,196,88331,1,0,0:0:0
256,188,88363,1,0,0:0:0
182,188,88394,1,0,0:0:0
109,176,88425,1,0,0:0:0
36,164,88456,1,0,0:0:0
475,156,88488,1,0,0:0:0
402,140,88519,1,0,0:0:0
329,112,88550,1,0,0:0:0
256,112,88581,1,0,0:0:0
182,112,88612,1,0,0:0:0
109,100,88643,1,0,0:0:0
36,88,88674,1,0,0:0:0
475,92,88706,1,0,0:0:0
402,84,88738,1,0,0:0:0
329,72,88769,1,0,0:0:0
256,60,88800,1,0,0:0:0
36,52,88831,1,0,0:0:0
182,52,88831,1,0,0:0:0
329,368,88933,1,0,0:0:0
109,368,89027,1,0,0:0:0
256,368,89027,1,0,0:0:0
475,348,89120,1,0,0:0:0
182,312,89214,1,0,0:0:0
36,308,89214,1,0,0:0:0
402,280,89308,1,0,0:0:0
256,292,89402,1,0,0:0:0
109,284,89402,1,0,0:0:0
329,244,89495,1,0,0:0:0
36,356,89589,1,0,0:0:0
109,340,89621,1,0,0:0:0
182,312,89652,1,0,0:0:0
256,292,89683,1,0,0:0:0
329,268,89714,1,0,0:0:0
402,252,89746,1,0,0:0:0
475,224,89777,1,0,0:0:0
402,220,89808,1,0,0:0:0
329,196,89839,1,0,0:0:0
256,188,89871,1,0,0:0:0
182,188,89902,1,0,0:0:0
109,176,89933,1,0,0:0:0
36,164,89964,1,0,0:0:0
475,156,89996,1,0,0:0:0
402,140,90027,1,0,0:0:0
329,112,90058,1,0,0:0:0
36,336,90089,1,0,0:0:0
109,320,90121,1,0,0:0:0
182,328,90152,1,0,0:0:0
256,316,90183,1,0,0:0:0
329,296,90214,1,0,0:0:0
402,296,90246,1,0,0:0:0
109,272,90277,1,0,0:0:0
182,252,90308,1,0,0:0:0
256,236,90339,1,0,0:0:0
329,220,90386,1,0,0:0:0
402,200,90433,1,0,0:0:0
475,188,90480,1,0,0:0:0
36,220,90527,1,0,0:0:0
109,208,90573,1,0,0:0:0
182,188,90620,1,0,0:0:0
256,160,90667,1,0,0:0:0
329,152,90714,1,0,0:0:0
402,128,90761,1,0,0:0:0
109,136,90808,1,0,0:0:0
182,120,90855,1,0,0:0:0
256,100,90902,1,0,0:0:0
329,80,90948,1,0,0:0:0
402,64,90995,1,0,0:0:0
475,60,91042,1,0,0:0:0
109,288,91105,1,0,0:0:0
256,288,91105,1,0,0:0:0
182,288,91105,1,0,0:0:0
36,284,91105,1,0,0:0:0
182,224,91292,1,0,0:0:0
329,220,91292,1,0,0:0:0
475,224,91292,1,0,0:0:0
109,228,91292,1,0,0:0:0
256,188,91480,1,0,0:0:0
402,180,91480,1,0,0:0:0
475,188,91480,1,0,0:0:0
182,188,91480,1,0,0:0:0
329,136,91667,1,0,0:0:0
256,136,91667,1,0,0:0:0
475,140,91667,1,0,0:0:0
36,144,91667,1,0,0:0:0
36,344,91855,1,0,0:0:0
109,344,91855,1,0,0:0:0
256,344,91855,1,0,0:0:0
475,352,91855,1,0,0:0:0
329,336,92042,1,0,0:0:0
182,336,92042,1,0,0:0:0
109,324,92042,1,0,0:0:0
402,308,92230,1,0,0:0:0
256,312,92230,1,0,0:0:0
36,304,92230,1,0,0:0:0
475,280,92417,1,0,0:0:0
329,272,92417,1,0,0:0:0
256,268,92417,1,0,0:0:0
36,288,92605,1,0,0:0:0
182,288,92605,1,0,0:0:0
256,288,92605,1,0,0:0:0
402,280,92605,1,0,0:0:0
182,360,92792,1,0,0:0:0
256,364,92792,1,0,0:0:0
475,316,92792,1,0,0:0:0
109,324,92980,1,0,0:0:0
36,320,92980,1,0,0:0:0
329,336,92980,1,0,0:0:0
475,356,93167,1,0,0:0:0
182,316,93167,1,0,0:0:0
109,284,93167,1,0,0:0:0
256,288,93167,1,0,0:0:0
402,332,93230,1,0,0:0:0
329,292,93292,1,0,0:0:0
36,232,93355,1,0,0:0:0
109,236,93355,1,0,0:0:0
182,236,93355,1,0,0:0:0
256,240,93355,1,0,0:0:0
329,208,93542,1,0,0:0:0
402,204,93542,1,0,0:0:0
182,196,93542,1,0,0:0:0
475,180,93730,1,0,0:0:0
402,168,93730,1,0,0:0:0
109,140,93730,1,0,0:0:0
329,140,93917,1,0,0:0:0
402,136,93917,1,0,0:0:0
182,72,93917,1,0,0:0:0
36,172,94105,1,0,0:0:0
109,172,94105,1,0,0:0:0
256,176,94105,1,0,0:0:0
329,172,94105,1,0,0:0:0
475,180,94105,1,0,0:0:0
256,340,94292,1,0,0:0:0
109,344,94292,1,0,0:0:0
36,120,94480,1,0,0:0:0
182,124,94480,1,0,0:0:0
256,120,94480,1,0,0:0:0
475,116,94480,1,0,0:0:0
402,112,94480,1,0,0:0:0
109,284,94667,1,0,0:0:0
36,280,94667,1,0,0:0:0
36,72,94855,1,0,0:0:0
109,76,94855,1,0,0:0:0
256,72,94855,1,0,0:0:0
402,76,94855,1,0,0:0:0
329,76,94855,1,0,0:0:0
329,296,95042,1,0,0:0:0
475,304,95042,1,0,0:0:0
36,32,95230,1,0,0:0:0
109,32,95230,1,0,0:0:0
182,36,95230,1,0,0:0:0
256,36,95230,1,0,0:0:0
475,44,95230,1,0,0:0:0
109,112,95417,1,0,0:0:0
36,360,95605,1,0,0:0:0
109,360,95605,1,0,0:0:0
256,360,95605,1,0,0:0:0
182,368,95605,1,0,0:0:0
329,360,95605,1,0,0:0:0
475,364,95605,1,0,0:0:0
36,304,95792,1,0,0:0:0
109,304,95792,1,0,0:0:0
36,252,95980,1,0,0:0:0
109,252,95980,1,0,0:0:0
329,264,95980,1,0,0:0:0
256,268,95980,1,0,0:0:0
402,264,95980,1,0,0:0:0
475,272,95980,1,0,0:0:0
36,200,96167,1,0,0:0:0
109,196,96167,1,0,0:0:0
36,144,96355,1,0,0:0:0
109,144,96355,1,0,0:0:0
256,152,96355,1,0,0:0:0
475,160,96355,1,0,0:0:0
402,144,96355,1,0,0:0:0
182,120,96417,1,0,0:0:0
256,96,96480,1,0,0:0:0
329,76,96542,1,0,0:0:0
402,80,96542,1,0,0:0:0
256,44,96605,1,0,0:0:0
182,32,96667,1,0,0:0:0
36,28,96730,1,0,0:0:0
109,28,96730,1,0,0:0:0
329,28,96730,1,0,0:0:0
402,24,96730,1,0,0:0:0
475,44,96730,1,0,0:0:0
182,80,96792,1,0,0:0:0
256,136,96855,1,0,0:0:0
329,180,96917,1,0,0:0:0
402,176,96917,1,0,0:0:0
256,208,96980,1,0,0:0:0
182,224,97042,1,0,0:0:0
109,240,97042,1,0,0:0:0
36,284,97105,1,0,0:0:0
402,272,97105,1,0,0:0:0
109,308,97167,1,0,0:0:0
182,328,97230,1,0,0:0:0
256,340,97292,1,0,0:0:0
475,364,97355,1,0,0:0:0
402,340,97417,1,0,0:0:0
329,308,97456,1,0,0:0:0
109,368,97542,1,0,0:0:0
182,360,97605,1,0,0:0:0
256,304,97667,1,0,0:0:0
36,232,97730,1,0,0:0:0
109,204,97792,1,0,0:0:0
182,184,97855,1,0,0:0:0
475,212,97917,1,0,0:0:0
256,232,97917,1,0,0:0:0
402,196,97980,1,0,0:0:0
329,176,98042,1,0,0:0:0
256,156,98105,1,0,0:0:0
182,132,98167,1,0,0:0:0
36,72,98230,1,0,0:0:0
329,72,98230,1,0,0:0:0
402,52,98292,1,0,0:0:0
475,40,98355,1,0,0:0:0
182,48,98417,1,0,0:0:0
256,40,98480,1,0,0:0:0
329,12,98542,1,0,0:0:0
36,144,98605,1,0,0:0:0
109,128,98667,1,0,0:0:0
182,108,98730,1,0,0:0:0
256,104,98792,1,0,0:0:0
329,100,98855,1,0,0:0:0
402,88,98917,1,0,0:0:0
109,304,98980,1,0,0:0:0
256,304,98980,1,0,0:0:0
182,272,99042,1,0,0:0:0
256,232,99105,1,0,0:0:0
329,176,99167,1,0,0:0:0
182,216,99230,1,0,0:0:0
109,204,99292,1,0,0:0:0
402,372,99355,1,0,0:0:0
182,360,99355,1,0,0:0:0
475,352,99448,1,0,0:0:0
256,344,99448,1,0,0:0:0
402,320,99542,1,0,0:0:0
36,316,99542,1,0,0:0:0
475,296,99636,1,0,0:0:0
256,280,99636,1,0,0:0:0
329,296,99730,1,0,0:0:0
109,304,99730,1,0,0:0:0
475,248,99823,1,0,0:0:0
182,272,99823,1,0,0:0:0
329,240,99917,1,0,0:0:0
36,244,99917,1,0,0:0:0
475,196,100011,1,0,0:0:0
109,204,100011,1,0,0:0:0
36,284,100073,1,0,0:0:0
402,272,100073,1,0,0:0:0
109,308,100135,1,0,0:0:0
182,328,100198,1,0,0:0:0
256,340,100260,1,0,0:0:0
475,364,100323,1,0,0:0:0
402,340,100385,1,0,0:0:0
329,308,100424,1,0,0:0:0
109,368,100510,1,0,0:0:0
182,360,100573,1,0,0:0:0
256,304,100635,1,0,0:0:0
36,232,100698,1,0,0:0:0
109,204,100760,1,0,0:0:0
182,184,100823,1,0,0:0:0
475,212,100885,1,0,0:0:0
256,232,100885,1,0,0:0:0
402,196,100948,1,0,0:0:0
329,176,101010,1,0,0:0:0
256,156,101073,1,0,0:0:0
182,132,101135,1,0,0:0:0
36,72,101198,1,0,0:0:0
329,72,101198,1,0,0:0:0
402,52,101260,1,0,0:0:0
475,40,101323,1,0,0:0:0
182,48,101385,1,0,0:0:0
256,40,101448,1,0,0:0:0
329,12,101510,1,0,0:0:0
36,144,101573,1,0,0:0:0
109,128,101635,1,0,0:0:0
182,108,101698,1,0,0:0:0
256,104,101760,1,0,0:0:0
329,100,101823,1,0,0:0:0
402,88,101885,1,0,0:0:0
109,304,101948,1,0,0:0:0
256,304,101948,1,0,0:0:0
182,272,102010,1,0,0:0:0
256,232,102073,1,0,0:0:0
329,176,102135,1,0,0:0:0
182,216,102198,1,0,0:0:0
109,204,102260,1,0,0:0:0
182,360,102323,1,0,0:0:0
402,372,102323,1,0,0:0:0
256,344,102416,1,0,0:0:0
475,352,102416,1,0,0:0:0
36,316,102510,1,0,0:0:0
402,320,102510,1,0,0:0:0
475,296,102604,1,0,0:0:0
256,280,102604,1,0,0:0:0
329,296,102698,1,0,0:0:0
109,304,102698,1,0,0:0:0
475,248,102791,1,0,0:0:0
182,272,102791,1,0,0:0:0
36,244,102885,1,0,0:0:0
329,240,102885,1,0,0:0:0
475,196,102979,1,0,0:0:0
109,204,102979,1,0,0:0:0
36,348,103105,5,0,0:0:0
109,328,103136,1,0,0:0:0
182,304,103167,1,0,0:0:0
256,272,103198,1,0,0:0:0
329,240,103230,1,0,0:0:0
402,224,103261,1,0,0:0:0
475,188,103292,1,0,0:0:0
402,156,103323,1,0,0:0:0
329,144,103355,1,0,0:0:0
256,104,103386,1,0,0:0:0
182,72,103417,1,0,0:0:0
109,56,103448,1,0,0:0:0
36,24,103480,1,0,0:0:0
109,368,103511,1,0,0:0:0
182,344,103542,1,0,0:0:0
256,312,103573,1,0,0:0:0
329,272,103605,1,0,0:0:0
402,256,103636,1,0,0:0:0
475,240,103667,1,0,0:0:0
402,192,103698,1,0,0:0:0
329,172,103730,1,0,0:0:0
256,144,103761,1,0,0:0:0
182,116,103792,1,0,0:0:0
109,92,103823,1,0,0:0:0
36,72,103855,1,0,0:0:0
109,24,103886,1,0,0:0:0
182,28,103917,1,0,0:0:0
256,60,103948,1,0,0:0:0
329,96,103980,1,0,0:0:0
402,92,104011,1,0,0:0:0
475,48,104042,1,0,0:0:0
402,148,104073,1,0,0:0:0
329,192,104105,1,0,0:0:0
256,272,104136,1,0,0:0:0
182,248,104167,1,0,0:0:0
109,280,104198,1,0,0:0:0
36,316,104230,1,0,0:0:0
109,312,104261,1,0,0:0:0
182,320,104292,1,0,0:0:0
256,312,104323,1,0,0:0:0
329,236,104355,1,0,0:0:0
402,236,104386,1,0,0:0:0
475,200,104417,1,0,0:0:0
402,180,104448,1,0,0:0:0
329,176,104480,1,0,0:0:0
256,168,104511,1,0,0:0:0
182,152,104542,1,0,0:0:0
109,136,104573,1,0,0:0:0
36,128,104605,1,0,0:0:0
109,68,104636,1,0,0:0:0
182,40,104667,1,0,0:0:0
256,32,104698,1,0,0:0:0
329,32,104730,1,0,0:0:0
402,32,104761,1,0,0:0:0
475,16,104792,1,0,0:0:0
402,60,104823,1,0,0:0:0
329,72,104855,1,0,0:0:0
256,228,104886,1,0,0:0:0
182,96,104917,1,0,0:0:0
109,116,104948,1,0,0:0:0
36,160,104980,1,0,0:0:0
109,176,105011,1,0,0:0:0
182,184,105042,1,0,0:0:0
256,124,105073,1,0,0:0:0
329,120,105105,1,0,0:0:0
402,112,105136,1,0,0:0:0
475,100,105167,1,0,0:0:0
256,352,105292,1,0,0:0:0
36,360,106105,1,0,0:0:0
475,336,106136,1,0,0:0:0
109,324,106167,1,0,0:0:0
402,312,106198,1,0,0:0:0
182,292,106230,1,0,0:0:0
329,292,106261,1,0,0:0:0
36,284,106292,1,0,0:0:0
475,280,106323,1,0,0:0:0
109,256,106355,1,0,0:0:0
402,252,106386,1,0,0:0:0
182,236,106417,1,0,0:0:0
329,236,106448,1,0,0:0:0
36,232,106480,1,0,0:0:0
475,232,106511,1,0,0:0:0
109,208,106542,1,0,0:0:0
402,204,106573,1,0,0:0:0
182,192,106605,1,0,0:0:0
329,192,106636,1,0,0:0:0
36,184,106667,1,0,0:0:0
475,176,106698,1,0,0:0:0
109,156,106730,1,0,0:0:0
402,152,106761,1,0,0:0:0
182,144,106792,1,0,0:0:0
329,144,106823,1,0,0:0:0
36,124,106855,1,0,0:0:0
475,124,106886,1,0,0:0:0
109,112,106917,1,0,0:0:0
402,104,106948,1,0,0:0:0
182,104,106980,1,0,0:0:0
329,96,107011,1,0,0:0:0
36,80,107042,1,0,0:0:0
475,80,107073,1,0,0:0:0
109,72,107105,1,0,0:0:0
402,60,107136,1,0,0:0:0
182,64,107167,1,0,0:0:0
329,60,107198,1,0,0:0:0
36,36,107230,1,0,0:0:0
475,36,107261,1,0,0:0:0
109,32,107292,1,0,0:0:0
402,24,107323,1,0,0:0:0
182,24,107355,1,0,0:0:0
329,24,107386,1,0,0:0:0
36,8,107417,1,0,0:0:0
475,4,107448,1,0,0:0:0
109,8,107480,1,0,0:0:0
402,4,107511,1,0,0:0:0
182,4,107542,1,0,0:0:0
329,0,107573,1,0,0:0:0
256,352,107605,5,0,0:0:0
36,360,107605,1,0,0:0:0
475,364,107605,1,0,0:0:0
36,304,107980,1,0,0:0:0
109,304,107980,1,0,0:0:0
182,304,107980,1,0,0:0:0
256,304,107980,1,0,0:0:0
329,308,107980,1,0,0:0:0
402,304,107980,1,0,0:0:0
475,304,107980,1,0,0:0:0
