osu file format v14

[General]
AudioFilename: L Plus - Heart Breaking [Drum & Bass].mp3.mp3
AudioLeadIn: 0
PreviewTime: 22165
Countdown: 0
SampleSet: Normal
StackLeniency: 0.7
Mode: 3
LetterboxInBreaks: 1
EpilepsyWarning: 1
SpecialStyle: 0
WidescreenStoryboard: 1

[Editor]
DistanceSpacing: 0.8
BeatDivisor: 4
GridSize: 32
TimelineZoom: 1

[Metadata]
Title:Heart Breaking
TitleUnicode:Heart Breaking
Artist:L Plus
ArtistUnicode:L Plus
Creator:DnBMew
Version:HD
Source:
Tags:
BeatmapID:395286
BeatmapSetID:140004

[Difficulty]
HPDrainRate:7
CircleSize:4
OverallDifficulty:7
ApproachRate:5
SliderMultiplier:1.4
SliderTickRate:1

[Events]
//Background and Video events
0,0,"hrtbrkng.jpg",0,0
//Break Periods
2,110640,120273
//Storyboard Layer 0 (Background)
//Storyboard Layer 1 (Fail)
//Storyboard Layer 2 (Pass)
//Storyboard Layer 3 (Foreground)
//Storyboard Sound Samples

[TimingPoints]
4931,344.80776966841,4,1,0,45,1,0
44239,344.80776966841,4,1,0,45,1,1
66306,344.80776966841,4,1,0,45,1,0
88373,344.80776966841,4,1,0,45,1,1
110440,344.80776966841,4,1,0,45,1,0
154575,344.80776966841,4,1,0,45,1,1
176642,344.80776966841,4,1,0,45,1,0
198720,344.80776966841,4,1,0,45,1,1
204236,344.80776966841,4,1,0,45,1,0

[HitObjects]
64,192,448,5,0,0:0:0:0:
448,192,448,128,0,3896:0:0:0:0:
64,192,793,1,0,0:0:0:0:
192,192,1138,1,0,0:0:0:0:
320,192,1310,1,0,0:0:0:0:
192,192,1482,1,0,0:0:0:0:
64,192,1827,1,0,0:0:0:0:
192,192,2172,1,0,0:0:0:0:
192,192,2517,1,0,0:0:0:0:
320,192,2689,1,0,0:0:0:0:
192,192,2862,1,0,0:0:0:0:
64,192,3206,1,0,0:0:0:0:
192,192,3551,1,0,0:0:0:0:
64,192,3896,1,0,0:0:0:0:
320,192,4068,1,0,0:0:0:0:
448,192,4241,1,0,0:0:0:0:
448,192,4586,1,0,0:0:0:0:
192,192,4930,1,0,0:0:0:0:
320,192,5275,1,0,0:0:0:0:
192,192,5448,1,0,0:0:0:0:
64,192,5620,1,0,0:0:0:0:
448,192,5620,128,0,6568:0:0:0:0:
192,192,5965,1,0,0:0:0:0:
320,192,6310,1,0,0:0:0:0:
448,192,6655,1,0,0:0:0:0:
320,192,6827,1,0,0:0:0:0:
192,192,6999,1,0,0:0:0:0:
64,192,7344,1,0,0:0:0:0:
192,192,7689,1,0,0:0:0:0:
320,192,8034,1,0,0:0:0:0:
448,192,8034,1,0,0:0:0:0:
320,192,8206,1,0,0:0:0:0:
448,192,8206,1,0,0:0:0:0:
320,192,8379,1,0,0:0:0:0:
448,192,8379,1,0,0:0:0:0:
64,192,8723,1,0,0:0:0:0:
320,192,8723,1,0,0:0:0:0:
192,192,9068,1,0,0:0:0:0:
448,192,9068,1,0,0:0:0:0:
64,192,9413,1,0,0:0:0:0:
192,192,9413,1,0,0:0:0:0:
192,192,9585,1,0,0:0:0:0:
320,192,9585,1,0,0:0:0:0:
320,192,9758,1,0,0:0:0:0:
448,192,9758,1,0,0:0:0:0:
192,192,10103,1,0,0:0:0:0:
320,192,10103,1,0,0:0:0:0:
64,192,10447,1,0,0:0:0:0:
448,192,10447,1,0,0:0:0:0:
192,192,10792,1,0,0:0:0:0:
320,192,10792,1,0,0:0:0:0:
192,192,10965,1,0,0:0:0:0:
320,192,10965,1,0,0:0:0:0:
358,192,11137,5,0,0:0:0:0:
192,192,11137,1,0,0:0:0:0:
64,192,11482,1,0,0:0:0:0:
320,192,11827,1,0,0:0:0:0:
448,192,12171,1,0,0:0:0:0:
192,192,12516,1,0,0:0:0:0:
64,192,12861,128,0,13206:0:0:0:0:
320,192,12861,128,0,13206:0:0:0:0:
192,192,13206,1,0,0:0:0:0:
64,192,13551,1,0,0:0:0:0:
448,192,13723,1,0,0:0:0:0:
358,192,13896,1,0,0:0:0:0:
192,192,13896,1,0,0:0:0:0:
448,192,14240,1,0,0:0:0:0:
192,192,14585,1,0,0:0:0:0:
64,192,14585,1,0,0:0:0:0:
64,192,14930,1,0,0:0:0:0:
192,192,15102,1,0,0:0:0:0:
320,192,15275,1,0,0:0:0:0:
448,192,15275,1,0,0:0:0:0:
448,192,15620,1,0,0:0:0:0:
358,192,15964,1,0,0:0:0:0:
192,192,15964,1,0,0:0:0:0:
64,192,16309,1,0,0:0:0:0:
192,192,16482,1,0,0:0:0:0:
64,192,16654,128,0,18033:0:0:0:0:
320,192,16654,128,0,18033:0:0:0:0:
448,192,16654,1,0,0:0:0:0:
192,192,16999,1,0,0:0:0:0:
448,192,17344,1,0,0:0:0:0:
192,192,17688,1,0,0:0:0:0:
448,192,18033,128,0,19068:0:0:0:0:
320,192,18378,1,0,0:0:0:0:
192,192,18723,1,0,0:0:0:0:
192,192,19068,1,0,0:0:0:0:
358,192,19412,1,0,0:0:0:0:
64,192,19412,1,0,0:0:0:0:
320,192,19757,1,0,0:0:0:0:
192,192,20102,1,0,0:0:0:0:
448,192,20102,1,0,0:0:0:0:
192,192,20447,1,0,0:0:0:0:
358,192,20792,1,0,0:0:0:0:
192,192,20964,1,0,0:0:0:0:
320,192,21136,1,0,0:0:0:0:
192,192,21309,1,0,0:0:0:0:
448,192,21481,1,0,0:0:0:0:
64,192,21654,1,0,0:0:0:0:
448,192,21826,1,0,0:0:0:0:
64,192,21998,1,0,0:0:0:0:
448,192,22171,128,0,27688:0:0:0:0:
64,192,22171,128,0,27688:0:0:0:0:
320,192,22516,1,0,0:0:0:0:
192,192,23033,1,0,0:0:0:0:
320,192,23205,1,0,0:0:0:0:
192,192,23550,1,0,0:0:0:0:
320,192,23895,1,0,0:0:0:0:
192,192,24412,1,0,0:0:0:0:
320,192,24585,1,0,0:0:0:0:
192,192,24929,1,0,0:0:0:0:
192,192,25274,1,0,0:0:0:0:
320,192,25791,1,0,0:0:0:0:
192,192,25964,1,0,0:0:0:0:
320,192,26309,1,0,0:0:0:0:
192,192,26653,1,0,0:0:0:0:
192,192,27171,1,0,0:0:0:0:
320,192,27343,1,0,0:0:0:0:
192,192,27688,1,0,0:0:0:0:
448,192,28033,1,0,0:0:0:0:
64,192,28033,1,0,0:0:0:0:
320,192,28033,128,0,28722:0:0:0:0:
192,192,28550,1,0,0:0:0:0:
448,192,28722,1,0,0:0:0:0:
64,192,28722,1,0,0:0:0:0:
192,192,28722,128,0,29412:0:0:0:0:
320,192,29067,1,0,0:0:0:0:
448,192,29412,1,0,0:0:0:0:
64,192,29412,1,0,0:0:0:0:
320,192,29412,128,0,30101:0:0:0:0:
192,192,29929,1,0,0:0:0:0:
64,192,30101,1,0,0:0:0:0:
448,192,30101,128,0,30791:0:0:0:0:
64,192,30446,1,0,0:0:0:0:
320,192,30791,1,0,0:0:0:0:
192,192,30791,1,0,0:0:0:0:
64,192,30791,128,0,31481:0:0:0:0:
192,192,31308,1,0,0:0:0:0:
320,192,31308,1,0,0:0:0:0:
320,192,31481,128,0,32170:0:0:0:0:
448,192,31481,128,0,32170:0:0:0:0:
192,192,31826,1,0,0:0:0:0:
64,192,32170,128,0,32860:0:0:0:0:
320,192,32688,1,0,0:0:0:0:
448,192,32860,1,0,0:0:0:0:
192,192,32860,1,0,0:0:0:0:
320,192,32860,128,0,33550:0:0:0:0:
64,192,33205,1,0,0:0:0:0:
448,192,33205,1,0,0:0:0:0:
192,192,33550,128,0,33894:0:0:0:0:
64,192,34067,1,0,0:0:0:0:
192,192,34067,1,0,0:0:0:0:
448,192,34067,1,0,0:0:0:0:
320,192,34239,1,0,0:0:0:0:
448,192,34239,1,0,0:0:0:0:
64,192,34239,1,0,0:0:0:0:
192,192,34584,1,0,0:0:0:0:
320,192,34584,1,0,0:0:0:0:
192,192,34929,128,0,35274:0:0:0:0:
320,192,34929,128,0,35274:0:0:0:0:
192,192,35446,1,0,0:0:0:0:
448,192,35446,1,0,0:0:0:0:
320,192,35618,1,0,0:0:0:0:
64,192,35618,1,0,0:0:0:0:
320,192,35963,1,0,0:0:0:0:
448,192,35963,128,0,36308:0:0:0:0:
192,192,36308,128,0,36653:0:0:0:0:
320,192,36308,1,0,0:0:0:0:
64,192,36308,1,0,0:0:0:0:
320,192,36998,1,0,0:0:0:0:
192,192,36998,1,0,0:0:0:0:
192,192,37342,1,0,0:0:0:0:
320,192,37342,1,0,0:0:0:0:
64,192,37687,128,0,38032:0:0:0:0:
448,192,37687,128,0,38032:0:0:0:0:
192,192,38204,1,0,0:0:0:0:
320,192,38204,1,0,0:0:0:0:
448,192,38377,1,0,0:0:0:0:
64,192,38377,1,0,0:0:0:0:
192,192,38722,1,0,0:0:0:0:
448,192,38722,1,0,0:0:0:0:
64,192,39066,128,0,39411:0:0:0:0:
448,192,39066,128,0,39411:0:0:0:0:
192,192,39584,1,0,0:0:0:0:
320,192,39584,1,0,0:0:0:0:
64,192,39756,1,0,0:0:0:0:
320,192,39756,1,0,0:0:0:0:
192,192,40101,1,0,0:0:0:0:
448,192,40101,1,0,0:0:0:0:
64,192,40446,1,0,0:0:0:0:
320,192,40446,1,0,0:0:0:0:
192,192,40791,1,0,0:0:0:0:
64,192,40791,1,0,0:0:0:0:
64,192,41135,1,0,0:0:0:0:
320,192,41135,1,0,0:0:0:0:
192,192,41480,1,0,0:0:0:0:
64,192,41480,1,0,0:0:0:0:
320,192,41653,1,0,0:0:0:0:
448,192,41653,1,0,0:0:0:0:
192,192,41825,1,0,0:0:0:0:
320,192,41825,1,0,0:0:0:0:
320,192,41997,1,0,0:0:0:0:
64,192,41997,1,0,0:0:0:0:
192,192,42170,1,0,0:0:0:0:
448,192,42170,1,0,0:0:0:0:
320,192,42342,1,0,0:0:0:0:
192,192,42515,1,0,0:0:0:0:
320,192,42687,1,0,0:0:0:0:
192,192,42859,128,0,43549:0:0:0:0:
320,192,42859,128,0,43549:0:0:0:0:
448,192,43721,1,0,0:0:0:0:
64,192,43721,1,0,0:0:0:0:
192,192,43894,1,0,0:0:0:0:
320,192,43894,1,0,0:0:0:0:
192,192,44239,128,0,44583:0:0:0:0:
64,192,44239,128,0,44583:0:0:0:0:
448,192,44583,128,0,45618:0:0:0:0:
320,192,44928,1,0,0:0:0:0:
64,192,45101,1,0,0:0:0:0:
320,192,45273,1,0,0:0:0:0:
192,192,45618,128,0,45963:0:0:0:0:
320,192,45618,128,0,45963:0:0:0:0:
64,192,45963,128,0,46652:0:0:0:0:
320,192,46307,1,0,0:0:0:0:
448,192,46480,1,0,0:0:0:0:
320,192,46652,1,0,0:0:0:0:
64,192,46997,128,0,47342:0:0:0:0:
448,192,46997,128,0,47342:0:0:0:0:
192,192,47687,1,0,0:0:0:0:
320,192,47687,1,0,0:0:0:0:
64,192,47687,1,0,0:0:0:0:
320,192,47859,1,0,0:0:0:0:
448,192,48031,1,0,0:0:0:0:
192,192,48376,128,0,48721:0:0:0:0:
64,192,48376,128,0,48721:0:0:0:0:
448,192,48376,1,0,0:0:0:0:
448,192,48721,1,0,0:0:0:0:
192,192,49066,1,0,0:0:0:0:
320,192,49066,128,0,49411:0:0:0:0:
192,192,49411,1,0,0:0:0:0:
64,192,49583,1,0,0:0:0:0:
192,192,49755,128,0,50100:0:0:0:0:
448,192,50100,1,0,0:0:0:0:
448,192,50445,1,0,0:0:0:0:
64,192,50445,1,0,0:0:0:0:
192,192,50617,1,0,0:0:0:0:
192,192,50790,1,0,0:0:0:0:
320,192,50790,128,0,51135:0:0:0:0:
192,192,51135,128,0,51479:0:0:0:0:
448,192,51479,1,0,0:0:0:0:
192,192,51824,1,0,0:0:0:0:
320,192,51824,1,0,0:0:0:0:
64,192,52169,1,0,0:0:0:0:
448,192,52169,1,0,0:0:0:0:
192,192,52341,1,0,0:0:0:0:
320,192,52341,1,0,0:0:0:0:
192,192,52514,128,0,52859:0:0:0:0:
320,192,52514,128,0,52859:0:0:0:0:
64,192,53204,1,0,0:0:0:0:
448,192,53204,1,0,0:0:0:0:
192,192,53204,1,0,0:0:0:0:
64,192,53548,1,0,0:0:0:0:
448,192,53548,1,0,0:0:0:0:
320,192,53548,1,0,0:0:0:0:
192,192,53893,128,0,54238:0:0:0:0:
448,192,53893,128,0,54238:0:0:0:0:
64,192,54583,1,0,0:0:0:0:
64,192,54755,1,0,0:0:0:0:
192,192,54841,1,0,0:0:0:0:
320,192,54928,1,0,0:0:0:0:
448,192,55014,1,0,0:0:0:0:
320,192,55100,1,0,0:0:0:0:
192,192,55272,128,0,55617:0:0:0:0:
320,192,55272,128,0,55617:0:0:0:0:
64,192,55962,1,0,0:0:0:0:
448,192,55962,1,0,0:0:0:0:
64,192,56307,1,0,0:0:0:0:
448,192,56307,1,0,0:0:0:0:
448,192,56652,128,0,56996:0:0:0:0:
64,192,56652,128,0,56996:0:0:0:0:
192,192,57341,1,0,0:0:0:0:
320,192,57341,1,0,0:0:0:0:
448,192,57686,1,0,0:0:0:0:
64,192,57686,1,0,0:0:0:0:
64,192,57858,1,0,0:0:0:0:
448,192,57858,1,0,0:0:0:0:
192,192,58031,128,0,58376:0:0:0:0:
320,192,58031,128,0,58376:0:0:0:0:
64,192,58720,1,0,0:0:0:0:
192,192,58720,1,0,0:0:0:0:
192,192,58893,1,0,0:0:0:0:
320,192,58893,1,0,0:0:0:0:
320,192,59065,1,0,0:0:0:0:
448,192,59065,1,0,0:0:0:0:
64,192,59410,128,0,59755:0:0:0:0:
192,192,59410,128,0,59755:0:0:0:0:
320,192,59582,1,0,0:0:0:0:
448,192,59582,1,0,0:0:0:0:
448,192,60100,128,0,60444:0:0:0:0:
320,192,60100,128,0,60444:0:0:0:0:
64,192,60272,1,0,0:0:0:0:
64,192,60789,128,0,61134:0:0:0:0:
320,192,60789,1,0,0:0:0:0:
448,192,60789,1,0,0:0:0:0:
448,192,61134,1,0,0:0:0:0:
320,192,61306,1,0,0:0:0:0:
192,192,61479,1,0,0:0:0:0:
192,192,61824,1,0,0:0:0:0:
320,192,61996,1,0,0:0:0:0:
192,192,62169,128,0,62513:0:0:0:0:
448,192,62169,1,0,0:0:0:0:
64,192,62169,128,0,62513:0:0:0:0:
192,192,62858,1,0,0:0:0:0:
320,192,62858,1,0,0:0:0:0:
192,192,63203,1,0,0:0:0:0:
320,192,63203,1,0,0:0:0:0:
64,192,63548,1,0,0:0:0:0:
448,192,63548,1,0,0:0:0:0:
192,192,63634,1,0,0:0:0:0:
320,192,63720,1,0,0:0:0:0:
448,192,63806,1,0,0:0:0:0:
320,192,63893,1,0,0:0:0:0:
192,192,63979,1,0,0:0:0:0:
64,192,64065,1,0,0:0:0:0:
192,192,64151,1,0,0:0:0:0:
320,192,64237,1,0,0:0:0:0:
448,192,64324,1,0,0:0:0:0:
320,192,64410,1,0,0:0:0:0:
192,192,64496,1,0,0:0:0:0:
64,192,64582,1,0,0:0:0:0:
448,192,64582,1,0,0:0:0:0:
192,192,64668,1,0,0:0:0:0:
320,192,64755,1,0,0:0:0:0:
192,192,64841,1,0,0:0:0:0:
64,192,64927,1,0,0:0:0:0:
448,192,65013,1,0,0:0:0:0:
64,192,65099,1,0,0:0:0:0:
448,192,65186,1,0,0:0:0:0:
64,192,65272,1,0,0:0:0:0:
320,192,65444,1,0,0:0:0:0:
192,192,65530,1,0,0:0:0:0:
320,192,65617,1,0,0:0:0:0:
192,192,65703,1,0,0:0:0:0:
320,192,65789,1,0,0:0:0:0:
192,192,65875,1,0,0:0:0:0:
64,192,65961,1,0,0:0:0:0:
448,192,65961,1,0,0:0:0:0:
64,192,66306,128,0,66651:0:0:0:0:
448,192,66306,128,0,66651:0:0:0:0:
192,192,66995,1,0,0:0:0:0:
320,192,66995,1,0,0:0:0:0:
64,192,67340,1,0,0:0:0:0:
448,192,67340,1,0,0:0:0:0:
192,192,67685,128,0,68030:0:0:0:0:
320,192,67685,128,0,68030:0:0:0:0:
64,192,68374,1,0,0:0:0:0:
320,192,68374,1,0,0:0:0:0:
192,192,68719,1,0,0:0:0:0:
448,192,68719,1,0,0:0:0:0:
64,192,69064,128,0,69409:0:0:0:0:
192,192,69064,128,0,69409:0:0:0:0:
320,192,69581,1,0,0:0:0:0:
448,192,69581,1,0,0:0:0:0:
64,192,69754,1,0,0:0:0:0:
192,192,69754,1,0,0:0:0:0:
320,192,69926,1,0,0:0:0:0:
448,192,69926,1,0,0:0:0:0:
64,192,70098,1,0,0:0:0:0:
192,192,70098,1,0,0:0:0:0:
320,192,70443,128,0,70788:0:0:0:0:
448,192,70443,128,0,70788:0:0:0:0:
64,192,70960,1,0,0:0:0:0:
192,192,70960,1,0,0:0:0:0:
448,192,71133,1,0,0:0:0:0:
192,192,71133,128,0,71478:0:0:0:0:
448,192,71305,1,0,0:0:0:0:
448,192,71478,1,0,0:0:0:0:
192,192,71822,128,0,72167:0:0:0:0:
448,192,71822,128,0,72167:0:0:0:0:
64,192,72512,1,0,0:0:0:0:
320,192,72512,1,0,0:0:0:0:
192,192,72857,1,0,0:0:0:0:
448,192,72857,1,0,0:0:0:0:
64,192,73202,128,0,73546:0:0:0:0:
320,192,73202,128,0,73546:0:0:0:0:
192,192,73891,1,0,0:0:0:0:
448,192,73891,1,0,0:0:0:0:
64,192,74236,1,0,0:0:0:0:
320,192,74236,1,0,0:0:0:0:
192,192,74581,128,0,74926:0:0:0:0:
448,192,74581,128,0,74926:0:0:0:0:
192,192,75271,1,0,0:0:0:0:
320,192,75615,1,0,0:0:0:0:
320,192,75960,128,0,76305:0:0:0:0:
64,192,75960,1,0,0:0:0:0:
64,192,76305,1,0,0:0:0:0:
448,192,76650,1,0,0:0:0:0:
192,192,76822,1,0,0:0:0:0:
64,192,76995,1,0,0:0:0:0:
320,192,77081,1,0,0:0:0:0:
192,192,77339,128,0,77684:0:0:0:0:
320,192,77339,128,0,77684:0:0:0:0:
64,192,78029,1,0,0:0:0:0:
448,192,78029,1,0,0:0:0:0:
64,192,78374,1,0,0:0:0:0:
448,192,78374,1,0,0:0:0:0:
64,192,78719,128,0,79063:0:0:0:0:
448,192,78719,128,0,79063:0:0:0:0:
192,192,79408,1,0,0:0:0:0:
320,192,79408,1,0,0:0:0:0:
192,192,79753,1,0,0:0:0:0:
320,192,79753,1,0,0:0:0:0:
192,192,80098,128,0,80443:0:0:0:0:
448,192,80098,128,0,80443:0:0:0:0:
64,192,80787,1,0,0:0:0:0:
320,192,80787,1,0,0:0:0:0:
64,192,81132,1,0,0:0:0:0:
192,192,81132,1,0,0:0:0:0:
320,192,81477,128,0,81822:0:0:0:0:
448,192,81477,128,0,81822:0:0:0:0:
64,192,82167,1,0,0:0:0:0:
192,192,82167,1,0,0:0:0:0:
320,192,82339,1,0,0:0:0:0:
192,192,82339,1,0,0:0:0:0:
448,192,82511,1,0,0:0:0:0:
320,192,82511,1,0,0:0:0:0:
192,192,82856,128,0,83201:0:0:0:0:
320,192,82856,128,0,83201:0:0:0:0:
64,192,83546,1,0,0:0:0:0:
448,192,83546,1,0,0:0:0:0:
64,192,83718,1,0,0:0:0:0:
448,192,83718,1,0,0:0:0:0:
192,192,83891,1,0,0:0:0:0:
320,192,83891,1,0,0:0:0:0:
64,192,84063,1,0,0:0:0:0:
448,192,84063,1,0,0:0:0:0:
192,192,84236,128,0,84580:0:0:0:0:
320,192,84236,128,0,84580:0:0:0:0:
64,192,84753,1,0,0:0:0:0:
320,192,84753,1,0,0:0:0:0:
192,192,84925,1,0,0:0:0:0:
448,192,84925,1,0,0:0:0:0:
192,192,85098,1,0,0:0:0:0:
320,192,85098,1,0,0:0:0:0:
64,192,85270,1,0,0:0:0:0:
320,192,85270,1,0,0:0:0:0:
192,192,85615,128,0,85960:0:0:0:0:
320,192,85615,128,0,85960:0:0:0:0:
64,192,86132,1,0,0:0:0:0:
448,192,86132,1,0,0:0:0:0:
64,192,86304,1,0,0:0:0:0:
448,192,86304,1,0,0:0:0:0:
192,192,86477,1,0,0:0:0:0:
320,192,86477,1,0,0:0:0:0:
192,192,86649,1,0,0:0:0:0:
320,192,86649,1,0,0:0:0:0:
64,192,86822,1,0,0:0:0:0:
192,192,86994,1,0,0:0:0:0:
320,192,87166,1,0,0:0:0:0:
448,192,87339,1,0,0:0:0:0:
320,192,87511,1,0,0:0:0:0:
192,192,87684,1,0,0:0:0:0:
64,192,87856,1,0,0:0:0:0:
192,192,88028,1,0,0:0:0:0:
448,192,88115,1,0,0:0:0:0:
320,192,88201,1,0,0:0:0:0:
192,192,88287,1,0,0:0:0:0:
64,192,88373,128,0,88717:0:0:0:0:
448,192,88373,128,0,88717:0:0:0:0:
192,192,89062,1,0,0:0:0:0:
320,192,89062,1,0,0:0:0:0:
64,192,89407,1,0,0:0:0:0:
448,192,89407,1,0,0:0:0:0:
192,192,89752,128,0,90097:0:0:0:0:
320,192,89752,128,0,90097:0:0:0:0:
64,192,90097,1,0,0:0:0:0:
192,192,90441,1,0,0:0:0:0:
320,192,90441,1,0,0:0:0:0:
192,192,90786,1,0,0:0:0:0:
320,192,90786,1,0,0:0:0:0:
192,192,91131,128,0,91476:0:0:0:0:
448,192,91131,1,0,0:0:0:0:
64,192,91476,1,0,0:0:0:0:
192,192,91821,1,0,0:0:0:0:
320,192,92165,1,0,0:0:0:0:
320,192,92510,128,0,92855:0:0:0:0:
320,192,93200,1,0,0:0:0:0:
192,192,93372,1,0,0:0:0:0:
320,192,93372,1,0,0:0:0:0:
192,192,93545,1,0,0:0:0:0:
64,192,93889,128,0,94234:0:0:0:0:
448,192,93889,128,0,94234:0:0:0:0:
192,192,93889,128,0,94234:0:0:0:0:
192,192,94579,1,0,0:0:0:0:
320,192,94924,1,0,0:0:0:0:
64,192,95269,128,0,95613:0:0:0:0:
448,192,95269,128,0,95613:0:0:0:0:
320,192,95269,128,0,95613:0:0:0:0:
320,192,95958,1,0,0:0:0:0:
192,192,96303,1,0,0:0:0:0:
192,192,96648,128,0,96993:0:0:0:0:
320,192,96648,128,0,96993:0:0:0:0:
192,192,97338,1,0,0:0:0:0:
320,192,97338,1,0,0:0:0:0:
192,192,97682,1,0,0:0:0:0:
320,192,97682,1,0,0:0:0:0:
64,192,98027,128,0,98372:0:0:0:0:
448,192,98027,128,0,98372:0:0:0:0:
64,192,98717,1,0,0:0:0:0:
448,192,98717,1,0,0:0:0:0:
192,192,98889,1,0,0:0:0:0:
320,192,99062,1,0,0:0:0:0:
448,192,99148,1,0,0:0:0:0:
320,192,99234,1,0,0:0:0:0:
192,192,99320,1,0,0:0:0:0:
64,192,99406,1,0,0:0:0:0:
448,192,99406,1,0,0:0:0:0:
192,192,99751,1,0,0:0:0:0:
320,192,99751,1,0,0:0:0:0:
64,192,100096,1,0,0:0:0:0:
320,192,100096,1,0,0:0:0:0:
192,192,100268,1,0,0:0:0:0:
448,192,100268,1,0,0:0:0:0:
64,192,100441,1,0,0:0:0:0:
320,192,100441,1,0,0:0:0:0:
64,192,100786,128,0,101130:0:0:0:0:
320,192,100786,128,0,101130:0:0:0:0:
192,192,101475,1,0,0:0:0:0:
448,192,101475,1,0,0:0:0:0:
64,192,101648,1,0,0:0:0:0:
320,192,101648,1,0,0:0:0:0:
192,192,101820,1,0,0:0:0:0:
448,192,101820,1,0,0:0:0:0:
320,192,102165,128,0,102510:0:0:0:0:
448,192,102165,128,0,102510:0:0:0:0:
192,192,102165,128,0,102510:0:0:0:0:
64,192,102854,1,0,0:0:0:0:
192,192,102854,1,0,0:0:0:0:
192,192,103027,1,0,0:0:0:0:
320,192,103027,1,0,0:0:0:0:
320,192,103199,1,0,0:0:0:0:
448,192,103199,1,0,0:0:0:0:
64,192,103544,128,0,103889:0:0:0:0:
192,192,103544,128,0,103889:0:0:0:0:
448,192,103544,128,0,103889:0:0:0:0:
448,192,104234,128,0,104578:0:0:0:0:
64,192,104234,1,0,0:0:0:0:
192,192,104406,1,0,0:0:0:0:
64,192,104578,1,0,0:0:0:0:
64,192,104923,128,0,105268:0:0:0:0:
192,192,104923,128,0,105268:0:0:0:0:
448,192,104923,128,0,105268:0:0:0:0:
320,192,105268,1,0,0:0:0:0:
64,192,105440,1,0,0:0:0:0:
192,192,105613,1,0,0:0:0:0:
320,192,105958,1,0,0:0:0:0:
192,192,106130,1,0,0:0:0:0:
192,192,106303,128,0,106647:0:0:0:0:
448,192,106303,128,0,106647:0:0:0:0:
64,192,106303,1,0,0:0:0:0:
64,192,106992,1,0,0:0:0:0:
320,192,106992,1,0,0:0:0:0:
192,192,107337,1,0,0:0:0:0:
448,192,107337,1,0,0:0:0:0:
192,192,107682,128,0,108027:0:0:0:0:
320,192,107682,128,0,108027:0:0:0:0:
64,192,108371,128,0,108716:0:0:0:0:
448,192,108371,1,0,0:0:0:0:
320,192,108544,1,0,0:0:0:0:
192,192,108716,1,0,0:0:0:0:
320,192,108889,1,0,0:0:0:0:
448,192,109061,1,0,0:0:0:0:
320,192,109233,1,0,0:0:0:0:
192,192,109406,1,0,0:0:0:0:
320,192,109578,1,0,0:0:0:0:
64,192,109751,128,0,110095:0:0:0:0:
448,192,109751,1,0,0:0:0:0:
320,192,109923,1,0,0:0:0:0:
192,192,110095,1,0,0:0:0:0:
192,192,110268,1,0,0:0:0:0:
320,192,110268,1,0,0:0:0:0:
64,192,110440,1,4,0:0:0:0:
448,192,110440,1,4,0:0:0:0:
448,192,121473,5,0,0:0:0:0:
320,192,121473,128,0,123197:0:0:0:0:
64,192,121818,1,0,0:0:0:0:
192,192,122163,1,0,0:0:0:0:
448,192,122508,1,0,0:0:0:0:
192,192,122853,1,0,0:0:0:0:
192,192,123197,128,0,124232:0:0:0:0:
64,192,123197,1,0,0:0:0:0:
320,192,123542,1,0,0:0:0:0:
64,192,124232,1,0,0:0:0:0:
192,192,124404,1,0,0:0:0:0:
320,192,124577,1,0,0:0:0:0:
448,192,124749,1,0,0:0:0:0:
320,192,124921,1,0,0:0:0:0:
192,192,125266,1,0,0:0:0:0:
64,192,125611,128,0,126301:0:0:0:0:
192,192,125611,128,0,126301:0:0:0:0:
320,192,125611,128,0,126301:0:0:0:0:
448,192,126301,1,0,0:0:0:0:
192,192,126990,128,0,128714:0:0:0:0:
64,192,126990,128,0,128714:0:0:0:0:
320,192,127335,1,0,0:0:0:0:
448,192,127680,1,0,0:0:0:0:
320,192,128025,1,0,0:0:0:0:
448,192,128370,1,0,0:0:0:0:
448,192,128714,1,0,0:0:0:0:
64,192,129059,1,0,0:0:0:0:
192,192,129059,1,0,0:0:0:0:
448,192,129749,1,0,0:0:0:0:
320,192,129921,1,0,0:0:0:0:
192,192,130094,1,0,0:0:0:0:
64,192,130266,1,0,0:0:0:0:
64,192,130438,1,0,0:0:0:0:
320,192,130783,1,0,0:0:0:0:
192,192,131128,128,0,131473:0:0:0:0:
320,192,131128,128,0,131473:0:0:0:0:
64,192,131473,1,0,0:0:0:0:
448,192,131473,1,0,0:0:0:0:
64,192,131818,1,0,0:0:0:0:
448,192,131818,1,0,0:0:0:0:
320,192,132162,1,0,0:0:0:0:
448,192,132335,1,0,0:0:0:0:
64,192,132335,1,0,0:0:0:0:
192,192,132507,1,0,0:0:0:0:
320,192,132507,128,0,133886:0:0:0:0:
192,192,132852,1,0,0:0:0:0:
448,192,133197,1,0,0:0:0:0:
192,192,133542,1,0,0:0:0:0:
192,192,133714,1,0,0:0:0:0:
64,192,133886,1,0,0:0:0:0:
448,192,133886,128,0,135266:0:0:0:0:
192,192,134231,1,0,0:0:0:0:
320,192,134576,1,0,0:0:0:0:
320,192,134921,1,0,0:0:0:0:
320,192,135093,1,0,0:0:0:0:
192,192,135266,1,0,0:0:0:0:
64,192,135266,128,0,136645:0:0:0:0:
320,192,135610,1,0,0:0:0:0:
192,192,135783,1,0,0:0:0:0:
320,192,135955,1,0,0:0:0:0:
448,192,136300,1,0,0:0:0:0:
320,192,136472,1,0,0:0:0:0:
192,192,136645,1,0,0:0:0:0:
64,192,136990,1,0,0:0:0:0:
192,192,137162,1,0,0:0:0:0:
320,192,137248,1,0,0:0:0:0:
448,192,137335,1,0,0:0:0:0:
448,192,137679,1,0,0:0:0:0:
192,192,138024,1,0,0:0:0:0:
320,192,138024,128,0,139403:0:0:0:0:
64,192,138024,128,0,139403:0:0:0:0:
448,192,138369,1,0,0:0:0:0:
192,192,138714,1,0,0:0:0:0:
448,192,139059,1,0,0:0:0:0:
192,192,139403,1,0,0:0:0:0:
448,192,139403,128,0,140783:0:0:0:0:
320,192,139748,1,0,0:0:0:0:
192,192,140093,1,0,0:0:0:0:
64,192,140438,1,0,0:0:0:0:
320,192,140783,1,0,0:0:0:0:
64,192,140783,128,0,142162:0:0:0:0:
192,192,141127,1,0,0:0:0:0:
320,192,141472,1,0,0:0:0:0:
192,192,141472,1,0,0:0:0:0:
448,192,141817,1,0,0:0:0:0:
320,192,142162,1,0,0:0:0:0:
192,192,142507,1,0,0:0:0:0:
64,192,142851,1,0,0:0:0:0:
448,192,143196,1,0,0:0:0:0:
320,192,143541,128,0,143886:0:0:0:0:
192,192,143541,128,0,143886:0:0:0:0:
192,192,144231,1,0,0:0:0:0:
320,192,144231,1,0,0:0:0:0:
64,192,144575,1,0,0:0:0:0:
192,192,144920,1,0,0:0:0:0:
320,192,144920,1,0,0:0:0:0:
448,192,145265,1,0,0:0:0:0:
64,192,145610,1,0,0:0:0:0:
320,192,145610,1,0,0:0:0:0:
192,192,145955,1,0,0:0:0:0:
448,192,145955,1,0,0:0:0:0:
192,192,146300,1,0,0:0:0:0:
448,192,146300,1,0,0:0:0:0:
192,192,146644,1,0,0:0:0:0:
64,192,146989,1,0,0:0:0:0:
320,192,146989,1,0,0:0:0:0:
192,192,147334,1,0,0:0:0:0:
64,192,147679,1,0,0:0:0:0:
448,192,147679,1,0,0:0:0:0:
192,192,148024,1,0,0:0:0:0:
320,192,148024,1,0,0:0:0:0:
192,192,148368,1,0,0:0:0:0:
320,192,148368,1,0,0:0:0:0:
64,192,148713,1,0,0:0:0:0:
192,192,149058,1,0,0:0:0:0:
320,192,149058,1,0,0:0:0:0:
192,192,149403,1,0,0:0:0:0:
448,192,149403,1,0,0:0:0:0:
64,192,149748,1,0,0:0:0:0:
320,192,149748,1,0,0:0:0:0:
192,192,150092,1,0,0:0:0:0:
320,192,150092,1,0,0:0:0:0:
448,192,150437,1,0,0:0:0:0:
64,192,150437,1,0,0:0:0:0:
64,192,150782,1,0,0:0:0:0:
320,192,150782,1,0,0:0:0:0:
448,192,151127,1,0,0:0:0:0:
192,192,151127,1,0,0:0:0:0:
64,192,151472,1,0,0:0:0:0:
448,192,151472,1,0,0:0:0:0:
64,192,151644,1,0,0:0:0:0:
192,192,151816,1,0,0:0:0:0:
320,192,151989,1,0,0:0:0:0:
448,192,152161,1,0,0:0:0:0:
320,192,152334,1,0,0:0:0:0:
192,192,152506,1,0,0:0:0:0:
64,192,152678,1,0,0:0:0:0:
192,192,152851,1,0,0:0:0:0:
320,192,153023,1,0,0:0:0:0:
448,192,153196,1,0,0:0:0:0:
64,192,153368,1,0,0:0:0:0:
192,192,153540,1,0,0:0:0:0:
320,192,153713,1,0,0:0:0:0:
448,192,153885,1,0,0:0:0:0:
320,192,154058,1,0,0:0:0:0:
192,192,154230,1,0,0:0:0:0:
64,192,154402,1,0,0:0:0:0:
192,192,154575,128,0,154919:0:0:0:0:
320,192,154575,128,0,154919:0:0:0:0:
448,192,154919,1,0,0:0:0:0:
320,192,155264,1,0,0:0:0:0:
192,192,155437,1,0,0:0:0:0:
64,192,155609,1,0,0:0:0:0:
448,192,155609,1,0,0:0:0:0:
64,192,155954,128,0,156299:0:0:0:0:
448,192,155954,128,0,156299:0:0:0:0:
192,192,155954,128,0,156299:0:0:0:0:
64,192,156643,1,0,0:0:0:0:
448,192,156643,1,0,0:0:0:0:
64,192,156816,1,0,0:0:0:0:
448,192,156816,1,0,0:0:0:0:
192,192,156988,1,0,0:0:0:0:
320,192,156988,1,0,0:0:0:0:
64,192,157333,128,0,157678:0:0:0:0:
320,192,157333,128,0,157678:0:0:0:0:
192,192,158023,1,0,0:0:0:0:
448,192,158023,1,0,0:0:0:0:
64,192,158367,1,0,0:0:0:0:
320,192,158367,1,0,0:0:0:0:
192,192,158712,128,0,159057:0:0:0:0:
320,192,158712,128,0,159057:0:0:0:0:
192,192,159402,128,0,159747:0:0:0:0:
320,192,159402,1,0,0:0:0:0:
320,192,159747,1,0,0:0:0:0:
64,192,159919,1,0,0:0:0:0:
448,192,159919,1,0,0:0:0:0:
192,192,160091,128,0,160436:0:0:0:0:
320,192,160091,128,0,160436:0:0:0:0:
64,192,160781,1,0,0:0:0:0:
320,192,160781,1,0,0:0:0:0:
192,192,161126,1,0,0:0:0:0:
448,192,161126,1,0,0:0:0:0:
192,192,161471,128,0,161815:0:0:0:0:
320,192,161471,128,0,161815:0:0:0:0:
64,192,162160,1,0,0:0:0:0:
448,192,162160,1,0,0:0:0:0:
192,192,162505,1,0,0:0:0:0:
320,192,162505,1,0,0:0:0:0:
64,192,162850,128,0,163195:0:0:0:0:
192,192,162850,128,0,163195:0:0:0:0:
320,192,162850,1,0,0:0:0:0:
448,192,163195,1,0,0:0:0:0:
192,192,163540,1,0,0:0:0:0:
320,192,163540,1,0,0:0:0:0:
192,192,163884,1,0,0:0:0:0:
320,192,163884,1,0,0:0:0:0:
64,192,164229,1,0,0:0:0:0:
448,192,164574,1,0,0:0:0:0:
192,192,164919,1,0,0:0:0:0:
64,192,165091,1,0,0:0:0:0:
320,192,165264,1,0,0:0:0:0:
448,192,165350,1,0,0:0:0:0:
320,192,165436,1,0,0:0:0:0:
192,192,165522,1,0,0:0:0:0:
64,192,165608,128,0,165953:0:0:0:0:
448,192,165608,128,0,165953:0:0:0:0:
192,192,166298,1,0,0:0:0:0:
320,192,166298,1,0,0:0:0:0:
64,192,166643,1,0,0:0:0:0:
448,192,166643,1,0,0:0:0:0:
192,192,166988,128,0,167332:0:0:0:0:
448,192,166988,128,0,167332:0:0:0:0:
448,192,167677,1,0,0:0:0:0:
64,192,167677,1,0,0:0:0:0:
320,192,167677,1,0,0:0:0:0:
192,192,168022,1,0,0:0:0:0:
64,192,168022,1,0,0:0:0:0:
320,192,168022,1,0,0:0:0:0:
192,192,168367,128,0,168712:0:0:0:0:
320,192,168367,128,0,168712:0:0:0:0:
64,192,169056,1,0,0:0:0:0:
448,192,169056,1,0,0:0:0:0:
192,192,169401,1,0,0:0:0:0:
320,192,169401,1,0,0:0:0:0:
192,192,169746,128,0,170091:0:0:0:0:
320,192,169746,128,0,170091:0:0:0:0:
64,192,170091,1,0,0:0:0:0:
448,192,170436,1,0,0:0:0:0:
192,192,170780,1,0,0:0:0:0:
192,192,170953,1,0,0:0:0:0:
320,192,170953,1,0,0:0:0:0:
192,192,171125,128,0,171470:0:0:0:0:
320,192,171125,128,0,171470:0:0:0:0:
64,192,171470,128,0,171642:0:0:0:0:
192,192,171642,128,0,171815:0:0:0:0:
320,192,171815,128,0,171987:0:0:0:0:
448,192,172160,1,0,0:0:0:0:
320,192,172332,1,0,0:0:0:0:
192,192,172505,128,0,172849:0:0:0:0:
448,192,172505,128,0,172849:0:0:0:0:
64,192,173194,1,0,0:0:0:0:
320,192,173194,1,0,0:0:0:0:
192,192,173539,1,0,0:0:0:0:
448,192,173539,1,0,0:0:0:0:
192,192,173711,1,0,0:0:0:0:
320,192,173711,1,0,0:0:0:0:
192,192,173884,128,0,174229:0:0:0:0:
320,192,173884,128,0,174229:0:0:0:0:
64,192,174401,1,0,0:0:0:0:
448,192,174401,1,0,0:0:0:0:
64,192,174573,128,0,174918:0:0:0:0:
448,192,174573,128,0,174918:0:0:0:0:
320,192,175091,1,0,0:0:0:0:
192,192,175263,128,0,175608:0:0:0:0:
320,192,175780,1,0,0:0:0:0:
64,192,175953,128,0,176297:0:0:0:0:
448,192,175953,128,0,176297:0:0:0:0:
192,192,176470,1,0,0:0:0:0:
320,192,176470,1,0,0:0:0:0:
320,192,176642,128,0,176986:0:0:0:0:
64,192,176642,1,0,0:0:0:0:
192,192,176814,1,0,0:0:0:0:
448,192,176986,1,0,0:0:0:0:
320,192,177159,1,0,0:0:0:0:
64,192,177331,1,0,0:0:0:0:
192,192,177504,1,0,0:0:0:0:
320,192,177676,1,0,0:0:0:0:
192,192,177848,1,0,0:0:0:0:
64,192,178021,128,0,178366:0:0:0:0:
320,192,178021,128,0,178366:0:0:0:0:
192,192,178710,1,0,0:0:0:0:
448,192,178710,1,0,0:0:0:0:
64,192,178883,1,0,0:0:0:0:
448,192,178883,1,0,0:0:0:0:
64,192,179055,1,0,0:0:0:0:
320,192,179055,1,0,0:0:0:0:
192,192,179400,128,0,179745:0:0:0:0:
448,192,179400,128,0,179745:0:0:0:0:
64,192,180090,1,0,0:0:0:0:
320,192,180090,1,0,0:0:0:0:
192,192,180434,1,0,0:0:0:0:
448,192,180434,1,0,0:0:0:0:
192,192,180779,128,0,181124:0:0:0:0:
448,192,180779,1,0,0:0:0:0:
320,192,180952,1,0,0:0:0:0:
64,192,181124,1,0,0:0:0:0:
192,192,181296,1,0,0:0:0:0:
320,192,181469,128,0,181814:0:0:0:0:
192,192,181469,1,0,0:0:0:0:
192,192,181641,1,0,0:0:0:0:
64,192,181814,1,0,0:0:0:0:
192,192,181986,1,0,0:0:0:0:
192,192,182158,128,0,182503:0:0:0:0:
320,192,182158,128,0,182503:0:0:0:0:
320,192,182676,1,0,0:0:0:0:
64,192,182848,1,0,0:0:0:0:
448,192,182848,1,0,0:0:0:0:
192,192,182848,1,0,0:0:0:0:
192,192,183193,1,0,0:0:0:0:
320,192,183193,1,0,0:0:0:0:
64,192,183365,1,0,0:0:0:0:
320,192,183365,1,0,0:0:0:0:
192,192,183538,128,0,183882:0:0:0:0:
448,192,183538,128,0,183882:0:0:0:0:
192,192,184055,1,0,0:0:0:0:
448,192,184055,1,0,0:0:0:0:
64,192,184227,1,0,0:0:0:0:
320,192,184227,1,0,0:0:0:0:
320,192,184400,1,0,0:0:0:0:
192,192,184400,1,0,0:0:0:0:
192,192,184572,1,0,0:0:0:0:
448,192,184572,1,0,0:0:0:0:
64,192,184744,1,0,0:0:0:0:
320,192,184917,128,0,185262:0:0:0:0:
192,192,184917,128,0,185262:0:0:0:0:
448,192,185434,1,0,0:0:0:0:
192,192,185607,1,0,0:0:0:0:
320,192,185607,1,0,0:0:0:0:
192,192,185779,1,0,0:0:0:0:
64,192,185951,1,0,0:0:0:0:
448,192,185951,1,0,0:0:0:0:
192,192,186124,1,0,0:0:0:0:
192,192,186296,128,0,186641:0:0:0:0:
320,192,186296,128,0,186641:0:0:0:0:
192,192,186813,1,0,0:0:0:0:
320,192,186813,1,0,0:0:0:0:
192,192,186986,128,0,187331:0:0:0:0:
320,192,186986,128,0,187331:0:0:0:0:
192,192,187503,1,0,0:0:0:0:
320,192,187503,1,0,0:0:0:0:
64,192,187675,128,0,188020:0:0:0:0:
448,192,187675,128,0,188020:0:0:0:0:
192,192,187848,1,0,0:0:0:0:
320,192,187848,1,0,0:0:0:0:
320,192,188193,1,0,0:0:0:0:
192,192,188365,1,0,0:0:0:0:
320,192,188365,1,0,0:0:0:0:
64,192,188537,1,0,0:0:0:0:
448,192,188537,1,0,0:0:0:0:
192,192,188710,1,0,0:0:0:0:
320,192,188710,1,0,0:0:0:0:
64,192,189055,128,0,189399:0:0:0:0:
320,192,189055,128,0,189399:0:0:0:0:
64,192,189572,1,0,0:0:0:0:
320,192,189572,1,0,0:0:0:0:
192,192,189744,1,0,0:0:0:0:
448,192,189744,1,0,0:0:0:0:
320,192,189917,1,0,0:0:0:0:
64,192,190089,1,0,0:0:0:0:
320,192,190089,1,0,0:0:0:0:
192,192,190434,128,0,190779:0:0:0:0:
448,192,190434,128,0,190779:0:0:0:0:
192,192,190951,1,0,0:0:0:0:
320,192,191123,1,0,0:0:0:0:
64,192,191123,1,0,0:0:0:0:
448,192,191296,1,0,0:0:0:0:
192,192,191468,1,0,0:0:0:0:
448,192,191468,1,0,0:0:0:0:
64,192,191641,1,0,0:0:0:0:
192,192,191813,128,0,192158:0:0:0:0:
320,192,191813,128,0,192158:0:0:0:0:
192,192,192330,1,0,0:0:0:0:
64,192,192503,128,0,192847:0:0:0:0:
448,192,192503,128,0,192847:0:0:0:0:
320,192,192675,1,0,0:0:0:0:
192,192,193020,1,0,0:0:0:0:
192,192,193192,128,0,193537:0:0:0:0:
320,192,193192,128,0,193537:0:0:0:0:
64,192,193709,1,0,0:0:0:0:
192,192,193882,1,0,0:0:0:0:
320,192,193882,1,0,0:0:0:0:
448,192,194054,1,0,0:0:0:0:
192,192,194227,1,0,0:0:0:0:
320,192,194227,1,0,0:0:0:0:
192,192,194399,1,0,0:0:0:0:
320,192,194399,1,0,0:0:0:0:
64,192,194572,128,0,194916:0:0:0:0:
448,192,194572,128,0,194916:0:0:0:0:
192,192,195089,1,0,0:0:0:0:
192,192,195261,1,0,0:0:0:0:
320,192,195261,1,0,0:0:0:0:
64,192,195434,1,0,0:0:0:0:
448,192,195434,1,0,0:0:0:0:
192,192,195606,1,0,0:0:0:0:
320,192,195606,1,0,0:0:0:0:
192,192,195778,1,0,0:0:0:0:
448,192,195778,1,0,0:0:0:0:
192,192,195951,1,0,0:0:0:0:
320,192,196123,1,0,0:0:0:0:
192,192,196296,1,0,0:0:0:0:
320,192,196468,1,0,0:0:0:0:
64,192,196640,1,0,0:0:0:0:
448,192,196813,1,0,0:0:0:0:
64,192,196985,1,0,0:0:0:0:
448,192,197158,1,0,0:0:0:0:
64,192,197330,128,0,197675:0:0:0:0:
448,192,197330,128,0,197675:0:0:0:0:
64,192,198020,1,0,0:0:0:0:
448,192,198020,1,0,0:0:0:0:
64,192,198192,1,0,0:0:0:0:
448,192,198192,1,0,0:0:0:0:
64,192,198364,1,0,0:0:0:0:
448,192,198364,1,0,0:0:0:0:
192,192,198451,1,0,0:0:0:0:
320,192,198537,1,0,0:0:0:0:
448,192,198623,1,0,0:0:0:0:
192,192,198709,128,0,199054:0:0:0:0:
320,192,198709,128,0,199054:0:0:0:0:
64,192,199409,1,0,0:0:0:0:
448,192,199409,1,0,0:0:0:0:
192,192,199754,1,0,0:0:0:0:
320,192,199754,1,0,0:0:0:0:
192,192,200099,128,0,200444:0:0:0:0:
320,192,200099,128,0,200444:0:0:0:0:
192,192,200788,1,0,0:0:0:0:
320,192,200788,1,0,0:0:0:0:
64,192,201133,1,0,0:0:0:0:
448,192,201133,1,0,0:0:0:0:
192,192,201478,128,0,201823:0:0:0:0:
320,192,201478,128,0,201823:0:0:0:0:
64,192,202168,1,0,0:0:0:0:
448,192,202168,1,0,0:0:0:0:
448,192,202512,1,0,0:0:0:0:
64,192,202512,1,0,0:0:0:0:
192,192,202857,128,0,203202:0:0:0:0:
320,192,202857,128,0,203202:0:0:0:0:
192,192,203547,1,0,0:0:0:0:
320,192,203547,1,0,0:0:0:0:
192,192,203892,1,0,0:0:0:0:
320,192,203892,1,0,0:0:0:0:
448,192,204236,1,4,0:0:0:0:
64,192,204236,1,4,0:0:0:0:
192,192,204236,1,4,0:0:0:0:
320,192,204236,1,4,0:0:0:0:
