osu file format v7

[General]
AudioFilename: Kyven_-_All_Beginning.mp3
AudioLeadIn: 0
PreviewTime: 68518
Countdown: 1
SampleSet: Normal
StackLeniency: 0.7
Mode: 0
LetterboxInBreaks: 1
EpilepsyWarning: 1

[Editor]
Bookmarks: 23043,31733,32275,41547,51604,55354,62566,67759,68625,69202,73241,77743,86541,86800,91704,96176,106273,115793,124592,133247,141902,143955,145685,159788,174790,179983,199339,201070,211717,230180,253837,257888
DistanceSpacing: 0.800000011920929
BeatDivisor: 4
GridSize: 8

[Metadata]
Title:All Beginning
Artist:Kyven
Creator:Sakura301
Version:Back Dancer
Source:Audition
Tags:Redbana Online Dance Battle Sample-8

[Difficulty]
HPDrainRate:6
CircleSize:5
OverallDifficulty:7
SliderMultiplier:1.9
SliderTickRate:1

[Events]
//Background and Video events
0,0,"Audition_Wallpaper_by_glamofficial.jpg"
//Break Periods
2,97703,105545
2,180202,197564
//Storyboard Layer 0 (Background)
//Storyboard Layer 1 (Fail)
//Storyboard Layer 2 (Pass)
//Storyboard Layer 3 (Foreground)
//Storyboard Sound Samples
//Background Colour Transformations
3,100,0,0,0

[TimingPoints]
23080,576.924271844662,4,1,0,50,1,0
59998,-100,4,1,0,50,0,1
59999,-100,4,1,0,50,0,0
69219,-100,4,1,0,50,0,1
76301,-100,4,1,0,11,0,0
76445,-100,4,1,0,21,0,0
76589,-100,4,1,0,25,0,0
76733,-100,4,1,0,31,0,0
76878,-100,4,1,0,35,0,0
77017,-100,4,1,0,50,0,0
92310,-100,4,1,0,50,0,1
96921,-100,4,1,0,50,0,0
124614,-100,4,1,0,50,0,1
124615,-100,4,1,0,50,0,0
133844,-100,4,1,0,50,0,1
142210,-100,4,1,0,50,0,0
156925,-100,4,1,0,50,0,1
160671,-100,4,1,0,50,0,0
175387,-100,4,1,0,50,0,1
179133,-100,4,1,0,50,0,0
230772,-100,4,1,0,50,0,1
234518,-100,4,1,0,50,0,0
249233,-100,4,1,0,50,0,1
253268,-100,4,1,0,50,0,0

[Colours]
Combo1 : 255,94,255
Combo2 : 241,1,128
Combo3 : 255,133,255

[HitObjects]
104,40,23079,2,0,B|208:136|16:240|144:312,1,285,0|0
202,298,24233,1,8
131,347,25387,2,0,B|256:272|320:384|416:328,1,285,0|0
408,256,26541,1,2
408,80,27695,2,0,B|256:136|152:24|104:112,1,285,0|0
128,160,28849,1,8
256,192,29426,12,4,31733
64,192,32599,5,0
64,192,32743,1,0
64,192,32888,2,2,B|160:192,1,95
56,320,33464,5,0
136,320,33753,1,0
216,320,34041,1,8
296,320,34330,1,0
376,320,34618,1,0
376,248,34906,6,0,B|376:144,3,95
296,152,36060,1,0
216,152,36349,1,8
136,152,36637,1,0
56,152,36926,5,8
56,224,37214,1,0
120,272,37503,1,0
192,296,37791,1,0
264,264,38080,1,8
328,224,38368,1,0
384,176,38656,1,8
376,104,38945,1,0
304,80,39233,2,0,B|160:152|336:256|160:304,1,285,0|8
256,192,40387,12,4,41541
400,136,41830,5,0
360,144,41974,1,8
328,160,42118,1,0
256,72,42695,6,0,B|192:168|336:280|248:352,1,285
112,128,44137,5,0
152,144,44281,1,0
184,160,44425,1,0
184,232,44714,1,2
112,256,45003,1,2
256,192,45580,1,8
448,192,46156,5,0
416,168,46301,1,0
360,112,46589,1,0
288,88,46878,1,0
216,112,47166,1,0
152,152,47455,1,0
88,192,47743,1,0
144,240,48031,1,0
240,304,48464,2,0,B|140:346|60:282,3,190,4|0|0|0
56,144,51060,5,0
56,184,51205,1,0
56,224,51349,1,0
56,304,51637,5,0
136,304,51926,1,0
216,304,52214,1,0
296,304,52503,1,0
376,304,52791,1,0
456,304,53080,1,0
456,192,53368,5,0
424,216,53512,1,0
392,240,53656,1,8
384,168,53945,1,0
352,192,54089,1,0
320,216,54233,1,8
240,216,54522,5,10
176,168,54810,1,10
64,72,55387,5,0
144,72,55676,2,0,B|144:120|224:136,1,95
248,72,56253,1,0
288,136,56541,1,0
328,200,56830,1,0
344,272,57118,2,0,B|272:272|240:248,1,95
184,224,57695,5,0
128,168,57983,1,0
56,136,58272,2,0,B|8:184|64:232,1,95
104,272,58849,1,0
176,288,59137,1,0
256,288,59426,1,0
328,272,59714,1,0
392,192,60003,5,0
256,112,60580,1,0
120,192,61157,1,0
256,272,61733,1,0
368,192,62022,5,0
328,192,62166,1,0
288,192,62310,1,8
144,192,62599,5,0
184,192,62743,1,0
224,192,62887,1,8
256,80,63176,5,0
256,120,63320,1,0
256,160,63464,1,8
256,304,63753,5,0
256,264,63897,1,0
256,224,64041,1,8
256,184,64185,5,0
296,184,64330,1,8
336,184,64474,1,8
376,184,64618,2,0,B|480:184,2,95,8|0|0
376,184,65483,1,0
136,184,65772,6,0,B|32:184,2,95
256,192,66493,12,0,67791
424,80,68657,6,0,B|368:80|336:120,1,95
336,192,69233,1,0
256,200,69522,1,0
176,192,69810,1,0
164,115,70099,2,0,B|136:80|80:80,1,95
88,304,70964,6,0,B|144:304|176:264,1,95
176,192,71540,1,0
256,184,71829,1,0
336,192,72117,1,0
347,268,72406,2,0,B|376:304|432:304,1,95
56,192,73272,5,0
128,192,73560,1,0
208,192,73849,1,0
280,192,74137,1,0
360,192,74426,1,0
432,192,74714,2,0,B|440:264|352:328|240:328|120:320|72:264|56:192,1,475
136,192,76445,5,0
176,192,76589,1,0
216,192,76733,1,0
256,192,76878,1,0
296,192,77022,1,0
336,192,77166,1,0
376,192,77310,6,0,B|400:248|384:296|328:304,1,142.5
304,280,77887,1,0
168,128,78464,6,0,B|88:64,2,95
168,256,79330,2,0,B|88:320,2,95
344,128,80195,2,0,B|424:64,2,95
344,256,81061,2,0,B|424:320,2,95
256,192,81926,1,0
256,192,82214,1,0
256,192,82503,1,0
424,96,83080,5,0
352,96,83368,2,0,B|248:96,2,95
352,176,84233,2,0,B|448:176,2,95
256,192,85099,12,0,86541
88,88,86830,5,0
88,200,87262,1,0
88,312,87695,2,0,B|160:256|200:352|272:288,3,190
336,264,89714,1,0
336,112,90291,1,0
184,280,91733,5,0
128,224,92022,1,0
128,152,92310,1,0
192,104,92599,1,0
320,104,92887,5,0
384,152,93176,1,0
384,224,93464,1,0
328,280,93753,1,0
176,168,94041,5,0
336,168,94330,1,0
208,264,94618,1,0
256,104,94907,1,0
304,264,95195,1,0
256,192,95483,1,0
256,192,95772,1,0
256,192,96060,1,0
256,192,96349,12,4,97503
144,112,106445,5,0
176,136,106589,1,8
208,160,106734,1,0
256,304,107310,6,0,B|288:216|192:152|280:104,2,190
328,328,108753,5,0
328,288,108897,1,0
328,248,109041,1,0
328,208,109185,1,0
328,168,109330,1,0
328,128,109474,1,8
328,88,109618,1,0
328,48,109762,1,8
40,72,110772,5,0
40,184,111349,1,0
40,296,111926,1,0
192,296,112503,1,0
192,256,112647,1,0
192,216,112791,1,0
256,80,113080,6,0,B|288:168|192:232|280:280,3,190
312,200,115676,5,0
288,168,115820,1,8
200,168,116109,1,0
224,200,116253,1,8
256,272,116541,6,0,B|352:272,1,95
352,192,117118,2,0,B|352:96,1,95
272,96,117695,2,0,B|168:96,1,95
136,96,118128,2,0,B|40:96,1,95
40,176,118705,2,0,B|144:176,1,95
136,288,119426,5,0
208,288,119714,1,0
312,288,120003,5,0
360,232,120291,1,0
360,152,120580,1,0
312,96,120868,1,0
208,96,121157,1,0
152,152,121445,1,0
152,232,121734,1,0
208,288,122022,1,0
344,168,122310,5,0
168,168,122599,1,0
306,271,122887,1,0
256,104,123176,1,0
207,271,123464,1,0
256,192,123752,1,0
256,192,124041,1,0
408,192,124618,5,0
256,192,125195,1,0
104,192,125772,1,0
332,274,126926,6,0,B|384:224|384:152|320:112,1,190
256,192,127792,1,0
179,274,128080,2,0,B|128:224|128:152|190:113,1,190
232,112,128801,5,0
272,112,128945,1,0
312,112,129089,1,0
352,112,129234,1,0
352,184,129522,1,0
352,256,129811,1,0
280,256,130099,1,0
208,256,130387,1,0
136,256,130676,1,0
64,256,130964,2,0,B|64:152,4,95
40,56,133272,6,0,B|96:56|128:104,1,95
56,128,133849,2,0,B|72:192|136:184,1,95
128,112,134426,2,0,B|192:112|200:168,1,95
128,184,135003,2,0,B|160:240|216:224,1,95
256,168,135580,5,0
256,128,135724,1,0
256,88,135868,1,0
336,88,136157,2,0,B|376:128|344:176,1,95
272,184,136734,2,0,B|248:240|288:272,1,95
360,264,137311,2,0,B|400:320|344:360,1,95
280,352,137887,5,0
240,352,138032,1,0
200,352,138176,1,0
128,344,138464,2,0,B|96:288|152:256,1,95
216,296,139041,2,0,B|248:264|232:200,1,95
160,224,139618,2,0,B|144:168|208:144,1,95
256,104,140195,2,0,B|256:8,4,95
256,192,141637,1,0
400,112,142214,5,0
400,192,142503,1,0
400,264,142791,1,0
256,320,143080,6,0,B|184:240|328:160|248:48,2,285
176,320,145099,1,0
176,168,145676,1,0
72,96,147695,5,0
136,136,147983,1,0
64,160,148272,2,0,B|112:192|136:224,1,95
64,240,148849,1,0
128,288,149137,1,0
208,288,149426,2,0,B|176:240|208:192,1,95
272,232,150003,2,0,B|303:184|275:143,1,95
216,192,150580,2,0,B|184:144|216:96,1,95
288,104,151157,1,0
360,104,151445,5,0
360,216,151878,1,0
360,328,152311,2,0,B|280:264|232:384|160:280,1,190
144,240,153176,2,0,B|208:176|264:264|328:200,1,190
400,80,154330,1,0
400,232,154907,1,0
432,56,156349,5,0
400,72,156493,1,0
360,80,156637,1,0
288,88,156926,2,0,B|248:48|200:88,1,95
256,144,157503,2,0,B|208:184|144:128,1,95
96,136,158080,2,0,B|48:184|104:232,1,95
168,232,158657,5,0
208,232,158801,1,0
248,232,158945,1,0
296,176,159234,2,0,B|328:224|296:272,1,95
240,320,159811,2,0,B|288:360|336:328,1,95
320,256,160387,2,0,B|368:224|432:256,1,95
360,192,160964,5,0
280,192,161253,1,0
200,192,161541,2,0,B|200:40|72:40|72:208,2,285
208,272,163561,1,0
256,328,163849,1,0
304,272,164137,2,0,B|288:104|432:104|400:288,1,285
100,192,166157,5,0
156,144,166445,1,0
220,104,166734,1,0
292,104,167022,1,0
360,144,167311,1,0
420,192,167599,1,0
360,240,167887,1,0
292,280,168176,1,0
220,280,168464,1,0
156,240,168753,1,0
96,192,169041,1,0
96,80,169907,5,0
96,192,170339,1,0
96,304,170772,2,0,B|200:224|256:368|384:280,2,285
96,224,172791,1,0
96,72,173368,1,0
408,288,174811,5,0
368,288,174955,1,0
328,288,175099,1,0
248,288,175388,2,0,B|192:256|144:296,3,95
80,288,176541,1,0
80,208,176830,1,0
80,136,177118,5,0
80,176,177263,1,0
120,176,177407,1,0
192,176,177695,2,0,B|240:144|288:184,2,95
192,256,178561,1,0
264,256,178849,2,0,B|360:256,1,95
432,256,179426,2,0,B|424:184|376:144|296:152,1,190
113,74,198464,6,0,B|193:170|41:266|129:354,1,285
120,344,199618,2,0,B|225:226|321:370|385:314,1,285
383,316,200772,2,0,B|449:226|289:138|377:42,1,285
96,240,203080,6,0,B|96:144,1,95
176,239,203657,2,0,B|176:144,1,95
256,240,204234,2,0,B|256:128,1,95
336,239,204811,2,0,B|336:144,1,95
416,240,205388,2,0,B|416:136,2,95
104,340,206830,5,0
104,224,207263,1,0
104,112,207695,1,0
104,32,207984,1,0
256,56,208561,2,0,B|256:344,1,285
328,346,209715,1,0
192,344,210291,1,0
48,56,211734,5,0
48,96,211878,1,0
48,136,212022,1,0
48,216,212311,2,0,B|96:176|144:216,1,95
208,208,212888,2,0,B|256:176|304:216,1,95
376,216,213465,2,0,B|424:176|472:224,1,95
464,288,214041,1,0
464,248,214186,1,0
424,248,214330,1,0
352,248,214618,2,0,B|304:288|264:248,1,95
256,184,215195,5,0
256,32,215772,1,0
104,32,216349,1,0
104,192,216926,1,0
104,112,217215,1,0
256,112,217791,1,0
176,112,218080,1,0
176,192,218368,1,0
328,192,218945,1,0
256,192,219234,2,0,B|256:288,1,95
256,192,219811,12,4,221253
220,104,221541,5,0
292,192,221830,1,0
196,256,222118,1,0
124,168,222407,1,0
204,184,222695,5,0
292,112,222984,1,0
372,200,223272,1,0
284,272,223561,1,0
256,192,223849,12,0,225003
136,104,225291,5,0
136,184,225580,1,0
288,184,226157,2,0,B|328:96|408:240|440:120|496:184,1,190
456,240,227022,2,0,B|379:359|275:175|195:263,1,285
120,256,228176,1,0
120,104,228753,1,0
432,80,230195,5,0
400,104,230340,1,0
368,128,230484,1,0
176,176,230772,5,0
336,176,231061,1,0
208,264,231349,1,0
256,112,231638,1,0
304,264,231926,1,0
256,192,232215,1,0
256,192,232503,5,0
256,224,232647,1,0
256,256,232791,1,0
336,176,233080,5,0
176,176,233369,1,0
304,264,233657,1,0
256,112,233946,1,0
208,264,234234,1,0
256,192,234523,1,0
112,88,234811,6,0,B|16:160|168:240|80:360,1,285
85,352,235965,1,0
85,352,236253,2,0,B|128:208|240:320|312:200,1,285
307,206,237407,1,0
307,206,237695,2,0,B|256:56|160:224|80:72,1,285
83,78,238849,1,0
368,192,240003,5,0
256,96,240291,1,0
144,192,240580,1,0
256,288,240868,1,0
368,152,241157,5,0
208,96,241445,1,0
144,240,241734,1,0
296,288,242022,1,0
368,112,242311,5,0
160,96,242599,1,0
144,280,242888,1,0
344,288,243176,1,0
220,191,243753,5,0
336,192,244186,1,0
136,192,244618,2,0,B|144:88|112:40|80:40|48:88|48:192,2,285
136,272,246638,1,0
256,192,246926,12,0,248368
48,88,248657,5,0
88,88,248801,1,0
128,88,248945,1,0
168,88,249090,1,0
208,88,249234,1,0
168,168,249522,5,0
344,168,249811,1,0
206,271,250099,1,0
256,104,250388,1,0
305,271,250676,1,0
416,136,250965,5,0
416,176,251109,1,0
416,216,251253,1,0
416,256,251397,1,0
416,296,251542,1,0
344,168,251830,5,0
168,168,252119,1,0
306,271,252407,1,0
256,104,252696,1,0
207,271,252984,1,0
256,192,253849,12,0,258465
