osu file format v14

[General]
AudioFilename: Kyounosuke - Tsuki Kage Mai Hana.mp3
AudioLeadIn: 0
PreviewTime: 31500
Countdown: 0
SampleSet: None
StackLeniency: 0.9
Mode: 0
LetterboxInBreaks: 0
WidescreenStoryboard: 0

[Editor]
DistanceSpacing: 1.2
BeatDivisor: 4
GridSize: 4
TimelineZoom: 1.6

[Metadata]
Title:Tsuki Kage Mai Hana
TitleUnicode:月・影・舞・華
Artist:Kyounosuke
ArtistUnicode:杏ノ助
Creator:cmn_891127
Version:Normal
Source:
Tags:Shiki_nyan utaite Moon Light Dancing Flower
BeatmapID:451547
BeatmapSetID:189474

[Difficulty]
HPDrainRate:5
CircleSize:3.5
OverallDifficulty:5
ApproachRate:6
SliderMultiplier:1.4
SliderTickRate:1

[Events]
//Background and Video events
0,0,"osu_BG.png",0,0
//Break Periods
//Storyboard Layer 0 (Background)
//Storyboard Layer 1 (Fail)
//Storyboard Layer 2 (Pass)
//Storyboard Layer 3 (Foreground)
//Storyboard Sound Samples

[TimingPoints]
5,375,4,1,0,65,1,0
755,428.571428571429,4,1,0,65,1,8
755,-87.4999999999999,4,1,0,65,0,0
1183,461.538461538462,4,1,0,65,1,8
1183,-81.2499999999999,4,1,0,65,0,0
1644,410.958904109589,4,1,0,65,1,0
1644,-91.25,4,1,0,65,0,0
3287,428.571428571429,4,1,0,65,1,0
3287,-87.4999999999999,4,1,0,65,0,0
4144,375,4,1,0,65,1,8
4519,361.44578313253,4,1,0,65,1,0
4519,-103.75,4,1,0,65,0,0
5603,361.44578313253,4,1,0,65,1,0
5603,-103.75,4,1,0,65,0,0
5964,545.454545454546,4,1,0,65,1,8
5964,-68.7499999999999,4,1,0,65,0,0
6236,500,4,1,0,65,1,8
6236,-75,4,1,0,65,0,0
6486,545.454545454546,4,1,0,65,1,8
6486,-68.7499999999999,4,1,0,65,0,0
6758,666.666666666667,4,1,0,65,1,0
6758,-56.25,4,1,0,65,0,0
7091,500,4,1,0,65,1,8
7091,-75,4,1,0,65,0,0
7591,375,4,1,0,65,1,8
8716,500,4,1,0,65,1,0
8716,-75,4,1,0,65,0,0
9716,705.882352941176,4,1,0,65,1,8
9716,-66.40625,4,1,0,65,0,0
10421,952.380952380952,4,1,0,65,1,8
10421,-65.625,4,1,0,65,0,0
11373,933.125972006221,4,1,0,65,1,0
11373,-100.46875,4,1,0,65,0,0
16505,375,4,3,0,65,1,0
17255,375,4,3,0,50,1,0
29630,-100,4,3,0,30,0,0
32255,-100,4,3,0,50,0,1
43880,-100,4,3,0,40,0,0
57380,375,4,3,0,40,1,0
58880,-100,4,3,0,50,0,0
60380,-133.333333333333,4,3,0,30,0,0
72380,-100,4,3,0,30,0,0
84380,-100,4,3,0,50,0,1
96005,-100,4,3,0,50,0,0

[Colours]
Combo1 : 191,213,234
Combo2 : 53,106,159
Combo3 : 112,159,207

[HitObjects]
75,80,17255,6,0,B|147:93|156:34|206:46,1,140,12|2,0:0|0:0,0:0:0:0:
288,63,17818,2,0,B|288:100|269:100|269:129,2,70,0|4|0,0:0|0:0|0:0,0:0:0:0:
369,84,18380,2,0,B|369:119|351:119|351:151,1,70,2|0,0:0|0:0,0:0:0:0:
322,230,18756,2,0,P|390:224|432:171,2,140,4|0|0,0:0|0:0|0:0,0:0:0:0:
238,230,19692,1,0,0:0:0:0:
231,231,19880,2,0,P|196:228|165:212,1,70,2|0,0:0|0:0,0:0:0:0:
220,148,20255,6,0,L|231:114,2,35,12|0|0,0:0|0:0|0:0,0:0:0:0:
300,173,20630,2,0,B|332:178|346:158|369:165,1,70,2|0,0:0|0:0,0:0:0:0:
398,244,21005,2,0,P|448:196|444:127,1,140,4|2,0:0|0:0,0:0:0:0:
376,81,21567,2,0,P|401:57|436:44,2,70,0|4|0,0:0|0:0|0:0,0:0:0:0:
368,165,22130,1,2,0:0:0:0:
398,243,22317,2,0,L|411:275,2,35,0|0|4,0:0|0:0|0:0,0:0:0:0:
328,289,22692,2,0,P|295:275|260:274,1,70,0|2,0:0|0:0,0:0:0:0:
179,293,23067,1,0,0:0:0:0:
103,255,23255,6,0,L|126:229,2,35,12|0|0,0:0|0:0|0:0,0:0:0:0:
54,186,23630,2,0,P|39:121|85:60,1,140,2|4,0:0|0:0,0:0:0:0:
159,41,24192,1,0,0:0:0:0:
230,85,24380,2,0,B|261:82|273:104|298:99,1,70,2|0,0:0|0:0,0:0:0:0:
375,68,24755,2,0,B|409:56|409:56|390:78|374:113|403:168,1,140,4|2,0:0|0:0,0:0:0:0:
474,181,25317,2,0,P|479:146|470:113,2,70,0|4|0,0:0|0:0|0:0,0:0:0:0:
413,238,25880,2,0,P|378:239|345:251,1,70,2|0,0:0|0:0,0:0:0:0:
273,295,26255,6,0,L|268:331,2,35,12|0|0,0:0|0:0|0:0,0:0:0:0:
214,234,26630,2,0,P|188:210|155:198,1,70,2|0,0:0|0:0,0:0:0:0:
178,117,27005,2,0,P|212:127|246:121,1,70,4|0,0:0|0:0,0:0:0:0:
310,175,27380,2,0,B|289:192|289:192|362:187|393:224,1,140,2|4,0:0|0:0,0:0:0:0:
476,212,27942,2,0,P|474:249|458:279,1,70,0|2,0:0|0:0,0:0:0:0:
393,330,28317,2,0,L|410:361,2,35,0|0|4,0:0|0:0|0:0,0:0:0:0:
330,273,28693,2,0,P|296:253|252:253,2,70,0|2|0,0:0|0:0|0:0,0:0:0:0:
273,335,29255,6,0,B|278:354|278:354|237:305|170:322,1,140,0|0,0:0|0:0,0:0:0:0:
103,269,29817,2,0,P|130:247|166:240,1,70,0|0,0:0|0:0,0:0:0:0:
247,233,30192,1,0,0:0:0:0:
253,236,30379,2,0,P|320:242|370:196,2,140,0|0|0,0:0|0:0|0:0,0:0:0:0:
295,163,31317,2,0,L|314:133,2,35,0|0|0,0:0|0:0|0:0,0:0:0:0:
221,122,31692,6,0,L|241:88,5,35,0|0|0|0|0|0,0:0|0:0|0:0|0:0|0:0|0:0,0:0:0:0:
256,53,32255,2,0,P|198:90|125:76,2,140,12|2|4,0:0|0:0|0:0,0:0:0:0:
366,179,33380,2,0,P|368:214|352:246,1,70,2|0,0:0|0:0,0:0:0:0:
284,196,33755,2,0,B|236:187|201:212|201:212|180:210,1,105,4|0,0:0|0:0,0:0:0:0:
144,190,34130,2,0,P|112:179|75:182,2,70,2|0|4,0:0|0:0|0:0,0:0:0:0:
309,117,34880,6,0,P|346:92|357:58,1,70,2|0,0:0|0:0,0:0:0:0:
277,38,35255,2,0,B|218:23|208:65|140:57,1,140,12|2,0:0|0:0,0:0:0:0:
87,122,35817,1,0,0:0:0:0:
87,206,36005,2,0,P|137:162|209:171,1,140,4|2,0:0|0:0,0:0:0:0:
167,243,36567,2,0,P|199:253|234:249,1,70,0|4,0:0|0:0,0:0:0:0:
310,211,36942,1,0,0:0:0:0:
316,212,37130,2,0,P|351:210|383:191,2,70,2|0|4,0:0|0:0|0:0,0:0:0:0:
385,58,37880,6,0,P|350:61|316:51,1,70,2|0,0:0|0:0,0:0:0:0:
235,72,38255,2,0,B|248:109|218:151|185:141|168:152|166:182,1,140,12|2,0:0|0:0,0:0:0:0:
296,286,39005,2,0,B|270:284|255:301|227:299,1,70,4|0,0:0|0:0,0:0:0:0:
150,334,39380,2,0,P|143:299|150:265,1,70,2|0,0:0|0:0,0:0:0:0:
103,196,39755,2,0,P|151:208|203:195,1,105,4|0,0:0|0:0,0:0:0:0:
241,176,40130,2,0,P|225:206|228:251,2,70,2|0|4,0:0|0:0|0:0,0:0:0:0:
60,98,40880,6,0,P|92:113|127:114,1,70,2|0,0:0|0:0,0:0:0:0:
209,95,41255,2,0,P|273:95|328:155,1,140,12|2,0:0|0:0,0:0:0:0:
353,224,41817,2,0,P|319:230|284:219,2,70,0|4|0,0:0|0:0|0:0,0:0:0:0:
411,284,42380,2,0,P|438:222|408:160,1,140,2|12,0:0|0:0,0:0:0:0:
326,145,42942,2,0,L|306:77,2,70,8|8|8,0:0|0:0|0:0,0:0:0:0:
266,204,43505,2,0,L|225:69,1,140,12|4,0:0|0:0,0:0:0:0:
58,85,44255,5,12,0:0:0:0:
224,63,44630,1,2,0:0:0:0:
88,162,45005,1,4,0:0:0:0:
33,225,45192,2,0,P|17:258|24:307,2,70,0|2|0,0:0|0:0|0:0,0:0:0:0:
99,276,45755,2,0,B|157:265|177:309|242:282,1,140,4|2,0:0|0:0,0:0:0:0:
296,226,46317,1,0,0:0:0:0:
356,284,46505,2,0,P|379:218|340:155,1,140,4|2,0:0|0:0,0:0:0:0:
418,7,47255,5,4,0:0:0:0:
340,157,47630,1,4,0:0:0:0:
479,63,48005,1,0,0:0:0:0:
495,145,48192,2,0,L|511:214,2,70,4|0|2,0:0|0:0|0:0,0:0:0:0:
412,164,48755,2,0,L|428:233,1,70,0|4,0:0|0:0,0:0:0:0:
368,291,49130,2,0,L|346:333,2,35,0|0|0,0:0|0:0|0:0,0:0:0:0:
288,263,49505,1,2,0:0:0:0:
214,222,49692,2,0,P|268:182|335:195,2,140,4|2|4,0:0|0:0|0:0,0:0:0:0:
320,92,50817,6,0,B|258:120|221:70|183:88,1,140,8|4,0:0|0:0,0:0:0:0:
111,45,51380,2,0,P|131:22|174:5,2,70,0|2|0,0:0|0:0|0:0,0:0:0:0:
113,128,51942,2,0,P|138:190|202:212,2,140,8|4|2,0:0|0:0|0:0,0:0:0:0:
197,128,52880,2,0,P|224:112|269:112,2,70,0|8|0,0:0|0:0|0:0,0:0:0:0:
250,192,53442,6,0,L|208:234,4,35,4|0|0|0|2,0:0|0:0|0:0|0:0|0:0,0:0:0:0:
333,203,54005,1,0,0:0:0:0:
345,120,54192,2,0,P|331:60|264:27,2,140,4|2|4,0:0|0:0|0:0,0:0:0:0:
261,110,55130,2,0,L|217:100,4,35,0|0|2|0|0,0:0|0:0|0:0|0:0|0:0,0:0:0:0:
294,186,55692,6,0,P|268:198|216:199,1,70,0|4,0:0|0:0,0:0:0:0:
378,274,56255,2,0,B|438:268|453:307|512:306,2,140,0|0|0,0:0|0:0|0:0,0:0:0:0:
210,256,57380,2,0,P|130:217|145:111,1,210,4|0,0:0|0:0,0:0:0:0:
202,172,58130,2,0,B|262:166|277:205|341:195,2,140,4|2|4,0:0|0:0|0:0,0:0:0:0:
418,242,60380,5,4,0:0:0:0:
416,237,60755,1,2,0:0:0:0:
412,232,61130,2,0,P|374:209|313:209,1,105.000004005432,2|2,0:0|0:0,0:0:0:0:
249,155,61692,2,0,P|226:161|184:160,1,52.5000020027161,0|4,0:0|0:0,0:0:0:0:
352,95,62255,2,0,B|391:85|418:107|455:97,2,105.000004005432,2|2|2,0:0|0:0|0:0,0:0:0:0:
190,142,63380,6,0,P|205:186|201:243,1,105.000004005432,4|2,0:0|0:0,0:0:0:0:
368,254,64130,2,0,P|341:280|300:292,2,78.7500030040742,2|0|0,0:0|0:0|0:0,0:0:0:0:
412,182,64880,2,0,B|454:180|470:211|511:208,1,105.000004005432,4|2,0:0|0:0,0:0:0:0:
397,85,65630,2,0,B|439:83|455:114|496:111,1,105.000004005432,2|2,0:0|0:0,0:0:0:0:
332,146,66380,5,4,0:0:0:0:
326,149,66755,1,2,0:0:0:0:
320,150,67130,2,0,P|261:144|221:109,1,105.000004005432,2|2,0:0|0:0,0:0:0:0:
176,184,67692,2,0,P|153:175|121:173,1,52.5000020027161,0|4,0:0|0:0,0:0:0:0:
269,259,68255,2,0,P|224:254|166:276,2,105.000004005432,2|2|2,0:0|0:0|0:0,0:0:0:0:
419,183,69380,6,0,P|372:199|317:191,1,105.000004005432,4|2,0:0|0:0,0:0:0:0:
261,129,69942,1,0,0:0:0:0:
266,125,70130,2,0,P|283:80|272:23,2,105.000004005432,2|2|4,0:0|0:0|0:0,0:0:0:0:
326,190,71067,1,2,0:0:0:0:
320,188,71255,2,0,P|255:184|218:199,2,105.000004005432,4|4|12,0:0|0:0|0:0,0:0:0:0:
398,33,72380,6,0,P|381:78|392:135,1,105.000004005432,12|0,0:0|0:0,0:0:0:0:
432,138,72755,2,0,B|376:119|323:155|323:155|297:149,1,140,2|4,0:0|0:0,0:0:0:0:
250,319,73505,2,0,P|268:289|270:255,1,70,2|0,0:0|0:0,0:0:0:0:
187,264,73880,2,0,P|155:242|150:144,1,140,4|2,0:0|0:0,0:0:0:0:
221,187,74442,1,0,0:0:0:0:
226,185,74630,2,0,B|276:175|307:220|371:204,1,140,4|2,0:0|0:0,0:0:0:0:
494,102,75380,6,0,P|443:139|371:121,1,140,12|2,0:0|0:0,0:0:0:0:
424,56,75942,2,0,P|392:41|357:40,1,70,0|4,0:0|0:0,0:0:0:0:
193,79,76505,2,0,P|161:93|126:94,1,70,2|0,0:0|0:0,0:0:0:0:
43,82,76880,2,0,P|54:132|38:181,1,105,4|0,0:0|0:0,0:0:0:0:
0,200,77255,2,0,B|54:165|111:193|111:193|137:189,1,140,2|4,0:0|0:0,0:0:0:0:
213,158,77817,2,0,P|247:149|283:153,1,70,0|2,0:0|0:0,0:0:0:0:
464,194,78380,6,0,P|410:201|361:173,1,105,12|0,0:0|0:0,0:0:0:0:
342,213,78755,2,0,P|308:234|271:236,2,70,2|0|4,0:0|0:0|0:0,0:0:0:0:
287,53,79505,2,0,B|233:45|213:79|146:69,1,140,2|4,0:0|0:0,0:0:0:0:
94,132,80067,2,0,P|137:154|170:152,1,70,0|2,0:0|0:0,0:0:0:0:
213,217,80442,2,0,P|248:205|294:211,1,70,0|4,0:0|0:0,0:0:0:0:
411,313,81005,6,0,P|405:278|410:244,2,70,2|0|12,0:0|0:0|0:0,0:0:0:0:
331,157,81755,2,0,P|335:191|330:225,2,70,2|0|4,0:0|0:0|0:0,0:0:0:0:
251,313,82505,2,0,P|245:278|250:244,1,70,2|0,0:0|0:0,0:0:0:0:
247,159,82880,2,0,B|213:170|194:144|172:122|98:142,2,140,12|4|12,0:0|0:0|0:0,0:0:0:0:
415,165,84005,6,0,L|381:152,3,35,2|0|0|0,0:0|0:0|0:0|0:0,0:0:0:0:
342,138,84380,2,0,P|402:134|445:72,2,140,12|2|4,0:0|0:0|0:0,0:0:0:0:
187,71,85505,2,0,B|159:69|145:81|118:80,1,70,2|2,0:0|0:0,0:0:0:0:
140,169,85880,2,0,B|98:179|70:145|26:154,1,105,4|0,0:0|0:0,0:0:0:0:
59,189,86255,2,0,P|68:222|64:259,1,70,2|0,0:0|0:0,0:0:0:0:
11,322,86630,2,0,P|77:340|135:304,1,140,4|2,0:0|0:0,0:0:0:0:
182,235,87192,5,0,0:0:0:0:
188,237,87380,2,0,B|229:246|245:227|286:204|335:222,1,140,12|2,0:0|0:0,0:0:0:0:
397,258,87942,1,0,0:0:0:0:
424,337,88130,2,0,P|473:290|470:222,1,140,4|2,0:0|0:0,0:0:0:0:
399,177,88692,2,0,P|365:177|325:159,1,70,0|4,0:0|0:0,0:0:0:0:
261,117,89067,1,0,0:0:0:0:
255,121,89255,2,0,P|226:131|183:128,2,70,2|0|4,0:0|0:0|0:0,0:0:0:0:
320,262,90005,6,0,P|324:227|312:189,1,70,2|0,0:0|0:0,0:0:0:0:
240,235,90380,2,0,B|226:292|255:325|290:341|290:341|284:358,1,140,12|2,0:0|0:0,0:0:0:0:
172,246,91130,2,0,B|198:249|214:233|241:236,1,70,4|0,0:0|0:0,0:0:0:0:
320,262,91505,2,0,P|324:227|312:189,1,70,2|0,0:0|0:0,0:0:0:0:
364,126,91880,2,0,P|313:135|265:113,1,105,4|0,0:0|0:0,0:0:0:0:
234,86,92255,2,0,P|246:118|241:157,1,70,2|0,0:0|0:0,0:0:0:0:
162,129,92630,2,0,P|152:57|217:2,1,140,4|2,0:0|0:0,0:0:0:0:
278,17,93192,1,0,0:0:0:0:
360,38,93380,6,0,P|394:28|428:34,1,70,12|0,0:0|0:0,0:0:0:0:
399,113,93755,2,0,B|376:131|376:131|417:122|458:125|481:147,1,140,2|4,0:0|0:0,0:0:0:0:
471,230,94317,2,0,P|506:228|537:210,2,70,0|2|0,0:0|0:0|0:0,0:0:0:0:
409,287,94880,2,0,L|388:220,1,70,4|4,0:0|0:0,0:0:0:0:
308,245,95255,2,0,L|327:312,1,70,0|4,0:0|0:0,0:0:0:0:
246,336,95630,2,0,L|211:346,4,35,8|0|0|0|0,0:0|0:0|0:0|0:0|0:0,0:0:0:0:
256,192,96098,12,0,99380,0:0:0:0:
