osu file format v12

[General]
AudioFilename: Accel World.mp3
AudioLeadIn: 3000
PreviewTime: -1
Countdown: 1
SampleSet: Normal
StackLeniency: 0.7
Mode: 0
LetterboxInBreaks: 1
WidescreenStoryboard: 0

[Editor]
DistanceSpacing: 1.4
BeatDivisor: 4
GridSize: 8

[Metadata]
Title:KOTOKO
TitleUnicode:KOTOKO
Artist:Kyoshana
ArtistUnicode:Kyoshana
Creator:kyoshana
Version:Hard
Source:Accel World
Tags:accel
BeatmapID:299013
BeatmapSetID:115793

[Difficulty]
HPDrainRate:7
CircleSize:4
OverallDifficulty:8
ApproachRate:8
SliderMultiplier:1.4
SliderTickRate:1

[Events]
//Background and Video events
0,0,"accel_world_8813.jpg",0,0
//Break Periods
2,34122,38925
//Storyboard Layer 0 (Background)
//Storyboard Layer 1 (Fail)
//Storyboard Layer 2 (Pass)
//Storyboard Layer 3 (Foreground)
//Storyboard Sound Samples
//Background Colour Transformations
3,100,163,162,255

[TimingPoints]
3922,410.958904109589,4,1,0,100,1,0

[HitObjects]
256,336,3921,1,0,0:0:0:0:
256,32,4332,1,0,0:0:0:0:
256,336,4743,1,0,0:0:0:0:
256,192,4949,1,0,0:0:0:0:
256,32,5154,1,0,0:0:0:0:
96,192,5565,1,0,0:0:0:0:
256,192,5771,1,0,0:0:0:0:
424,192,5976,2,0,P|368:128|308:110,1,140
224,96,6593,1,0,0:0:0:0:
128,112,6798,1,0,0:0:0:0:
136,224,7209,1,0,0:0:0:0:
256,96,7415,1,0,0:0:0:0:
376,224,7569,1,0,0:0:0:0:
256,312,8031,1,0,0:0:0:0:
256,64,8237,1,0,0:0:0:0:
256,192,8442,1,0,0:0:0:0:
256,192,8727,12,0,10272,0:0:0:0:
328,32,10497,5,0,0:0:0:0:
408,88,10702,1,0,0:0:0:0:
432,176,10908,1,0,0:0:0:0:
128,336,11319,1,0,0:0:0:0:
64,280,11524,1,0,0:0:0:0:
40,200,11730,1,0,0:0:0:0:
120,56,12141,1,0,0:0:0:0:
144,40,12346,1,0,0:0:0:0:
264,16,12552,2,0,B|344:32|385:65|403:78|398:79,1,140
440,128,13168,1,0,0:0:0:0:
424,216,13374,1,0,0:0:0:0:
144,216,13785,1,0,0:0:0:0:
72,152,13990,1,0,0:0:0:0:
164,100,14144,2,0,L|251:70,1,87.5
292,68,14504,1,0,0:0:0:0:
416,136,14812,1,0,0:0:0:0:
336,8,15017,1,0,0:0:0:0:
256,192,15097,12,0,19012,0:0:0:0:
457,175,20565,6,0,L|457:254|457:251,1,70
296,224,20976,1,0,0:0:0:0:
208,304,21182,1,0,0:0:0:0:
359,123,21747,1,0,0:0:0:0:
256,35,22004,1,0,0:0:0:0:
157,122,22209,1,0,0:0:0:0:
133,50,22415,2,0,B|53:90|31:145|34:160,1,140
35,229,23031,1,0,0:0:0:0:
77,326,23237,1,0,0:0:0:0:
328,296,23853,1,0,0:0:0:0:
392,232,24058,1,0,0:0:0:0:
400,128,24264,1,0,0:0:0:0:
256,16,24675,1,0,0:0:0:0:
112,128,24983,1,0,0:0:0:0:
72,216,25291,2,0,B|136:328|128:304,1,105
160,328,25702,1,0,0:0:0:0:
240,184,26011,1,0,0:0:0:0:
320,328,26319,1,0,0:0:0:0:
344,312,26524,1,0,0:0:0:0:
416,120,26832,1,0,0:0:0:0:
256,192,27141,1,0,0:0:0:0:
256,296,27757,1,0,0:0:0:0:
128,176,28168,1,0,0:0:0:0:
256,176,28476,1,0,0:0:0:0:
376,176,28785,1,0,0:0:0:0:
256,72,29401,1,0,0:0:0:0:
128,176,29812,1,0,0:0:0:0:
376,176,30120,1,0,0:0:0:0:
256,176,30428,1,0,0:0:0:0:
256,192,31456,12,0,33922,0:0:0:0:
256,200,39675,5,0,0:0:0:0:
256,80,39880,1,0,0:0:0:0:
256,80,39983,1,0,0:0:0:0:
256,80,40086,1,0,0:0:0:0:
360,200,40291,1,0,0:0:0:0:
256,328,40497,1,0,0:0:0:0:
80,48,41832,2,0,L|40:96,2,52.5
472,256,43579,2,0,L|440:304,2,52.5
256,24,44401,1,0,0:0:0:0:
256,192,44606,1,0,0:0:0:0:
256,192,45017,12,0,46661,0:0:0:0:
96,184,47072,5,0,0:0:0:0:
184,256,47278,1,0,0:0:0:0:
104,48,47483,1,0,0:0:0:0:
200,136,47689,1,0,0:0:0:0:
312,304,48100,1,0,0:0:0:0:
408,200,48305,1,0,0:0:0:0:
408,48,48511,2,0,B|272:32|192:64|208:248,1,350
256,192,49743,1,0,0:0:0:0:
472,80,49949,1,0,0:0:0:0:
376,288,50154,1,0,0:0:0:0:
256,192,50565,1,0,0:0:0:0:
56,80,50771,1,0,0:0:0:0:
136,288,50976,1,0,0:0:0:0:
240,88,51387,2,0,L|304:48,2,70
256,192,51901,12,0,53190,0:0:0:0:
96,192,53442,5,0,0:0:0:0:
176,64,53648,1,0,0:0:0:0:
240,200,53853,1,0,0:0:0:0:
304,296,54058,1,0,0:0:0:0:
400,312,54264,2,0,L|456:184,1,140
432,96,54880,1,0,0:0:0:0:
368,32,55086,1,0,0:0:0:0:
248,200,56319,1,0,0:0:0:0:
248,120,56524,1,0,0:0:0:0:
248,200,56730,2,0,P|280:264|320:256,1,122.5
416,240,57141,1,0,0:0:0:0:
472,128,57346,1,0,0:0:0:0:
248,24,57552,2,0,L|248:168,1,140
248,264,58168,1,0,0:0:0:0:
248,352,58374,1,0,0:0:0:0:
248,352,58785,1,0,0:0:0:0:
352,248,58990,1,0,0:0:0:0:
440,80,59401,2,0,L|360:96,1,70
264,152,59812,1,0,0:0:0:0:
120,208,60017,1,0,0:0:0:0:
216,264,60223,1,0,0:0:0:0:
416,352,60839,1,0,0:0:0:0:
280,248,61045,1,0,0:0:0:0:
416,168,61250,2,0,B|352:128,1,70
216,48,61661,1,0,0:0:0:0:
256,200,62072,1,0,0:0:0:0:
408,208,62278,1,0,0:0:0:0:
256,24,62689,1,0,0:0:0:0:
256,168,62894,1,0,0:0:0:0:
400,168,63100,1,0,0:0:0:0:
256,304,63305,1,0,0:0:0:0:
112,168,63511,1,0,0:0:0:0:
144,128,64127,1,0,0:0:0:0:
352,128,64332,1,0,0:0:0:0:
256,224,64538,1,0,0:0:0:0:
256,352,64743,1,0,0:0:0:0:
128,224,64949,1,0,0:0:0:0:
40,240,65154,2,0,B|72:336|144:344|152:344|152:344,1,140
256,336,65771,1,0,0:0:0:0:
352,336,65976,1,0,0:0:0:0:
296,192,66387,1,0,0:0:0:0:
88,192,66593,1,0,0:0:0:0:
248,192,66798,1,0,0:0:0:0:
128,192,67004,1,0,0:0:0:0:
192,304,67209,1,0,0:0:0:0:
256,128,67415,1,0,0:0:0:0:
128,128,67517,1,0,0:0:0:0:
120,288,68031,2,0,B|200:328|368:328|384:232|376:224,1,280
256,192,69058,1,0,0:0:0:0:
352,128,69161,1,0,0:0:0:0:
152,128,69469,1,0,0:0:0:0:
352,272,69675,1,0,0:0:0:0:
352,128,69880,1,0,0:0:0:0:
152,272,70086,1,0,0:0:0:0:
256,192,70291,1,0,0:0:0:0:
352,8,70497,1,0,0:0:0:0:
160,8,70702,1,0,0:0:0:0:
256,288,70805,1,0,0:0:0:0:
256,152,71113,1,0,0:0:0:0:
256,8,71319,1,0,0:0:0:0:
112,200,71524,1,0,0:0:0:0:
392,200,71935,1,0,0:0:0:0:
256,192,72346,1,0,0:0:0:0:
256,192,72530,12,0,74153,0:0:0:0:
56,160,74606,5,0,0:0:0:0:
352,160,74791,1,0,0:0:0:0:
208,160,75017,1,0,0:0:0:0:
32,312,75428,1,0,0:0:0:0:
136,128,75634,1,0,0:0:0:0:
224,320,75839,1,0,0:0:0:0:
352,88,76250,1,0,0:0:0:0:
216,152,76456,1,0,0:0:0:0:
88,272,76661,2,0,B|152:312|208:312|248:312|240:304,1,140
160,224,77278,1,0,0:0:0:0:
56,144,77483,1,0,0:0:0:0:
48,248,77894,5,0,0:0:0:0:
80,280,78100,1,0,0:0:0:0:
128,288,78305,1,0,0:0:0:0:
424,152,78716,1,0,0:0:0:0:
392,112,78921,1,0,0:0:0:0:
336,96,79127,1,0,0:0:0:0:
80,296,79538,1,0,0:0:0:0:
256,104,79743,1,0,0:0:0:0:
376,296,79949,1,0,0:0:0:0:
112,328,80154,1,0,0:0:0:0:
288,136,80360,1,0,0:0:0:0:
408,320,80565,1,0,0:0:0:0:
200,248,80771,2,0,P|256:160|304:144,1,140
224,32,81387,1,0,0:0:0:0:
208,104,81593,1,0,0:0:0:0:
296,120,82004,1,0,0:0:0:0:
264,208,82209,1,0,0:0:0:0:
176,248,82415,1,0,0:0:0:0:
80,192,82826,1,0,0:0:0:0:
88,136,83031,1,0,0:0:0:0:
120,96,83237,2,0,L|264:48,1,140
288,216,83853,1,0,0:0:0:0:
408,216,84058,1,0,0:0:0:0:
256,312,84469,1,0,0:0:0:0:
136,192,84675,1,0,0:0:0:0:
40,96,84880,1,0,0:0:0:0:
40,96,85189,1,0,0:0:0:0:
104,72,85497,1,0,0:0:0:0:
152,336,85702,1,0,0:0:0:0:
256,240,85908,1,0,0:0:0:0:
256,224,86113,1,0,0:0:0:0:
408,72,86319,1,0,0:0:0:0:
352,336,86524,1,0,0:0:0:0:
256,192,86627,12,0,87452,0:0:0:0:
