osu file format v5

[General]
AudioFilename: kyon - Catch you catch me.mp3
AudioLeadIn: 0
PreviewTime: -1
Countdown: 1
SampleSet: Normal
StackLeniency: 0.7
Mode: 0
LetterboxInBreaks: 1

[Metadata]
Title:Catch you catch me
Artist:Kyon
Creator:kkf0706
Version:Normal
Source:
Tags:

[Difficulty]
HPDrainRate:4
CircleSize:4
OverallDifficulty:5
SliderMultiplier:1.4
SliderTickRate:1

[Events]
//Background and Video events
1,0,"kyon - Catch you catch me.avi"
//Break Periods
2,45323,48435
//Storyboard Layer 0 (Background)
//Storyboard Layer 1 (Failing)
//Storyboard Layer 2 (Passing)
//Storyboard Layer 3 (Foreground)
//Storyboard Sound Samples
//Background Colour Transformations
3,100,163,162,255

[TimingPoints]
124,468.75,4,1,0,100,1

[HitObjects]
128,192,22624,1,0
160,224,22858,1,0
192,192,23092,1,0
256,192,23502,1,0
288,224,23737,1,0
320,96,24499,5,0
288,128,24733,1,0
256,96,24967,1,0
192,96,25436,1,0
160,128,25670,1,0
128,256,26374,5,0
160,224,26608,1,0
192,256,26842,2,0,B|256:192|256:192|384:256,1,227.5
352,160,28249,5,0
320,128,28483,1,0
288,160,28717,1,0
224,128,29186,1,0
192,160,29420,1,0
128,224,30065,5,0
160,224,30358,1,0
192,224,30651,1,0
288,224,31295,1,0
352,160,31999,5,0
320,128,32233,1,0
288,160,32526,1,0
224,128,33170,1,0
224,192,33932,5,4
160,160,34401,1,4
96,96,35045,1,4
96,160,35514,5,0
64,160,35749,1,0
32,192,35983,1,0
64,224,36217,1,0
128,256,36686,1,0
160,256,36920,1,4
192,128,37624,6,0,B|128:64|64:128,1,140
64,128,38561,2,0,B|128:64|192:128,1,140
192,192,39440,6,0,B|128:256|64:192,1,140
64,192,40436,2,0,B|128:256|192:192,1,140
64,128,41374,5,0
128,128,41842,1,0
224,128,42545,1,0
288,192,43014,1,0
256,224,43249,1,0
288,224,43483,1,0
320,224,43717,1,0
352,288,44186,2,0,B|320:352|224:288,2,140
224,128,49635,6,0,B|256:64,2,70
256,224,50573,2,0,B|288:160,2,70
288,320,51510,2,0,B|320:256,2,70,0|0|0
192,320,52448,5,0
160,288,52682,1,0
128,256,52916,1,0
160,224,53151,1,0
160,192,53385,2,0,B|160:128|64:96,3,140
64,128,55202,1,0
128,128,56608,5,0
192,160,57077,1,0
224,224,57545,1,0
288,256,58073,1,0
256,320,58541,1,0
192,288,59010,1,0
160,288,59245,2,0,B|96:288|64:288|32:256|32:192|32:128|64:96|96:64|128:64,1,332.5
192,64,60885,5,0
256,32,61354,5,0
320,64,61823,5,0
384,96,62291,5,0
384,160,62760,5,0
352,224,63229,5,0
288,256,63698,5,0
160,128,64166,5,0
160,192,64635,1,0
160,256,65104,1,0
96,256,65573,1,0
96,192,66041,1,0
96,128,66510,1,0
96,128,66745,1,0
160,32,68385,5,0
224,32,68854,1,0
288,32,69323,1,0
320,96,69791,1,0
288,160,70260,1,0
288,160,70495,1,0
320,160,70729,1,0
320,160,70963,1,0
352,192,71198,1,0
352,192,71432,1,0
320,160,71666,1,0
352,192,71901,2,0,B|256:192|288:352|448:320|480:192|384:96,1,367.5
320,64,73776,5,0
256,64,74245,1,0
192,64,74713,1,0
224,128,75182,1,0
288,128,75651,1,0
256,192,80221,12,0,83854
