osu file format v5

[General]
AudioFilename: Kentai Life Returns! (Short Edit).mp3
AudioLeadIn: 0
PreviewTime: -1
Countdown: 1
SampleSet: Normal
StackLeniency: 0.7
Mode: 0
LetterboxInBreaks: 1
EditorBookmarks: 134804

[Metadata]
Title:Kentai Life Returns
Artist:Kyon (Tomokazu Sugita)
Creator:Sushi971
Version:Normal
Source:Suzumiya haruhi no yuutsu Kyon Character song (vol 9)
Tags:suzumiya, haruhi, yuutsu

[Difficulty]
HPDrainRate:5
CircleSize:4
OverallDifficulty:5
SliderMultiplier:1
SliderTickRate:2

[Events]
//Background and Video events
0,0,"Kentai Life Returns.png"
1,-1100,"Kentai Life Returns! (Short Edit).avi"
//Break Periods
2,57329,70260
//Storyboard Layer 0 (Background)
//Storyboard Layer 1 (Failing)
//Storyboard Layer 2 (Passing)
//Storyboard Layer 3 (Foreground)
//Storyboard Sound Samples
//Background Colour Transformations
3,100,128,128,128

[TimingPoints]
2285,382.165605095541,4,1,0,100,1

[HitObjects]
112,192,3813,1,0
208,192,4577,1,0
304,192,5341,1,2
400,192,6106,1,2
336,64,6870,6,0,B|208:32|144:80,2,150,0|0|0
352,128,8399,2,0,B|432:128|368:256,2,150,0|0|0
288,144,9927,5,0
176,144,10501,1,8
64,144,11074,1,0
64,208,11456,1,0
64,304,12029,1,8
240,304,12985,6,0,B|400:240|464:16,1,350,0|0
320,48,15087,1,4
320,144,15660,5,0
320,208,16042,1,0
320,304,16615,1,8
208,304,17189,1,0
208,240,17571,1,0
208,128,18144,1,8
208,304,19099,6,2,L|304:304,7,50,2|2|2|2|2|2|2|2
256,192,21010,5,4
256,192,21392,1,4
256,192,21775,1,4
192,160,22157,6,0,B|256:96|325:164,1,150
288,224,23112,1,0
176,224,23685,1,0
64,224,24259,2,2,B|64:64|64:32,1,150,2|2
128,80,25214,6,8,L|192:80,1,50
240,80,25787,2,8,B|336:80,3,50,8|8|8|8
304,144,26743,2,2,B|224:160|272:240,1,100,2|2
256,272,27507,1,4
256,336,27889,1,4
320,352,28271,6,4,B|480:352|432:272,1,150,4|4
432,224,29227,2,0,L|432:160,2,50
432,224,29800,2,2,B|272:224,1,150
256,192,31138,12,4,32666
211,309,33240,6,0,B|256:352|304:304,3,100
352,256,34768,5,0
352,192,35150,1,8
352,128,35533,1,0
352,64,35915,1,8
288,64,36297,1,0
288,64,36488,2,2,B|160:32|112:112,1,150
144,224,37826,5,0
208,224,38208,2,8,B|288:224,1,50
368,224,38972,2,4,B|288:224,3,50
256,272,39927,2,2,B|192:224,1,50
80,256,40883,5,0
80,192,41265,2,8,B|80:112|80:112,2,50
144,192,42029,2,0,B|288:192|288:272,1,150,0|0
256,336,43176,1,4
256,192,43558,12,4,44895
256,176,45469,6,0,B|320:256,1,100
256,176,46233,2,0,B|192:256,1,100
192,320,46998,6,0,B|288:320,2,50
128,320,47762,1,8
128,256,48144,2,8,B|128:176,2,50
192,256,48908,1,2
400,256,50055,5,0
400,192,50437,1,0
400,128,50819,1,0
400,64,51201,2,8,B|336:64,2,50
400,64,51775,1,6
336,32,52157,6,6,B|240:176,1,150
192,160,53112,5,0
128,160,53494,2,8,B|64:192|112:256,1,100
168,248,54259,2,2,B|264:248,2,50,2|2|2
168,248,54832,1,6
160,72,55787,5,0
224,72,56170,1,0
288,72,56552,2,0,B|352:136|320:248,1,150
304,192,71456,5,0
368,192,71838,2,0,B|480:192,1,100
464,256,72603,2,2,B|336:256,1,100
304,256,73367,5,0
240,256,73749,1,0
176,256,74131,1,2
112,256,74513,1,2
96,192,74896,6,0,B|96:80,1,100,0|0
160,96,75660,2,2,B|160:208,1,100,2|2
224,192,76424,1,0
336,288,77189,5,4
192,288,77953,1,4
256,160,78717,1,0
224,64,79291,1,4
288,64,79673,1,4
256,192,80246,12,4,82539
160,256,83303,6,2,B|224:144|304:352|384:160,1,250
368,80,84832,1,0
272,128,85405,2,4,B|368:128|240:224|176:112,1,150
144,128,86361,2,0,B|144:304,1,150,0|0
144,280,87125,1,0
208,296,87507,1,0
272,312,87889,2,2,B|512:312|480:136,1,300
416,144,89418,6,2,B|320:208|448:256,1,150
336,288,90564,1,0
272,288,90947,2,0,B|160:288|192:144,1,150
256,192,92284,12,4,94004
144,272,94386,6,0,B|197:342|197:342|309:342|309:342|384:240|384:240|384:240,1,300
368,192,95915,5,0
304,192,96297,2,8,B|176:192,1,100,8|8
144,192,97061,1,8
80,192,97443,1,8
80,192,97634,2,6,B|48:64|160:48,1,150
224,128,98972,5,0
288,128,99354,1,0
288,128,99545,1,0
256,224,100119,2,2,B|256:304,3,50
320,272,101074,2,4,B|320:224|304:192,1,50,4|4
448,272,102029,5,0
432,208,102412,2,0,B|384:144|448:96,1,100,0|0
352,112,103176,2,0,B|224:48|208:128,1,150,0|0
256,192,104322,12,0,105851
112,112,106424,6,4,B|272:112|456:312,1,400
360,360,108526,6,0,B|216:360,1,100,0|0
192,336,109291,2,8,B|192:288|128:256,2,100,8|8|8
112,144,111201,2,0,B|192:224,1,100
248,216,111966,1,2
312,216,112348,2,2,B|456:216|440:312,1,150
416,336,113304,2,4,B|480:336,1,50,4|4
416,200,114259,5,0
352,224,114641,2,0,B|304:272|224:240,1,100
208,208,115405,1,2
160,160,115787,1,2
160,160,115978,1,2
304,64,116934,5,2
304,128,117316,1,2
240,128,117698,2,2,B|64:144|112:320|384:352,1,400
256,224,119991,6,4,B|192:176|80:192,2,150
256,288,121520,2,4,B|208:400|144:336,2,150
288,240,123048,6,4,B|400:240|432:336,2,150
288,176,124577,2,4,B|336:32|416:144,2,150
368,192,126106,5,4
256,192,126679,5,4
144,192,127252,5,4
256,192,128399,12,0,134896
