osu file format v5

[General]
AudioFilename: Kentai Life Returns! (Short Edit).mp3
AudioLeadIn: 0
PreviewTime: -1
Countdown: 1
SampleSet: Normal
StackLeniency: 0.8
Mode: 0
LetterboxInBreaks: 1
EditorBookmarks: 134804

[Metadata]
Title:Kentai Life Returns
Artist:Kyon (Tomokazu Sugita)
Creator:Sushi971
Version:Hard
Source:Suzumiya haruhi no yuutsu Kyon Character song (vol 9)
Tags:suzumiya, haruhi, yuutsu

[Difficulty]
HPDrainRate:7
CircleSize:5
OverallDifficulty:7
SliderMultiplier:1.5
SliderTickRate:2

[Events]
//Background and Video events
0,0,"Kentai Life Returns.png"
1,-1100,"Kentai Life Returns! (Short Edit).avi"
//Break Periods
2,57329,70560
//Storyboard Layer 0 (Background)
//Storyboard Layer 1 (Failing)
//Storyboard Layer 2 (Passing)
//Storyboard Layer 3 (Foreground)
//Storyboard Sound Samples
//Background Colour Transformations
3,100,128,128,128

[TimingPoints]
2285,382.165605095541,4,1,0,100,1

[HitObjects]
64,192,3813,1,0
176,192,4195,1,0
288,192,4577,1,0
400,192,4959,1,2
400,80,5341,1,0
288,80,5724,1,0
176,80,6106,1,0
64,80,6488,1,2
80,176,6870,6,0,B|80:240|160:320,2,150,0|0|0
176,160,8017,1,2
272,160,8399,2,0,B|352:160|352:288,2,150,0|0|0
272,160,9545,5,2
384,160,9927,1,0
496,160,10310,1,8
496,160,10501,1,8
496,320,11074,1,0
416,256,11456,1,0
336,192,11838,1,8
336,192,12029,1,8
256,48,12985,6,0,B|96:48|112:112,1,150
113,83,13558,1,0
113,83,13749,2,0,B|32:160|32:240,1,150
36,209,14322,2,0,B|36:324,1,75
192,288,15087,1,4
448,288,15660,5,0
448,176,16042,1,0
448,64,16424,1,8
448,64,16615,1,8
288,64,17189,1,0
288,168,17571,1,0
176,168,17953,1,8
176,168,18144,1,8
32,32,19099,6,2,B|32:112,1,75
32,107,19482,2,2,B|132:107,1,75
107,107,19864,2,2,B|107:187,1,75
107,182,20246,2,2,B|14:182,1,75
112,320,21010,5,4
208,320,21392,1,4
256,224,21775,1,4
192,160,22157,6,0,B|256:96|325:164,1,150
256,304,23112,1,0
144,304,23494,1,0
144,304,23685,1,0
64,224,24068,1,0
64,224,24259,2,2,B|64:64|224:80,1,225
256,192,25214,5,8
256,192,25405,1,8
336,256,25787,1,8
336,256,25978,2,8,B|432:256,2,75
256,320,26743,2,2,B|112:368|96:304,1,150
112,224,27507,1,4
112,112,27889,1,4
224,112,28271,6,4,B|384:112|352:192,1,150
448,288,29227,1,0
416,256,29418,1,0
384,288,29609,1,0
352,256,29800,2,0,B|192:256,1,150
202,256,30373,1,2
256,192,31329,12,4,32857
208,192,33240,5,0
256,160,33431,1,0
304,192,33622,1,2
256,224,33813,1,0
208,192,34004,1,2
256,160,34195,1,0
304,192,34386,1,2
416,192,34768,5,0
416,240,34959,1,0
416,288,35150,1,8
336,368,35533,1,0
288,368,35724,1,0
256,320,35915,1,8
208,320,36106,1,8
176,368,36297,1,0
128,368,36488,6,2,B|0:368|0:176,1,225
160,192,37634,5,0
208,160,37826,1,0
256,128,38017,1,0
304,96,38208,2,8,B|368:48,1,75
368,160,38781,1,8
400,208,38972,2,4,B|320:208,3,75
256,288,39927,2,2,B|192:240,1,75
64,80,40883,5,0
112,80,41074,1,0
112,128,41265,2,8,B|112:208|160:192,2,75
160,128,41838,1,0
208,128,42029,2,0,B|352:128|352:208,1,150
342,173,42603,1,0
256,304,43128,1,4
256,192,43558,12,4,44895
256,176,45469,5,8
288,208,45660,1,8
320,240,45851,1,2
256,176,46233,1,8
224,208,46424,1,8
192,240,46615,1,6
219,341,46998,6,0,B|315:341,2,75
112,336,47762,1,8
64,336,47953,1,0
64,288,48144,2,8,B|64:208,2,75
64,176,48908,1,2
320,176,49864,6,0,B|320:256,1,75
256,176,50437,2,0,B|150:176,1,75,8|8
128,176,50819,1,0
80,176,51010,1,0
32,176,51201,2,8,B|32:256,2,75
32,176,51775,1,6
32,64,52157,6,6,B|288:64,1,225
368,64,53112,5,0
400,96,53303,1,0
432,128,53494,2,8,B|464:192|416:224,1,75
400,240,53877,1,0
368,272,54068,1,0
336,304,54259,2,2,B|272:368,2,75
304,272,54832,1,6
256,16,55787,5,0
256,112,56170,1,0
256,208,56552,2,0,B|432:224|448:336,1,225
256,192,71456,5,0
368,192,71838,1,0
480,192,72220,1,0
480,304,72603,2,2,B|304:304,1,150
224,304,73367,5,0
112,304,73749,1,0
112,192,74131,2,2,B|112:32,1,150
224,48,74896,5,0
320,48,75278,1,0
416,48,75660,2,2,B|496:192,1,150
496,280,76424,1,2
288,280,77189,5,0
288,280,77380,2,2,B|208:216,1,75
224,136,77953,1,0
224,136,78144,2,2,B|320:56,1,75
384,104,78717,1,0
384,104,78908,2,2,B|464:200,1,75
432,161,79291,1,4
432,264,79673,1,4
256,192,80246,12,4,82539
160,256,83303,6,2,B|224:144|304:352|384:160,1,225
256,176,84259,1,0
256,64,84641,1,0
256,64,84832,1,0
256,176,85214,1,0
256,176,85405,2,4,B|352:176|192:320|160:160,1,225
80,96,86361,5,0
80,96,86552,2,0,B|80:272,1,150
80,288,87125,1,0
176,288,87507,1,0
224,288,87698,1,0
272,288,87889,2,2,B|512:288|480:112,1,300
336,128,89418,6,2,B|240:192|368:240,2,150,0|2|2
304,96,90373,1,0
272,64,90564,1,0
224,64,90755,1,0
176,64,90947,2,0,B|64:64|64:160,1,150
65,141,91520,1,4
256,192,92284,12,4,94004
256,144,94386,5,0
256,192,94577,1,0
208,192,94768,1,2
256,192,94959,1,0
256,240,95150,1,2
256,192,95341,1,0
304,192,95533,1,6
256,96,95915,5,0
208,96,96106,1,0
256,96,96297,2,8,B|416:96,1,150
456,96,96870,1,0
456,144,97061,1,8
456,192,97252,1,8
408,192,97443,1,8
408,144,97634,2,6,B|248:144|248:304,1,225
96,272,98781,5,0
96,224,98972,1,0
96,176,99163,1,0
96,128,99354,1,0
96,128,99545,1,0
192,96,99927,1,0
144,96,100119,2,2,B|144:176,3,75
160,272,101074,2,4,B|256:272|256:192,1,75
256,48,102029,5,0
304,48,102220,1,0
352,48,102412,2,0,B|464:48|464:176,1,150
464,176,102985,1,0
464,224,103176,2,0,B|464:320|336:320,1,150
368,318,103749,1,0
256,192,104322,12,0,105851
64,48,106424,6,0,B|224:48|480:256,1,450
432,288,107762,5,4
432,288,107857,1,4
432,288,107953,1,4
384,288,108144,5,4
328,288,108335,1,0
272,288,108526,2,0,B|96:288,1,150,0|0
80,256,109099,1,0
48,216,109291,2,8,B|48:168|160:184,2,75
48,112,110055,1,4
288,32,111010,5,0
288,32,111201,2,0,B|288:128,1,75
288,160,111584,1,0
288,213,111775,1,0
256,256,111966,1,0
208,288,112157,1,0
160,288,112348,1,2
112,288,112539,1,2
64,256,112730,1,2
48,208,112921,1,2
48,104,113304,2,4,B|136:104,1,75,4|4
320,40,114259,5,0
352,80,114450,1,0
312,120,114641,2,0,B|264:168|168:120,1,150
128,96,115214,1,0
96,128,115405,1,2
128,160,115596,1,0
96,192,115787,1,2
128,224,115978,1,2
320,48,116934,5,2
320,144,117316,1,2
224,96,117698,2,2,B|112:80|144:272|176:320,1,225
256,320,118654,2,4,B|336:320,3,75
464,160,119991,6,4,B|256:48|128:80,1,300
16,192,121520,2,4,B|16:352|272:320,1,300
400,192,123048,6,4,B|288:304|208:128|80:240,1,300
256,48,124577,2,4,B|144:176|336:256|176:384,1,300
416,192,126106,5,4
256,192,126679,5,4
96,192,127252,5,4
256,192,128399,12,4,134896
