osu file format v12

[General]
AudioFilename: 02 - Menimeni Manimani (TV size 30sec.).mp3
AudioLeadIn: 0
PreviewTime: -1
Countdown: 0
SampleSet: Normal
StackLeniency: 0.2
Mode: 0
LetterboxInBreaks: 1
WidescreenStoryboard: 1

[Editor]
DistanceSpacing: 1
BeatDivisor: 4
GridSize: 8
TimelineZoom: 1

[Metadata]
Title:Menimeni Manimani (TV size)
TitleUnicode:Menimeni Manimani (TV size)
Artist:Kyoko Narumi
ArtistUnicode:Kyoko Narumi
Creator:blahpy
Version:Insane
Source:Teekyuu 2
Tags:teekyuu op menimeni manimani
BeatmapID:408869
BeatmapSetID:168471

[Difficulty]
HPDrainRate:7
CircleSize:5
OverallDifficulty:7
ApproachRate:9
SliderMultiplier:1.4
SliderTickRate:1

[Events]
//Background and Video events
0,0,"teekyuu.png",0,0
//Break Periods
//Storyboard Layer 0 (Background)
//Storyboard Layer 1 (Fail)
//Storyboard Layer 2 (Pass)
//Storyboard Layer 3 (Foreground)
//Storyboard Sound Samples
//Background Colour Transformations
3,100,163,162,255

[TimingPoints]
835,389.61038961039,4,1,0,100,1,0

[HitObjects]
96,80,835,6,0,L|176:88,1,70
160,156,1224,2,0,L|240:164,1,70
296,184,1613,1,0,0:0:0:0:
359,214,1809,2,0,L|391:246,1,35
415,301,2101,1,0,0:0:0:0:
351,329,2296,1,0,0:0:0:0:
316,329,2393,5,0,0:0:0:0:
252,300,2588,1,0,0:0:0:0:
203,249,2783,2,0,L|171:209,1,35
123,134,3172,5,0,0:0:0:0:
123,134,3367,1,0,0:0:0:0:
400,216,3562,1,0,0:0:0:0:
400,216,3757,1,0,0:0:0:0:
374,150,3951,6,0,P|350:118|318:94,1,70
267,61,4341,2,0,P|231:42|192:35,1,70
132,41,4731,6,0,B|108:81|172:73|156:137,1,105
159,204,5218,1,0,0:0:0:0:
184,268,5412,2,0,L|208:332,1,35
241,355,5705,1,0,0:0:0:0:
309,368,5899,1,0,0:0:0:0:
377,352,6094,2,0,L|417:336,1,35
408,136,6484,5,0,0:0:0:0:
128,280,6679,1,0,0:0:0:0:
80,168,6873,5,0,0:0:0:0:
80,168,7068,2,0,P|122:198|172:214,1,105
128,120,7653,1,0,0:0:0:0:
128,120,7847,2,0,P|174:144|225:153,1,105
168,64,8432,6,0,P|212:84|265:87,1,70
303,94,8822,1,0,0:0:0:0:
372,94,9016,1,0,0:0:0:0:
440,108,9211,1,0,0:0:0:0:
465,132,9309,1,0,0:0:0:0:
486,234,9601,1,0,0:0:0:0:
479,268,9698,1,0,0:0:0:0:
384,120,10185,6,0,P|392:168|416:208,1,70
320,136,10477,2,0,P|328:184|352:224,1,70
256,152,10770,2,0,P|264:200|288:240,1,70
192,168,11062,2,0,P|200:216|224:256,1,70
225,266,11354,1,0,0:0:0:0:
282,305,11549,1,0,0:0:0:0:
350,320,11744,5,0,0:0:0:0:
458,140,12036,1,0,0:0:0:0:
271,44,12328,1,0,0:0:0:0:
145,106,12523,1,0,0:0:0:0:
329,207,12718,5,0,0:0:0:0:
329,207,12912,1,0,0:0:0:0:
404,88,13302,6,0,P|407:122|401:157,1,70
338,124,13692,2,0,P|331:158|333:193,1,70,0|0,0:0|0:0,0:0:0:0:
381,244,14081,2,0,P|348:257|313:260,1,70
278,262,14373,1,0,0:0:0:0:
208,252,14568,1,0,0:0:0:0:
179,231,14666,1,0,0:0:0:0:
163,199,14763,1,0,0:0:0:0:
157,164,14860,6,0,P|159:129|170:95,1,70
218,45,15250,2,0,P|247:26|281:14,1,70
351,12,15640,1,0,0:0:0:0:
351,12,15835,1,0,0:0:0:0:
308,237,16029,1,0,0:0:0:0:
308,237,16224,1,0,0:0:0:0:
248,274,16419,6,0,P|215:287|180:290,1,70
111,279,16809,2,0,P|77:267|48:247,1,70,0|0,0:0|0:0,0:0:0:0:
105,206,17198,2,0,B|145:230|137:166|201:182,1,105
267,194,17685,1,0,0:0:0:0:
299,207,17783,1,0,0:0:0:0:
365,227,17977,6,0,P|400:230|434:223,1,70
496,191,18367,1,0,0:0:0:0:
505,121,18562,1,0,0:0:0:0:
506,86,18659,1,0,0:0:0:0:
404,59,18951,5,0,0:0:0:0:
213,266,19146,1,0,0:0:0:0:
213,266,19341,1,0,0:0:0:0:
283,266,19536,5,0,0:0:0:0:
349,243,19731,1,0,0:0:0:0:
389,186,19925,1,0,0:0:0:0:
392,116,20120,1,0,0:0:0:0:
361,53,20315,1,0,0:0:0:0:
294,32,20510,1,0,0:0:0:0:
226,50,20705,1,0,0:0:0:0:
185,107,20899,1,0,0:0:0:0:
183,177,21094,6,0,P|193:227|218:273,1,105,0|0,0:0|0:0,0:0:0:0:
310,325,21679,1,0,0:0:0:0:
379,333,21873,1,0,0:0:0:0:
436,58,22653,6,0,P|428:106|404:146,1,70
405,157,22945,1,0,0:0:0:0:
366,215,23140,1,0,0:0:0:0:
311,258,23335,1,0,0:0:0:0:
278,269,23432,2,0,P|231:284|185:282,1,70,0|0,0:0|0:0,0:0:0:0:
175,285,23724,1,0,0:0:0:0:
110,257,23919,1,0,0:0:0:0:
96,224,24016,1,0,0:0:0:0:
93,188,24114,1,0,0:0:0:0:
105,155,24211,5,0,0:0:0:0:
156,107,24406,1,0,0:0:0:0:
225,95,24601,1,0,0:0:0:0:
286,127,24796,1,0,0:0:0:0:
317,189,24990,5,0,0:0:0:0:
303,233,25120,1,0,0:0:0:0:
264,258,25250,1,0,0:0:0:0:
217,258,25380,1,0,0:0:0:0:
188,220,25510,1,0,0:0:0:0:
197,174,25640,1,0,0:0:0:0:
228,139,25770,2,0,B|313:156|373:313|108:225|309:133,1,280
177,65,26938,5,0,0:0:0:0:
350,102,27133,1,0,0:0:0:0:
350,102,27718,5,0,0:0:0:0:
199,195,27912,1,0,0:0:0:0:
199,195,28497,5,0,0:0:0:0:
270,32,28692,1,0,0:0:0:0:
72,268,29081,5,0,0:0:0:0:
331,330,29373,1,0,0:0:0:0:
254,74,29666,1,0,0:0:0:0:
