osu file format v7

[General]
AudioFilename: Bu Ke Si Yi.mp3
AudioLeadIn: 3000
PreviewTime: -1
Countdown: 1
SampleSet: Soft
StackLeniency: 0.7
Mode: 0
LetterboxInBreaks: 1
StoryFireInFront: 0

[Editor]
DistanceSpacing: 0.800000011920929
BeatDivisor: 4
GridSize: 32

[Metadata]
Title:Bu Ke Si Yi
Artist:Kym Jin Sha
Creator:aumu1995
Version:Hard
Source:SDO
Tags:Bu Ke Si Yi

[Difficulty]
HPDrainRate:8
CircleSize:6
OverallDifficulty:7
SliderMultiplier:0.8
SliderTickRate:1

[Events]
//Background and Video events
0,0,"IloveU.jpg"
//Break Periods
2,49657,58624
2,176459,183927
2,220154,226552
//Storyboard Layer 0 (Background)
//Storyboard Layer 1 (Fail)
//Storyboard Layer 2 (Pass)
//Storyboard Layer 3 (Foreground)
//Storyboard Sound Samples
//Background Colour Transformations
3,100,255,128,255

[TimingPoints]
20326.7632698033,856.775667571041,4,2,0,100,1,0

[Colours]
Combo1 : 254,180,214
Combo2 : 255,128,255
Combo3 : 255,128,192
Combo4 : 248,194,252
Combo5 : 253,223,248

[HitObjects]
256,192,18613,12,0,20326
32,160,20755,5,0
64,128,21183,1,0
96,160,21611,1,0
192,160,22897,5,0
224,128,23325,1,0
256,160,23753,1,0
221,232,24182,6,0,B|256:230,6,20
189,192,26324,1,0
326,192,26752,1,0
132,68,27180,5,0
245,71,27609,1,0
361,74,28037,1,0
243,144,28680,1,0
198,202,28894,1,0
314,199,29322,1,0
256,194,30608,5,0
256,192,30822,12,0,34035
74,164,35534,5,0
98,115,36605,1,0
133,162,37462,1,0
176,161,38319,1,0
176,161,38747,1,0
176,161,38961,1,0
426,284,40889,5,0
400,245,41317,1,0
376,281,41746,1,0
338,285,42174,1,0
300,284,42602,1,0
23,165,43245,5,0
47,120,43459,1,0
93,176,43888,2,0,B|185:85|249:202|360:153,1,280
96,165,47957,6,0,B|134:166,5,20
158,164,49457,1,0
256,192,59524,12,0,63165
129,183,64022,5,0
160,141,64450,1,0
193,179,64879,1,0
450,186,65735,5,0
424,142,66164,1,0
399,187,66592,1,0
219,322,67449,5,0
249,284,67877,1,0
286,328,68306,1,0
180,195,69162,5,0
244,112,69591,1,0
333,200,70019,1,0
423,324,70876,5,0
284,316,71519,1,0
284,316,71733,1,0
117,216,72590,5,0
164,157,73446,1,0
192,117,73875,1,0
217,158,74303,1,0
444,296,75160,5,0
402,247,75588,1,0
362,297,76017,1,0
317,298,76445,1,0
119,224,76873,2,0,B|213:116|307:258|438:178,1,320
76,188,82014,1,0
97,152,82442,1,0
127,190,82871,1,0
406,182,83728,5,0
386,149,84156,1,0
369,180,84584,1,0
169,308,85227,5,0
169,308,85441,1,0
353,313,85870,1,0
104,200,86941,5,0
151,158,87155,1,0
201,189,87369,1,0
251,156,87583,1,0
297,190,87797,1,0
341,154,88012,1,0
376,144,88440,1,0
202,316,89297,5,0
224,284,89511,1,0
239,316,89725,1,0
282,274,90153,1,0
303,322,90582,2,0,B|405:212,1,140
256,192,92510,12,0,94010
89,259,95723,6,0,B|111:244,6,20
185,236,98293,2,0,B|242:160,1,80
256,192,99792,12,0,100863
48,170,101720,5,0
77,128,102577,1,0
117,171,103434,1,0
176,169,103862,1,0
204,169,104076,1,0
98,253,105575,6,0,B|197:193|260:297|302:282,1,200
89,256,108574,5,0
118,217,109431,1,0
139,260,110288,1,0
200,264,110930,2,0,B|306:310,1,100
309,285,113715,1,0
72,169,114572,5,0
102,128,115428,1,0
137,174,116285,1,0
176,129,117142,1,0
91,332,117999,5,0
131,295,118855,1,0
155,339,119284,1,0
218,334,120141,2,0,B|239:308,6,20
104,320,122283,1,0
138,272,123139,5,0
164,316,123996,1,0
256,192,124853,12,0,126566
220,199,127423,5,0
315,197,127852,1,0
44,148,129137,5,0
72,108,129565,1,0
105,150,129994,1,0
148,153,130422,1,0
200,151,130850,1,0
260,159,131279,1,0
295,56,131707,5,0
268,88,132135,1,0
304,119,132564,1,0
272,151,132992,1,0
308,180,133421,1,0
277,209,133849,1,0
312,240,134277,1,0
271,264,134706,1,0
309,311,135134,1,0
52,198,135991,5,0
96,186,136634,2,0,B|122:167,9,20
60,180,139846,1,0
99,181,140275,1,0
140,180,140703,1,0
179,183,141132,1,0
92,320,141988,5,0
116,273,142417,1,0
192,323,142845,2,0,B|212:282,2,40
76,298,144559,1,0
120,264,144987,1,0
214,307,145416,5,0
255,280,145844,1,0
282,308,146272,1,0
327,311,146701,1,0
89,168,147557,5,0
114,134,147986,1,0
148,174,148414,1,0
193,177,148843,1,0
256,184,149699,5,0
181,332,150556,5,0
324,329,151413,1,0
132,210,152270,5,0
173,170,152698,1,0
209,213,153126,1,0
237,174,153555,1,0
265,218,153983,1,0
308,212,154412,1,0
356,212,154840,1,0
392,211,155268,1,0
256,192,155911,12,0,156982
256,192,157410,12,0,158267
56,190,159124,5,0
81,140,159981,1,0
106,188,160837,1,0
144,185,161266,1,0
209,171,161694,1,0
433,231,162551,5,0
408,187,163408,1,0
370,232,164265,1,0
332,233,164693,1,0
289,235,165121,1,0
368,317,165978,6,0,B|289:256|214:313|165:308,1,200
136,290,169405,1,0
256,192,171119,12,0,172832
166,300,174117,5,0
296,309,174546,1,0
72,200,175403,5,0
110,160,175831,1,0
139,207,176259,1,0
256,192,184827,12,0,186541
48,276,187398,5,0
73,246,187826,1,0
94,282,188254,1,0
148,281,188683,2,0,B|171:268,6,20
150,300,190825,1,0
180,287,191253,1,0
69,168,192538,5,0
104,137,193181,1,0
133,172,193395,1,0
185,177,194252,1,0
237,179,195108,1,0
295,177,195965,1,0
420,331,196822,2,0,B|424:209,1,120
421,209,198536,2,0,B|421:340,1,120
68,190,200463,5,0
92,156,200678,1,0
110,187,201106,1,0
148,193,201534,1,0
220,197,202819,5,0
262,168,203248,1,0
284,202,203676,1,0
219,332,204533,5,0
256,300,204961,1,0
284,330,205390,1,0
94,324,207103,2,0,B|98:236,1,80
96,240,208817,2,0,B|92:333,1,80
137,267,210102,6,0,B|145:245,8,20
268,277,212458,2,0,B|260:252,7,20
96,176,214814,2,0,B|145:152,6,40
418,245,218241,2,0,B|400:205,4,40
70,306,227452,6,0,B|84:284,9,20
172,301,230879,2,0,B|154:271,9,20
96,288,234520,5,0
113,259,234949,1,0
126,286,235377,1,0
195,292,236020,1,0
224,294,236234,1,0
257,296,236662,1,0
436,224,237947,5,0
414,188,238376,1,0
382,228,239018,1,0
337,232,239232,1,0
284,228,240089,1,0
247,221,240518,1,0
208,221,240946,1,0
132,316,241589,6,0,B|260:240|72:204,1,200
314,317,244801,6,0,B|288:263|346:157|420:296,1,200
