osu file format v6

[General]
AudioFilename: Kylee - Just Breathe.mp3
AudioLeadIn: 0
PreviewTime: -1
Countdown: 1
SampleSet: None
StackLeniency: 0.7
Mode: 0
LetterboxInBreaks: 1

[Editor]
DistanceSpacing: 0.800000011920929
BeatDivisor: 6
GridSize: 32

[Metadata]
Title:Just Breathe
Artist:Kylee
Creator:dragonfire101
Version:Dragon Slayer Normal
Source:
Tags:

[Difficulty]
HPDrainRate:5
CircleSize:5
OverallDifficulty:4
SliderMultiplier:1.4
SliderTickRate:1

[Events]
//Background and Video events
0,0,"8_screen26_1.jpg"
//Break Periods
2,37525,44150
2,83595,92594
2,116609,120107
2,178917,181713
//Storyboard Layer 0 (Background)
//Storyboard Layer 1 (Fail)
//Storyboard Layer 2 (Pass)
//Storyboard Layer 3 (Foreground)
//Storyboard Sound Samples
//Background Colour Transformations
3,100,163,162,255

[TimingPoints]
22813.5668749028,323.676970383557,4,0,0,100,1,0

[HitObjects]
32,352,22759,2,0,B|416:64,4,466.666666666667
96,160,29610,1,0
96,160,29826,1,0
256,128,30258,1,0
192,128,30419,1,0
192,288,30851,1,0
192,224,31067,1,0
352,224,31498,1,0
416,192,31714,1,0
128,128,33225,1,0
256,160,33602,1,0
288,192,33764,1,0
288,224,33872,1,0
384,320,34250,1,0
352,288,34358,1,0
352,288,34519,1,0
96,256,35221,1,0
160,256,35383,1,0
160,256,35490,1,0
480,96,36515,1,0
448,128,36677,1,0
288,192,37163,1,0
256,224,37325,1,0
256,192,45470,12,0,53077
160,160,54803,5,0
224,224,55127,1,0
288,160,55450,1,0
288,160,55504,1,0
352,256,55828,1,0
0,224,56853,1,0
96,160,57177,1,0
160,224,57447,1,0
256,160,57770,1,0
384,192,58148,1,0
352,288,58471,1,0
192,96,61115,1,0
128,288,61708,1,0
320,128,62410,1,0
224,320,63057,1,0
128,96,63758,1,0
224,160,64082,1,0
256,256,64352,1,0
256,192,65323,1,0
160,224,65646,1,0
512,96,66725,1,0
448,160,66995,1,0
96,160,68020,1,0
128,224,68236,1,0
416,32,69261,1,0
352,128,69584,1,0
288,192,69908,1,0
160,160,70232,1,0
192,256,71796,1,0
320,288,72174,1,0
320,160,73199,1,0
224,224,73522,1,0
192,256,73684,1,0
160,160,74493,1,0
288,160,74871,1,0
192,256,75788,1,0
256,160,76166,1,0
288,192,77137,1,0
320,64,77514,1,0
256,160,77838,1,0
224,224,78108,1,0
192,192,79133,1,0
256,288,79457,1,0
288,224,80428,1,0
224,320,80805,1,0
64,64,81668,1,0
192,96,82046,1,0
384,192,82639,1,0
416,320,83017,1,0
288,352,83395,1,0
32,192,93914,6,0,B|384:96,1,350
320,256,95209,2,0,B|96:96,6,256.666666666667
96,288,100388,2,0,B|448:128,1,373.333333333333
416,352,102761,2,0,B|160:64,2,373.333333333333
96,256,106969,2,0,B|448:160,4,396.666666666667
64,128,112148,2,0,B|512:128,1,443.333333333333
160,256,115277,2,0,B|224:192|224:224,7,70
192,128,121427,5,0
160,320,122020,1,0
320,160,122667,1,0
160,192,124987,1,0
256,128,125365,1,0
288,224,125634,1,0
384,160,125958,1,0
352,256,126282,1,0
256,256,126605,1,0
160,160,126929,1,0
128,256,127253,1,0
192,192,127523,1,0
288,256,127900,1,0
192,128,130597,1,0
192,128,130921,1,0
416,128,131515,1,0
288,128,131838,1,0
160,320,132486,1,0
160,192,132863,1,0
288,160,133187,1,0
256,192,134212,1,0
256,96,134536,1,0
384,160,135507,1,0
288,224,135830,1,0
192,160,136154,1,0
64,320,136747,1,0
160,288,137071,1,0
224,224,137341,1,0
480,256,138096,1,0
416,160,138420,1,0
64,160,139391,1,0
160,96,139714,1,0
288,192,140146,1,0
384,128,140470,1,0
128,288,141387,1,0
192,192,141710,1,0
288,288,142681,1,0
320,160,143059,1,0
416,96,143383,1,0
224,224,144030,1,0
224,128,144354,1,0
128,192,145325,1,0
96,64,145702,1,0
384,160,146620,1,0
320,256,146943,1,0
224,224,147267,1,0
224,96,147591,1,0
320,128,147914,1,0
384,224,148292,1,0
160,224,148939,2,0,B|384:64,1,256.666666666667
128,320,151529,2,0,B|384:288,1,233.333333333333
64,160,153471,2,0,B|256:96|256:256,2,256.666666666667
96,224,156006,2,0,B|224:128|352:288,3,256.666666666667
256,192,161455,12,0,165986
96,192,167335,5,0
288,96,167928,1,0
160,320,168630,1,0
352,192,169277,1,0
128,160,169924,1,0
288,288,170518,1,0
224,64,171165,1,0
192,160,171489,1,0
320,192,171812,1,0
224,256,172190,1,0
128,224,172514,1,0
96,256,173862,2,0,B|352:96,6,350
96,224,183033,5,0
96,224,183195,1,0
256,256,183681,1,0
192,224,183842,1,0
224,96,184274,1,0
224,32,184436,1,0
352,128,184921,1,0
352,128,185083,1,0
256,288,185623,1,0
