osu file format v6

[General]
AudioFilename: Kylee - Just Breathe.mp3
AudioLeadIn: 0
PreviewTime: -1
Countdown: 1
SampleSet: None
StackLeniency: 0.7
Mode: 0
LetterboxInBreaks: 1

[Editor]
DistanceSpacing: 0.800000011920929
BeatDivisor: 3
GridSize: 32

[Metadata]
Title:Just Breathe
Artist:Kylee
Creator:dragonfire101
Version:Baby Dragon Easy
Source:
Tags:

[Difficulty]
HPDrainRate:5
CircleSize:5
OverallDifficulty:4
SliderMultiplier:1.4
SliderTickRate:1

[Events]
//Background and Video events
0,0,"8_screen26_1.jpg"
//Break Periods
2,83513,87368
2,138657,160678
2,177139,181746
//Storyboard Layer 0 (Background)
//Storyboard Layer 1 (Fail)
//Storyboard Layer 2 (Pass)
//Storyboard Layer 3 (Foreground)
//Storyboard Sound Samples
//Background Colour Transformations
3,100,0,0,0

[TimingPoints]
21935.8192876906,322.476620445018,4,0,0,100,1,0

[HitObjects]
192,192,21935,1,0
256,224,23763,1,0
64,128,24408,1,0
192,192,26235,1,0
416,64,26987,1,0
160,352,28062,1,0
288,224,29567,1,0
256,192,29675,1,0
128,96,30212,1,0
160,128,30320,1,0
288,256,30857,1,0
256,224,31072,1,0
192,96,31502,1,0
224,160,31717,1,0
288,160,34834,1,0
256,192,34942,1,0
96,192,35479,1,0
160,192,35587,1,0
320,224,36124,1,0
256,224,36339,1,0
96,288,36769,1,0
160,256,36984,1,0
224,160,40102,1,0
224,192,41391,1,0
256,192,42681,1,0
224,192,45046,1,0
320,128,45369,1,0
224,192,47948,1,0
256,160,50206,1,0
256,288,50528,1,0
224,192,51926,1,0
256,192,53216,1,0
224,192,55580,1,0
288,160,55795,1,0
256,192,57085,1,0
224,192,58483,1,0
224,192,59773,1,0
288,160,60740,1,0
320,256,61062,1,0
224,224,62352,1,0
160,192,64072,1,0
320,64,64610,1,0
288,192,65040,1,0
160,192,66652,1,0
384,256,67297,1,0
288,160,67620,1,0
160,224,69232,1,0
352,64,69984,1,0
352,192,70307,1,0
0,256,71274,1,0
224,224,71919,1,0
384,96,72457,1,0
352,224,72887,1,0
32,288,73854,1,0
192,160,74499,1,0
384,256,75144,1,0
256,288,75466,1,0
0,0,76541,1,0
160,160,77186,1,0
384,256,77831,1,0
288,352,78261,1,0
256,64,79014,1,0
192,288,79659,1,0
384,128,80411,1,0
160,224,81164,1,0
256,64,81701,1,0
256,192,82131,1,0
288,192,82991,1,0
288,320,83313,1,0
256,192,88688,12,0,95030
160,192,96535,5,0
192,224,98792,1,0
288,192,99115,1,0
128,160,101587,1,0
224,128,104059,1,0
256,224,104382,1,0
128,224,106962,1,0
288,256,109326,1,0
320,160,109649,1,0
0,256,110616,1,0
192,160,111261,1,0
384,256,111906,1,0
352,160,112229,1,0
64,320,113196,1,0
192,128,113841,1,0
384,224,114486,1,0
288,224,114809,1,0
425,224,117711,2,0,B|256:96|256:96|288:256|288:256|288:384|288:384,4,560
192,224,124375,1,0
384,96,125020,1,0
320,192,125343,1,0
0,256,126310,1,0
128,256,126633,1,0
384,64,127600,1,0
320,160,127923,1,0
224,256,129643,1,0
384,128,130287,1,0
320,224,130610,1,0
0,224,131470,1,0
128,256,131900,1,0
320,224,132437,1,0
160,288,132975,1,0
224,320,133190,1,0
224,256,134157,1,0
448,288,134802,1,0
224,160,135555,1,0
288,352,136200,1,0
256,128,136844,1,0
256,192,137059,1,0
224,224,138134,1,0
320,288,138457,1,0
224,192,161998,6,0,B|256:256,17,46.6666666666667
256,192,167372,12,0,176939
160,256,183066,5,0
224,224,184356,1,0
288,192,185431,1,0
192,320,185861,1,0
