osu file format v14

[General]
AudioFilename: Tempest.mp3
AudioLeadIn: 2000
PreviewTime: 62193
Countdown: 0
SampleSet: Soft
StackLeniency: 0.3
Mode: 0
LetterboxInBreaks: 0
WidescreenStoryboard: 0

[Editor]
DistanceSpacing: 1.5
BeatDivisor: 4
GridSize: 4
TimelineZoom: 1

[Metadata]
Title:Daisuki Nano ni (TV Size)
TitleUnicode:大好きなのに (TV Size)
Artist:Kylee
ArtistUnicode:Kylee
Creator:Fumika
Version:Insane
Source:Zetsuen no Tempest
Tags:Netsukawa opening op2 No_Gu NoGu Kiiwa Naryuga
BeatmapID:215871
BeatmapSetID:76701

[Difficulty]
HPDrainRate:7
CircleSize:4
OverallDifficulty:7
ApproachRate:8.3
SliderMultiplier:1.76
SliderTickRate:1

[Events]
//Background and Video events
Video,-205,"Tempest.avi"
0,0,"H-I.jpg",0,0
//Break Periods
//Storyboard Layer 0 (Background)
//Storyboard Layer 1 (Fail)
//Storyboard Layer 2 (Pass)
//Storyboard Layer 3 (Foreground)
//Storyboard Sound Samples

[TimingPoints]
76,384.62771242668,4,2,1,60,1,0
2768,-100,4,1,1,50,0,0
2864,-100,4,2,1,50,0,0
3537,-100,4,1,1,50,0,0
3633,-100,4,2,1,50,0,0
4306,-100,4,1,1,50,0,0
4403,-100,4,2,1,50,0,0
5076,-100,4,1,1,50,0,0
5172,-100,4,2,1,50,0,0
5845,-100,4,1,1,50,0,0
5941,-100,4,2,1,50,0,0
6614,-100,4,1,1,50,0,0
6710,-100,4,2,1,50,0,0
7383,-100,4,1,1,50,0,0
7480,-100,4,2,1,50,0,0
8153,-100,4,1,1,50,0,0
8249,-100,4,2,1,50,0,0
8922,-100,4,1,1,50,0,0
9018,-100,4,2,1,50,0,0
9691,-100,4,1,1,50,0,0
9787,-100,4,2,1,50,0,0
10172,-100,4,2,1,40,0,0
10268,-100,4,2,1,20,0,0
10460,-100,4,1,1,50,0,0
10557,-100,4,2,1,50,0,0
12384,-100,4,1,1,50,0,0
13922,-100,4,1,1,50,0,0
14114,-100,4,2,1,50,0,0
14691,-100,4,1,1,50,0,0
15076,-100,4,2,1,50,0,0
15461,-100,4,1,1,50,0,0
15653,-100,4,2,1,50,0,0
16230,-100,4,1,1,50,0,0
16614,-100,4,2,1,50,0,0
17961,-100,4,1,1,50,0,0
18153,-100,4,2,1,50,0,0
20076,-100,4,1,1,50,0,0
20172,-100,4,2,1,50,0,0
20461,-100,4,1,1,50,0,0
20557,-100,4,2,1,50,0,0
20845,-100,4,1,1,50,0,0
20942,-100,4,2,1,50,0,0
21230,-100,4,1,1,50,0,0
21326,-100,4,2,1,50,0,0
21615,-100,4,1,1,50,0,0
21711,-100,4,2,1,50,0,0
21999,-100,4,1,1,50,0,0
22095,-100,4,2,1,50,0,0
22384,-100,4,1,1,50,0,0
22480,-100,4,2,1,50,0,0
22769,-100,4,1,1,50,0,0
22865,-100,4,2,1,50,0,0
23153,-100,4,1,1,50,0,0
23249,-100,4,2,1,50,0,0
23538,-100,4,1,1,50,0,0
23634,-100,4,2,1,50,0,0
23922,-100,4,1,1,50,0,0
24019,-100,4,2,1,50,0,0
24307,-100,4,1,1,50,0,0
24403,-100,4,2,1,50,0,0
24692,-100,4,1,1,50,0,0
24788,-100,4,2,1,50,0,0
25076,-100,4,1,1,50,0,0
25172,-100,4,2,1,50,0,0
25461,-100,4,1,1,50,0,0
25557,-100,4,2,1,50,0,0
25846,-100,4,1,1,50,0,0
25942,-100,4,2,1,50,0,0
26230,-100,4,1,1,50,0,0
26326,-100,4,2,1,50,0,0
26615,-100,4,1,1,50,0,0
26711,-100,4,2,1,50,0,0
26999,-100,4,1,1,50,0,0
27096,-100,4,2,1,50,0,0
27384,-100,4,1,1,50,0,0
27480,-100,4,2,1,50,0,0
27769,-100,4,1,1,50,0,0
27865,-100,4,2,1,50,0,0
28153,-100,4,1,1,50,0,0
28249,-100,4,2,1,50,0,0
28538,-100,4,1,1,50,0,0
28634,-100,4,2,1,50,0,0
28923,-100,4,1,1,50,0,0
29019,-100,4,2,1,50,0,0
29307,-100,4,1,1,50,0,0
29403,-100,4,2,1,50,0,0
29692,-100,4,1,1,50,0,0
29788,-100,4,2,1,50,0,0
30076,-100,4,1,1,50,0,0
30173,-100,4,2,1,50,0,0
30461,-100,4,1,1,50,0,0
30557,-100,4,2,1,50,0,0
30846,-100,4,1,1,50,0,0
30942,-100,4,2,1,50,0,0
31230,-100,4,1,1,50,0,0
31326,-100,4,2,1,50,0,0
31615,-100,4,1,1,50,0,0
31711,-100,4,2,1,50,0,0
32000,-100,4,1,1,50,0,0
32096,-100,4,2,1,50,0,0
32384,-100,4,1,1,50,0,0
32480,-100,4,2,1,50,0,0
32769,-100,4,1,1,50,0,0
32865,-100,4,2,1,50,0,0
33153,-100,4,1,1,50,0,0
33250,-100,4,2,1,50,0,0
33538,-100,4,1,1,50,0,0
33634,-100,4,2,1,50,0,0
33923,-100,4,1,1,50,0,0
34019,-100,4,2,1,50,0,0
34307,-100,4,1,1,50,0,0
34403,-100,4,2,1,50,0,0
34692,-100,4,1,1,50,0,0
34788,-100,4,2,1,50,0,0
35077,-100,4,1,1,50,0,0
35173,-100,4,2,1,50,0,0
35461,-100,4,1,1,50,0,0
35557,-100,4,2,1,50,0,0
35846,-100,4,1,1,50,0,0
35942,-100,4,2,1,50,0,0
36230,-100,4,1,1,50,0,0
36327,-100,4,2,1,50,0,0
36615,-100,4,1,1,50,0,0
36711,-100,4,2,1,50,0,0
37000,-100,4,1,1,50,0,0
37096,-100,4,2,1,50,0,0
37384,-100,4,1,1,50,0,0
37480,-100,4,2,1,50,0,0
37769,-100,4,1,1,50,0,0
37865,-100,4,2,1,50,0,0
38154,-100,4,1,1,50,0,0
38250,-100,4,2,1,50,0,0
38538,-100,4,1,1,50,0,0
38634,-100,4,2,1,50,0,0
38923,-100,4,1,1,50,0,0
39019,-100,4,2,1,50,0,0
39307,-100,4,1,1,50,0,0
39404,-100,4,2,1,50,0,0
39692,-100,4,1,1,50,0,0
39788,-100,4,2,1,50,0,0
40077,-100,4,1,1,50,0,0
40173,-100,4,2,1,50,0,0
40461,-100,4,1,1,50,0,0
40557,-100,4,2,1,50,0,0
40846,-100,4,1,1,50,0,0
40942,-100,4,2,1,50,0,0
41231,-100,4,1,1,50,0,0
41327,-100,4,2,1,50,0,0
41615,-100,4,1,1,50,0,0
41711,-100,4,2,1,50,0,0
42000,-100,4,1,1,50,0,0
42096,-100,4,2,1,50,0,0
42384,-100,4,1,1,50,0,0
42481,-100,4,2,1,50,0,0
42769,-100,4,1,1,50,0,0
42865,-100,4,2,1,50,0,0
43154,-100,4,1,1,50,0,0
43250,-100,4,2,1,50,0,0
43731,-100,4,1,1,50,0,0
44115,-100,4,2,1,50,0,0
44308,-100,4,1,1,50,0,0
44404,-100,4,2,1,50,0,0
44692,-100,4,1,1,60,0,0
45077,-100,4,2,1,60,0,0
45269,-100,4,1,1,60,0,0
45365,-100,4,2,1,60,0,0
46231,-100,4,1,1,60,0,0
46615,-100,4,2,1,60,0,0
46808,-100,4,1,1,60,0,0
46904,-100,4,2,1,60,0,0
47577,-100,4,1,1,60,0,0
48154,-100,4,2,1,60,0,0
48346,-100,4,1,1,60,0,0
48442,-100,4,2,1,60,0,0
49308,-100,4,1,1,60,0,0
49692,-100,4,2,1,60,0,0
49885,-100,4,1,1,60,0,0
49981,-100,4,2,1,60,0,0
50846,-100,4,1,1,60,0,0
51231,-100,4,2,1,60,0,0
51423,-100,4,1,1,60,0,0
51519,-100,4,2,1,60,0,0
52385,-100,4,1,1,60,0,0
52769,-100,4,2,1,60,0,0
52962,-100,4,1,1,60,0,0
53058,-100,4,2,1,60,0,0
53923,-100,4,1,1,60,0,0
54308,-100,4,2,1,60,0,0
54500,-100,4,1,1,60,0,0
54596,-100,4,2,1,60,0,0
55462,-100,4,1,1,60,0,0
55654,-100,4,2,1,60,0,0
56039,-100,4,1,1,60,0,0
56135,-100,4,2,1,60,0,0
59308,-100,4,1,1,60,0,0
60077,-100,4,2,1,60,0,0
62481,-100,4,2,1,50,0,0
62578,-100,4,2,1,30,0,0
62674,-100,4,2,1,50,0,0
62770,-100,4,2,1,60,0,0
63154,-100,4,1,1,70,0,1
63251,-100,4,2,1,70,0,1
63924,-100,4,1,1,70,0,1
64308,-100,4,2,1,70,0,1
64693,-100,4,1,1,70,0,1
64789,-100,4,2,1,70,0,1
65462,-100,4,1,1,70,0,1
65847,-100,4,2,1,70,0,1
66231,-100,4,1,1,70,0,1
66328,-100,4,2,1,70,0,1
67001,-100,4,1,1,70,0,1
67385,-100,4,2,1,70,0,1
67770,-100,4,1,1,70,0,1
67866,-100,4,2,1,70,0,1
68539,-100,4,1,1,70,0,1
68924,-100,4,2,1,70,0,1
69308,-100,4,1,1,70,0,1
69405,-100,4,2,1,70,0,1
70078,-100,4,1,1,70,0,1
70462,-100,4,2,1,70,0,1
70847,-100,4,1,1,70,0,1
70943,-100,4,2,1,70,0,1
71616,-100,4,1,1,70,0,1
72001,-100,4,2,1,70,0,1
72385,-100,4,1,1,70,0,1
72770,-100,4,2,1,70,0,1
73155,-100,4,1,1,70,0,1
73539,-100,4,2,1,70,0,1
73924,-100,4,1,1,70,0,1
74309,-100,4,2,1,70,0,1
74693,-100,4,1,1,70,0,1
74886,-100,4,2,1,70,0,1
75366,-100,4,2,1,70,0,0
75463,-100,4,1,1,70,0,1
75559,-100,4,2,1,70,0,1
76232,-100,4,1,1,70,0,1
76616,-100,4,2,1,70,0,1
77001,-100,4,1,1,70,0,1
77097,-100,4,2,1,70,0,1
77770,-100,4,1,1,70,0,1
78155,-100,4,2,1,70,0,1
78539,-100,4,1,1,70,0,1
78636,-100,4,2,1,70,0,1
79309,-100,4,1,1,70,0,1
79693,-100,4,2,1,70,0,1
80078,-100,4,1,1,70,0,1
80174,-100,4,2,1,70,0,1
80847,-100,4,1,1,70,0,1
81232,-100,4,2,1,70,0,1
81616,-100,4,1,1,70,0,1
81713,-100,4,2,1,70,0,1
82386,-100,4,1,1,70,0,1
82770,-100,4,2,1,70,0,1
83155,-100,4,1,1,70,0,1
83251,-100,4,2,1,70,0,1
84694,-100,4,2,1,70,0,0
86232,-100,4,1,1,40,0,0
86424,-100,4,2,1,70,0,0

[Colours]
Combo1 : 255,128,64
Combo2 : 128,255,0
Combo3 : 154,235,252
Combo4 : 218,65,65
Combo5 : 255,236,0
Combo6 : 255,128,192
Combo7 : 0,128,255
Combo8 : 80,0,128

[HitObjects]
196,300,845,5,2,0:0:0:0:
180,308,1229,1,0,0:0:0:0:
164,316,1614,2,0,P|84:296|76:212,2,176,2|0|2,1:2|1:0|0:0,0:0:0:0:
280,184,2768,5,0,0:0:0:0:
296,176,3153,2,0,P|376:196|384:280,2,176,2|0|2,0:0|0:0|0:0,0:0:0:0:
256,348,4306,1,0,0:0:0:0:
120,236,4691,5,2,0:0:0:0:
248,116,5076,1,0,0:0:0:0:
376,236,5460,1,2,0:0:0:0:
248,116,5845,1,0,0:0:0:0:
120,236,6230,6,0,P|112:312|196:344,2,176,2|0|2,0:0|0:0|0:0,0:0:0:0:
120,236,7383,1,0,0:0:0:0:
256,124,7768,6,0,B|284:208|228:208|256:304,1,176,4|0,0:0|0:0,0:0:0:0:
332,336,8345,1,2,0:0:0:0:
384,264,8537,2,0,P|419:245|474:255,1,88,0|0,0:0|0:0,0:0:0:0:
332,336,8922,2,0,P|256:380|172:328,2,176,0|2|0,0:0|0:0|0:0,0:0:0:0:
296,256,9884,1,2,0:0:0:0:
344,184,10076,6,0,L|392:168,2,44,0|0|8,0:0|0:0|0:0,0:0:0:0:
256,172,10460,1,0,0:0:0:0:
208,244,10653,1,2,0:0:0:0:
124,272,10845,5,8,0:0:0:0:
112,276,10941,1,8,0:0:0:0:
100,280,11037,1,8,0:0:0:0:
52,112,11422,5,8,0:0:0:0:
64,108,11518,1,8,0:0:0:0:
76,104,11614,1,8,0:0:0:0:
252,104,11999,5,8,0:0:0:0:
264,108,12095,1,8,0:0:0:0:
276,112,12191,1,8,0:0:0:0:
316,192,12384,1,0,0:0:0:0:
388,140,12576,6,0,P|424:124|480:128,1,88
456,284,12961,2,0,P|440:244|444:192,1,88
508,344,13345,2,0,P|464:360|420:352,1,88
392,336,13634,1,0,0:0:0:0:
360,320,13730,2,0,L|316:320,1,44
292,344,13922,6,0,P|252:360|200:356,1,88,4|2,0:0|0:0,0:0:0:0:
112,268,14307,2,0,P|168:248|240:272,1,132,8|8,0:0|0:0,0:0:0:0:
248,284,14691,2,0,P|280:256|292:200,1,88,0|2,0:0|0:0,0:0:0:0:
152,120,15076,2,0,P|120:148|108:204,1,88,8|0,0:0|0:0,0:0:0:0:
176,336,15461,5,2,0:0:0:0:
256,376,15653,1,0,0:0:0:0:
92,356,15845,2,0,P|52:336|28:296,1,88,8|2,0:0|0:0,0:0:0:0:
28,264,16134,1,8,0:0:0:0:
28,264,16230,2,0,L|32:176,1,88,0|2,0:0|0:0,0:0:0:0:
44,88,16614,1,8,0:0:0:0:
116,36,16807,1,2,0:0:0:0:
172,104,16999,6,0,P|200:136|244:156,1,88,8|2,0:0|0:0,0:0:0:0:
312,16,17384,2,0,P|272:36|244:88,1,88,8|2,0:0|0:0,0:0:0:0:
356,184,17768,2,0,P|396:164|424:112,1,88,8|0,0:0|0:0,0:0:0:0:
416,92,18057,5,0,0:0:0:0:
416,92,18153,2,0,L|424:188,1,88,0|4,0:0|0:0,0:0:0:0:
320,320,18730,5,8,0:0:0:0:
300,328,18826,1,8,0:0:0:0:
280,336,18922,1,8,0:0:0:0:
260,332,19018,1,8,0:0:0:0:
240,328,19115,1,8,0:0:0:0:
220,332,19211,1,8,0:0:0:0:
200,336,19307,6,8,L|140:348,3,44
136,344,19692,2,8,L|84:332,3,44
72,340,20076,6,0,P|24:268|48:184,1,176,4|0,0:0|0:0,0:0:0:0:
132,160,20653,2,0,P|176:172|220:164,1,88,2|0,0:0|0:0,0:0:0:0:
296,128,21038,1,2,0:0:0:0:
296,128,21230,2,0,P|337:121|381:133,1,88,0|0,0:0|0:0,0:0:0:0:
392,264,21615,2,0,P|324:276|264:252,1,132,2|2,0:0|0:0,0:0:0:0:
244,216,21999,2,0,P|200:204|160:216,1,88,0|2,0:0|0:0,0:0:0:0:
72,224,22384,2,0,P|84:264|120:296,2,88,0|2|0,0:0|0:0|0:0,0:0:0:0:
72,136,22961,1,0,0:0:0:0:
140,80,23153,6,0,B|228:52|228:100|316:80,1,176,2|0,0:0|0:0,0:0:0:0:
380,20,23730,1,2,0:0:0:0:
396,108,23922,2,0,L|408:204,1,88,0|2,0:0|0:0,0:0:0:0:
348,352,24307,2,0,L|336:256,1,88,0|0,0:0|0:0,0:0:0:0:
260,220,24692,2,0,P|220:240|172:240,1,88,2|0,0:0|0:0,0:0:0:0:
12,240,25076,1,0,0:0:0:0:
12,240,25269,2,0,P|52:220|100:220,1,88,2|0,0:0|0:0,0:0:0:0:
72,304,25653,1,2,0:0:0:0:
12,240,25846,1,0,0:0:0:0:
4,152,26038,6,0,P|12:108|40:76,1,88,0|2,0:0|0:0,0:0:0:0:
128,64,26422,1,0,0:0:0:0:
184,132,26615,1,0,0:0:0:0:
264,92,26807,2,0,B|352:68|352:116|444:92,1,176,2|2,0:0|0:0,0:0:0:0:
392,16,27384,2,0,L|296:0,1,88
316,164,27769,2,0,L|412:180,1,88,2|0,0:0|0:0,0:0:0:0:
236,164,28153,2,0,P|196:148|151:146,1,88,0|2,0:0|0:0,0:0:0:0:
84,204,28538,1,0,0:0:0:0:
40,272,28730,2,0,L|32:360,1,88,2|0,0:0|0:0,0:0:0:0:
112,368,29115,6,0,L|120:280,1,88,0|2,0:0|0:0,0:0:0:0:
184,232,29500,1,0,0:0:0:0:
240,288,29692,2,0,P|280:312|340:312,1,88,0|2,0:0|0:0,0:0:0:0:
364,164,30076,2,0,P|324:188|300:232,1,88,0|2,0:0|0:0,0:0:0:0:
440,144,30461,2,0,P|416:100|376:80,1,88
340,84,30750,1,0,0:0:0:0:
340,84,30846,2,0,L|240:88,1,88,2|0,0:0|0:0,0:0:0:0:
96,144,31230,6,0,L|196:140,1,88,0|2,0:0|0:0,0:0:0:0:
20,100,31615,2,0,P|8:144|28:196,1,88,0|8,0:0|0:0,0:0:0:0:
180,232,32000,1,8,0:0:0:0:
160,236,32096,1,8,0:0:0:0:
140,240,32192,1,8,0:0:0:0:
268,272,32384,6,0,P|276:232|264:184,1,88,4|2,0:0|0:0,0:0:0:0:
368,100,32769,2,0,P|400:128|452:136,1,88,0|2,0:0|0:0,0:0:0:0:
460,268,33153,2,0,P|420:288|392:324,1,88,0|2,0:0|0:0,0:0:0:0:
476,356,33538,6,0,B|431:320|431:320|404:260|404:260|360:220,1,176,8|2,0:0|0:0,0:0:0:0:
300,164,34115,1,0,0:0:0:0:
280,248,34307,2,0,P|252:284|212:296,1,88,0|2,0:0|0:0,0:0:0:0:
136,252,34692,1,0,0:0:0:0:
52,280,34884,1,2,0:0:0:0:
36,292,34980,1,0,0:0:0:0:
20,304,35077,2,0,L|40:172,1,132,8|0,0:0|0:0,0:0:0:0:
28,156,35461,6,0,P|72:168|116:156,1,88,2|0,0:0|0:0,0:0:0:0:
188,112,35846,2,0,P|232:100|276:112,1,88,0|2,0:0|0:0,0:0:0:0:
344,220,36231,1,0,0:0:0:0:
220,268,36423,2,0,L|232:176,1,88,2|8,0:0|0:0,0:0:0:0:
108,132,36807,2,0,L|96:224,1,88,0|2,0:0|0:0,0:0:0:0:
136,300,37192,1,0,0:0:0:0:
220,268,37384,1,0,0:0:0:0:
324,136,37577,5,2,0:0:0:0:
284,212,37769,1,0,0:0:0:0:
304,296,37961,2,0,P|344:308|396:292,1,88,2|8,0:0|0:0,0:0:0:0:
220,268,38346,1,2,0:0:0:0:
340,384,38538,6,0,P|408:372|460:332,1,132,4|2,0:0|0:0,0:0:0:0:
468,300,38923,2,0,L|480:204,1,88,0|2,0:0|0:0,0:0:0:0:
396,68,39308,2,0,L|384:164,1,88,0|2,0:0|0:0,0:0:0:0:
276,84,39692,2,0,P|236:56|188:56,1,88,8|0,0:0|0:0,0:0:0:0:
320,212,40077,2,0,P|360:240|408:240,1,88,2|0,0:0|0:0,0:0:0:0:
212,140,40461,2,0,L|200:236,1,88,0|2,0:0|0:0,0:0:0:0:
188,268,40750,1,0,0:0:0:0:
188,268,40846,2,0,P|152:296|104:304,1,88,0|2,0:0|0:0,0:0:0:0:
28,272,41231,1,8,0:0:0:0:
88,152,41423,5,2,0:0:0:0:
96,132,41519,1,0,0:0:0:0:
104,112,41615,2,0,B|124:76|124:76|136:56|168:48,1,88,4|2,0:0|0:0,0:0:0:0:
340,52,42000,2,0,P|300:68|256:68,1,88,0|2,0:0|0:0,0:0:0:0:
424,8,42385,2,0,P|436:48|424:96,1,88,0|2,0:0|0:0,0:0:0:0:
352,140,42769,1,8,0:0:0:0:
352,140,43154,5,4,0:0:0:0:
404,208,43346,1,8,0:0:0:0:
368,288,43538,1,8,0:0:0:0:
368,288,43635,1,8,0:0:0:0:
368,288,43731,1,2,0:0:0:0:
264,236,43923,5,0,0:0:0:0:
152,264,44115,1,2,0:0:0:0:
96,364,44308,1,0,0:0:0:0:
96,364,44692,5,4,0:0:0:0:
184,368,44885,1,0,0:0:0:0:
260,324,45077,1,8,0:0:0:0:
264,236,45269,2,0,P|352:164|444:252,1,264,0|8,0:0|0:0,0:0:0:0:
324,384,46231,5,0,0:0:0:0:
260,324,46423,1,0,0:0:0:0:
176,304,46615,1,8,0:0:0:0:
92,336,46808,2,0,P|28:300|84:152,1,264,0|8,0:0|0:0,0:0:0:0:
172,140,47577,2,0,L|260:136,1,88
340,244,47962,2,0,L|252:248,1,88,0|8,0:0|0:0,0:0:0:0:
356,328,48346,2,0,P|428:232|336:156,1,264,0|8,0:0|0:0,0:0:0:0:
72,144,49308,6,0,P|104:168|160:168,1,88
236,152,49692,1,8,0:0:0:0:
224,64,49885,1,0,0:0:0:0:
140,84,50077,2,0,P|104:160|136:260,1,176,2|8,0:0|0:0,0:0:0:0:
296,212,50846,6,0,P|336:200|396:212,1,88,4|0,0:0|0:0,0:0:0:0:
396,372,51231,2,0,P|356:384|296:372,1,88,8|0,0:0|0:0,0:0:0:0:
310,378,51616,5,2,0:0:0:0:
310,378,52000,1,8,0:0:0:0:
310,378,52385,5,0,0:0:0:0:
212,292,52577,1,0,0:0:0:0:
80,308,52769,1,8,0:0:0:0:
148,364,52962,2,0,P|268:360|284:236,1,264,0|8,0:0|0:0,0:0:0:0:
200,84,53923,5,0,0:0:0:0:
200,84,54116,2,0,L|184:180,1,88,0|8,0:0|0:0,0:0:0:0:
60,132,54500,1,0,0:0:0:0:
140,24,54693,2,0,P|220:0|284:60,1,176,2|8,0:0|0:0,0:0:0:0:
320,320,55462,6,0,L|308:204,1,88,0|8,0:0|0:0,0:0:0:0:
310,232,55847,1,8,0:0:0:0:
244,176,56039,1,0,0:0:0:0:
160,148,56231,2,0,P|116:152|80:176,1,88,2|8,0:0|0:0,0:0:0:0:
100,308,56616,1,8,0:0:0:0:
116,320,56712,1,8,0:0:0:0:
136,332,56808,6,0,P|180:328|216:304,1,88,8|4,0:0|0:0,0:0:0:0:
244,176,57193,1,0,1:0:0:0:
376,160,57385,1,0,1:0:0:0:
324,280,57577,1,0,1:0:0:0:
244,176,57770,2,0,P|200:164|156:176,2,88,0|8|4,1:0|0:0|0:0,0:0:0:0:
264,192,58731,6,8,L|264:244,3,44
264,260,59116,5,8,0:0:0:0:
264,280,59212,1,8,0:0:0:0:
264,300,59308,2,0,L|220:328,3,44
184,324,59693,2,0,L|144:300,3,44
108,280,60077,5,8,0:0:0:0:
108,268,60174,1,8,0:0:0:0:
108,256,60270,1,8,0:0:0:0:
108,80,60654,5,8,0:0:0:0:
120,80,60751,1,8,0:0:0:0:
132,80,60847,1,8,0:0:0:0:
308,80,61231,5,8,0:0:0:0:
308,92,61327,1,8,0:0:0:0:
308,104,61424,1,8,0:0:0:0:
308,280,61808,5,8,0:0:0:0:
296,280,61904,1,8,0:0:0:0:
284,280,62001,1,8,0:0:0:0:
108,280,62385,38,0,L|80:268,7,22,8|0|0|0|0|0|0|0,0:0|0:0|0:0|0:0|1:0|0:0|0:0|0:0,0:0:0:0:
108,248,62770,101,8,0:0:0:0:
108,228,62866,1,8,0:0:0:0:
108,208,62962,1,8,0:0:0:0:
108,188,63058,1,8,0:0:0:0:
108,168,63154,22,0,P|132:112|208:84,1,132,4|0,0:0|0:0,0:0:0:0:
224,100,63539,2,0,L|312:96,1,88,8|0,0:0|0:0,0:0:0:0:
316,228,63924,2,0,L|228:232,1,88
332,312,64308,2,0,P|396:248|372:168,1,176,8|2,0:0|0:0,0:0:0:0:
312,116,64885,1,0,0:0:0:0:
224,100,65078,2,0,L|84:104,1,132,8|8,0:0|0:0,0:0:0:0:
64,136,65462,6,0,L|168:132,1,88
160,300,65847,2,0,L|56:304,1,88,8|0,0:0|0:0,0:0:0:0:
172,216,66231,6,0,L|360:208,1,176,2|8,0:0|0:0,0:0:0:0:
420,160,66808,1,0,0:0:0:0:
420,160,66905,1,8,0:0:0:0:
420,160,67001,2,0,P|436:200|428:244,1,88
304,356,67385,2,0,P|288:316|296:272,1,88,8|0,0:0|0:0,0:0:0:0:
376,308,67770,2,0,L|192:312,1,176,2|8,0:0|0:0,0:0:0:0:
112,328,68347,5,0,0:0:0:0:
92,336,68443,1,8,0:0:0:0:
72,344,68539,2,0,P|40:312|32:264,1,88
108,112,68924,2,0,P|152:184|116:276,2,176,8|4|8,0:0|0:0|0:0,0:0:0:0:
44,172,69885,1,0,0:0:0:0:
60,184,69982,1,8,0:0:0:0:
80,196,70078,2,0,L|180:192,1,88
256,96,70462,1,8,0:0:0:0:
312,216,70655,5,0,0:0:0:0:
312,216,70847,2,0,P|352:236|396:236,1,88,2|0,0:0|0:0,0:0:0:0:
432,72,71232,2,0,P|392:52|348:52,1,88,8|0,0:0|0:0,0:0:0:0:
320,84,71520,1,8,0:0:0:0:
320,84,71616,2,0,L|228:84,1,88
80,156,72001,1,8,0:0:0:0:
168,144,72193,5,2,0:0:0:0:
88,252,72386,1,4,0:0:0:0:
196,332,72578,1,0,0:0:0:0:
272,224,72770,1,8,0:0:0:0:
284,312,72962,5,2,0:0:0:0:
136,336,73155,1,4,0:0:0:0:
108,188,73347,1,0,0:0:0:0:
256,164,73539,1,8,0:0:0:0:
192,228,73732,5,2,0:0:0:0:
352,276,73924,1,4,0:0:0:0:
400,116,74116,1,0,0:0:0:0:
240,68,74309,1,8,0:0:0:0:
108,60,74501,5,2,0:0:0:0:
16,152,74693,1,4,0:0:0:0:
108,248,74886,1,8,0:0:0:0:
208,164,75078,1,8,0:0:0:0:
244,160,75174,1,8,0:0:0:0:
280,156,75270,1,8,0:0:0:0:
316,152,75366,1,8,0:0:0:0:
352,148,75463,6,0,P|420:204|372:284,1,176,4|8,0:0|0:0,0:0:0:0:
312,316,76039,1,0,0:0:0:0:
312,316,76136,1,8,0:0:0:0:
312,316,76232,2,0,L|224:324,1,88
212,192,76616,2,0,L|300:184,1,88,8|0,0:0|0:0,0:0:0:0:
356,344,77001,6,0,L|176:356,1,176,2|8,0:0|0:0,0:0:0:0:
76,272,77578,1,0,0:0:0:0:
92,288,77674,1,0,0:0:0:0:
108,304,77770,2,0,P|132:268|132:220,1,88
116,56,78155,2,0,P|92:92|92:140,1,88,8|0,0:0|0:0,0:0:0:0:
176,120,78540,6,0,P|236:96|304:104,1,132,2|0,0:0|0:0,0:0:0:0:
336,132,78924,2,0,P|352:196|352:268,1,132,8|8,0:0|0:0,0:0:0:0:
348,304,79309,1,0,0:0:0:0:
284,364,79501,1,0,0:0:0:0:
160,316,79693,6,0,P|136:232|144:140,1,176,8|2,0:0|0:0,0:0:0:0:
188,68,80270,1,0,0:0:0:0:
276,68,80463,1,8,0:0:0:0:
336,132,80655,1,0,0:0:0:0:
336,132,80751,1,8,0:0:0:0:
336,132,80847,2,0,P|380:144|420:132,1,88
360,252,81232,2,0,P|348:296|356:340,1,88,8|0,0:0|0:0,0:0:0:0:
256,248,81617,6,0,P|192:232|128:248,1,132,4|0,0:0|0:0,0:0:0:0:
104,284,82001,1,8,0:0:0:0:
208,368,82194,1,0,0:0:0:0:
228,372,82290,1,8,0:0:0:0:
248,376,82386,2,0,P|296:372|332:348,1,88
332,184,82770,2,0,L|332:284,1,88,8|0,0:0|0:0,0:0:0:0:
460,304,83155,2,0,L|460:204,1,88,2|0,0:0|0:0,0:0:0:0:
384,108,83540,2,0,P|340:92|300:96,1,88,8|8,0:0|0:0,0:0:0:0:
280,108,83828,1,8,0:0:0:0:
264,120,83924,6,8,L|264:168,3,44
244,192,84309,2,8,L|244:240,3,44
244,276,84694,5,8,0:0:0:0:
244,284,84790,1,8,0:0:0:0:
244,292,84886,1,8,0:0:0:0:
132,360,85078,1,0,1:0:0:0:
48,212,85271,5,8,0:0:0:0:
48,204,85367,1,8,0:0:0:0:
48,196,85463,1,8,0:0:0:0:
116,84,85655,1,0,1:0:0:0:
244,192,85847,5,8,0:0:0:0:
252,192,85944,1,8,0:0:0:0:
260,192,86040,1,8,0:0:0:0:
336,292,86232,1,0,0:0:0:0:
336,292,86424,5,8,0:0:0:0:
420,268,86617,1,8,0:0:0:0:
440,184,86809,1,8,0:0:0:0:
400,108,87001,1,8,0:0:0:0:
312,100,87194,1,8,0:0:0:0:
252,164,87386,1,8,0:0:0:0:
256,252,87578,1,8,0:0:0:0:
