osu file format v14

[General]
AudioFilename: One_Republic_-_Apologize_Variations_on_Pian.mp3
AudioLeadIn: 0
PreviewTime: 194048
Countdown: 1
SampleSet: Soft
StackLeniency: 0.7
Mode: 0
LetterboxInBreaks: 1
WidescreenStoryboard: 0

[Editor]
DistanceSpacing: 1
BeatDivisor: 4
GridSize: 4
TimelineZoom: 2.2

[Metadata]
Title:Apologize Piano Variations
TitleUnicode:Apologize Piano Variations
Artist:Kyle Landry
ArtistUnicode:Kyle Landry
Creator:BrianTheDrummer
Version:Insane
Source:
Tags:OneRepublic Solo Cover
BeatmapID:651830
BeatmapSetID:289118

[Difficulty]
HPDrainRate:5
CircleSize:4
OverallDifficulty:4.5
ApproachRate:9
SliderMultiplier:2.2
SliderTickRate:1

[Events]
//Background and Video events
0,0,"Apologize.jpg",0,0
//Break Periods
//Storyboard Layer 0 (Background)
//Storyboard Layer 1 (Fail)
//Storyboard Layer 2 (Pass)
//Storyboard Layer 3 (Foreground)
//Storyboard Sound Samples

[TimingPoints]
1646,1200,4,2,25,10,1,0
1946,-100,4,2,32,10,0,0
2146,-100,4,2,35,10,0,0
2246,-100,4,2,39,10,0,0
2346,-100,4,2,40,10,0,0
2446,-100,4,2,47,10,0,0
5493,1000,4,2,37,10,1,0
6243,857.142857142857,4,2,40,10,1,0
6457,-100,4,2,37,10,0,0
6697,857.142857142857,4,2,33,5,1,0
7245,705.882352941176,4,2,40,10,1,0
7421,-100,4,2,37,10,0,0
9280,705.882352941176,4,2,51,10,1,0
9456,-100,4,2,52,10,0,0
9632,-100,4,2,59,10,0,0
11590,681.818181818182,4,2,39,10,1,0
11760,-100,4,2,40,10,0,0
11930,600,4,2,43,10,1,0
11930,-200,4,2,47,10,0,0
12530,-200,4,2,47,10,0,0
15180,666.666666666667,4,2,47,10,1,0
15846,-100,4,2,39,10,0,0
17680,-100,4,2,59,10,0,0
17763,-100,4,2,59,10,0,0
17780,612.244897959184,4,2,59,10,1,0
19616,571.428571428571,4,2,0,10,1,0
19616,-200,4,2,47,10,0,0
20473,-200,4,2,47,10,0,0
22728,571.428571428571,4,2,0,10,1,0
22728,-200,4,2,47,10,0,0
23299,-200,4,2,21,10,0,0
23585,-200,4,2,28,10,0,0
23799,-100,4,2,32,10,0,0
23835,-100,4,2,35,10,0,0
23870,-100,4,2,37,10,0,0
23942,-100,4,2,40,10,0,0
24013,-100,4,2,47,10,0,0
24973,571.428571428571,4,2,47,10,1,0
26814,461.538461538462,4,2,0,10,1,0
26814,-200,4,2,47,10,0,0
27275,-200,4,2,16,10,0,0
27917,560.747663551402,4,2,42,10,1,0
27917,-166.666666666667,4,2,42,10,0,0
29038,-166.666666666667,4,2,40,10,0,0
30295,521.739130434783,4,2,35,10,1,0
30816,-100,4,2,40,10,0,0
31407,600,4,2,42,10,1,0
32007,521.739130434783,4,2,15,10,1,0
32007,-200,4,2,15,10,0,0
33050,-200,4,2,28,20,0,0
34230,582.52427184466,4,2,27,10,1,0
34230,-200,4,2,27,10,0,0
35395,-200,4,2,30,20,0,0
36600,869.565217391304,4,2,28,10,1,0
36600,-66.6666666666667,4,2,28,10,0,0
37034,-66.6666666666667,4,2,25,10,0,0
37504,869.565217391304,4,2,28,10,1,0
37938,800,4,2,20,10,1,0
37938,-66.6666666666667,4,2,20,10,0,0
38138,-66.6666666666667,4,2,13,13,0,0
38338,705.882352941176,4,2,0,10,1,0
38338,-66.6666666666667,4,2,28,12,0,0
38690,-66.6666666666667,4,2,20,10,0,0
38867,-66.6666666666667,4,2,13,10,0,0
39077,800,4,2,28,13,1,0
39077,-66.6666666666667,4,2,28,13,0,0
39877,-66.6666666666667,4,2,30,15,0,0
40277,600,4,2,20,13,1,0
40577,645.161290322581,4,2,30,14,1,0
40577,-66.6666666666667,4,2,30,14,0,0
40899,731.707317073171,4,2,20,13,1,0
41264,750,4,2,30,13,1,0
41264,-66.6666666666667,4,2,30,13,0,0
41639,-66.6666666666667,4,2,20,13,0,0
42014,722.89156626506,4,2,30,13,1,0
42375,-100,4,2,20,13,0,0
42736,800,4,2,28,18,1,0
42736,-66.6666666666667,4,2,28,18,0,0
43136,722.89156626506,4,2,20,14,1,0
43497,-66.6666666666667,4,2,28,14,0,0
44619,779.220779220779,4,2,20,14,1,0
45008,705.882352941176,4,2,28,14,1,0
45360,-100,4,2,20,14,0,0
45713,750,4,2,42,18,1,0
45713,-66.6666666666667,4,2,30,18,0,0
46088,600,4,2,18,14,1,0
46388,731.707317073171,4,2,30,14,1,0
46388,-66.6666666666667,4,2,30,14,0,0
46753,-66.6666666666667,4,2,18,14,0,0
47119,689.655172413793,4,2,59,20,1,0
47119,-66.6666666666667,4,2,59,20,0,0
47463,-66.6666666666667,4,2,18,14,0,0
47808,666.666666666667,4,2,59,20,1,0
47808,-66.6666666666667,4,2,59,20,0,0
48141,750,4,2,18,14,1,0
48516,-100,4,2,28,18,0,0
48891,722.89156626506,4,2,20,14,1,0
49252,705.882352941176,4,2,28,14,1,0
49252,-66.6666666666667,4,2,28,14,0,0
49604,-66.6666666666667,4,2,20,16,0,0
49781,-66.6666666666667,4,2,62,16,0,0
49957,-66.6666666666667,4,2,28,14,0,0
50310,-66.6666666666667,4,2,20,14,0,0
50487,-66.6666666666667,4,2,62,14,0,0
50663,-66.6666666666667,4,2,25,16,0,0
50840,722.89156626506,4,2,20,20,1,0
50840,-66.6666666666667,4,2,20,20,0,0
51020,-66.6666666666667,4,2,11,22,0,0
51201,-66.6666666666667,4,2,30,24,0,0
51382,666.666666666667,4,2,9,26,1,0
51715,750,4,2,21,16,1,0
51902,705.882352941176,4,2,30,18,1,0
51902,-66.6666666666667,4,2,30,18,0,0
52431,-66.6666666666667,4,2,21,16,0,0
52607,689.655172413793,4,2,30,18,1,0
52607,-66.6666666666667,4,2,30,18,0,0
53124,-66.6666666666667,4,2,21,16,0,0
53296,-66.6666666666667,4,2,30,18,0,0
53986,750,4,2,28,22,1,0
54173,714.285714285714,4,2,52,30,1,0
54173,-66.6666666666667,4,2,4,30,0,0
54708,-66.6666666666667,4,2,4,27,0,0
55244,-66.6666666666667,4,2,23,25,0,0
55409,681.818181818182,4,2,23,23,1,0
55409,-66.6666666666667,4,2,23,23,0,0
56110,714.285714285714,4,2,28,25,1,0
56110,-66.6666666666667,4,2,28,25,0,0
56645,-66.6666666666667,4,2,23,25,0,0
56824,-66.6666666666667,4,2,30,25,0,0
57360,-66.6666666666667,4,2,23,25,0,0
57538,697.674418604651,4,2,30,25,1,0
57538,-66.6666666666667,4,2,30,25,0,0
57886,-66.6666666666667,4,2,11,25,0,0
58061,-66.6666666666667,4,2,30,22,0,0
58235,-66.6666666666667,4,2,35,20,0,0
58584,-66.6666666666667,4,2,35,18,0,0
58758,-66.6666666666667,4,2,35,16,0,0
59107,-66.6666666666667,4,2,42,16,0,0
59282,714.285714285714,4,2,47,14,1,0
59460,-100,4,2,42,14,0,0
59639,-100,4,2,47,14,0,0
59817,689.655172413793,4,2,49,14,1,0
59817,-90.9090909090909,4,2,49,14,0,0
60161,-90.9090909090909,4,2,47,14,0,0
60506,-90.9090909090909,4,2,49,14,0,0
60851,-90.9090909090909,4,2,47,14,0,0
61196,666.666666666667,4,2,47,14,1,0
61196,-90.9090909090909,4,2,47,14,0,0
61362,-90.9090909090909,4,2,39,14,0,0
61529,-90.9090909090909,4,2,32,14,0,0
61862,-90.9090909090909,4,2,47,14,0,0
62029,-90.9090909090909,4,2,39,14,0,0
62196,-90.9090909090909,4,2,32,14,0,0
62529,674.157303370787,4,2,47,14,1,0
62529,-90.9090909090909,4,2,47,14,0,0
62697,-90.9090909090909,4,2,28,13,0,0
62866,-90.9090909090909,4,2,35,12,0,0
63034,-90.9090909090909,4,2,28,11,0,0
63203,-90.9090909090909,4,2,47,10,0,0
63371,-90.9090909090909,4,2,28,11,0,0
63540,-90.9090909090909,4,2,35,10,0,0
63708,-90.9090909090909,4,2,28,9,0,0
63877,681.818181818182,4,2,47,8,1,0
63877,-90.9090909090909,4,2,47,8,0,0
64047,-90.9090909090909,4,2,28,8,0,0
64217,-90.9090909090909,4,2,35,8,0,0
64388,-90.9090909090909,4,2,28,8,0,0
64578,714.285714285714,4,2,42,14,1,0
64578,-90.9090909090909,4,2,42,14,0,0
64935,731.707317073171,4,2,44,19,1,0
65300,-90.9090909090909,4,2,16,10,0,0
65483,-90.9090909090909,4,2,23,10,0,0
65605,750,4,2,0,10,1,0
65605,-90.9090909090909,4,2,28,12,0,0
65792,-90.9090909090909,4,2,28,12,0,0
65801,722.89156626506,4,2,32,14,1,0
65971,666.666666666667,4,2,35,18,1,0
66137,631.578947368421,4,2,42,20,1,0
66294,666.666666666667,4,2,0,10,1,0
66460,697.674418604651,4,2,0,10,1,0
67119,681.818181818182,4,2,0,10,1,0
67985,697.674418604651,4,2,0,10,1,0
68478,697.674418604651,4,2,0,10,1,0
68985,705.882352941176,4,2,0,10,1,0
68985,-90.9090909090909,4,2,0,10,0,0
69867,638.297872340426,4,2,0,10,1,0
69867,-90.9090909090909,4,2,0,10,0,0
70383,689.655172413793,4,2,0,10,1,0
70383,-90.9090909090909,4,2,0,10,0,0
70715,689.655172413793,4,2,0,10,1,0
71059,606.060606060606,4,2,0,12,1,0
71968,600,4,2,0,14,1,0
72868,631.578947368421,4,2,0,14,1,0
73183,561.797752808989,4,2,0,14,1,0
73744,526.315789473684,4,2,0,14,1,0
75322,508.474576271186,4,2,0,16,1,0
76058,508.474576271186,4,2,0,16,1,0
76574,480,4,2,0,14,1,0
77015,500,4,2,0,14,1,0
77265,-100,4,2,0,20,0,0
77390,-100,4,2,0,14,0,0
78213,500,4,2,0,10,1,0
78463,480,4,2,0,10,1,0
78703,461.538461538462,4,2,0,9,1,0
79164,-100,4,2,0,14,0,0
80099,461.538461538462,4,2,0,14,1,0
80560,-100,4,2,0,15,0,0
81034,461.538461538462,4,2,0,15,1,0
82418,-100,4,2,0,18,0,0
82657,461.538461538462,4,2,0,18,1,0
82887,-100,4,2,0,15,0,0
83580,-100,4,2,0,18,0,0
83810,-100,4,2,0,15,0,0
84272,-100,4,2,0,20,0,0
85165,461.538461538462,4,2,0,15,1,0
86573,461.538461538462,4,2,0,18,1,0
86853,482.570967741935,4,2,0,15,1,0
88059,-100,4,2,0,20,0,0
88268,482.571139028745,4,2,0,20,1,0
88535,482.571139028745,4,2,0,15,1,0
88762,482.571139028745,4,2,0,15,1,0
89003,-100,4,2,0,16,0,0
89244,-100,4,2,0,17,0,0
89485,-100,4,2,0,18,0,0
89691,482.571139028745,4,2,0,15,1,0
89851,483.870967741935,4,2,0,15,1,0
89993,483.870967741935,4,2,0,20,1,0
90492,483.870967741935,4,2,0,20,1,0
90763,483.870967741935,4,2,0,20,1,0
91004,-100,4,2,0,22,0,0
91488,-100,4,2,0,25,0,0
91975,483.870967741935,4,2,0,27,1,0
92478,480,4,2,0,27,1,0
93460,530.973451327434,4,2,0,27,1,0
93936,-100,4,2,0,20,0,0
94557,491.803278688525,4,2,0,20,1,0
95048,-100,4,2,0,15,0,0
95540,-100,4,2,0,23,0,0
95786,-100,4,2,0,15,0,0
96032,-100,4,2,0,23,0,0
96548,495.867768595041,4,2,0,20,1,0
97539,495.267768595041,4,2,0,20,1,0
98529,-100,4,2,0,23,0,0
98763,476.190476190476,4,2,0,23,1,0
99001,-100,4,2,0,15,0,0
100191,437.956204379562,4,2,0,25,1,0
100409,-100,4,2,0,15,0,0
100608,480,4,2,0,20,1,0
100752,468.75,4,2,0,20,1,0
100871,491.803278688525,4,2,0,20,1,0
101126,491.803278688525,4,2,0,20,1,0
101214,491.803278688525,4,2,0,20,1,0
101358,480,4,2,0,20,1,0
101454,480,4,2,0,20,1,0
101834,545.454545454546,4,2,0,20,1,0
102515,-100,4,2,0,20,0,0
102642,545.454545454546,4,2,0,20,1,0
102876,480,4,2,0,10,1,0
102996,-100,4,2,0,14,0,0
103096,491.803278688525,4,2,0,16,1,0
103218,-100,4,2,0,17,0,0
103355,500,4,2,0,20,1,0
103607,512.820512820513,4,2,0,18,1,0
103863,-100,4,2,0,20,0,0
104129,512.820512820513,4,2,0,18,1,0
104385,533.620512820513,4,2,0,20,1,0
104785,526.315789473684,4,2,0,18,1,0
105427,526.315789473684,4,2,0,20,1,0
105827,517.241379310345,4,2,0,22,1,0
106234,517.241379310345,4,2,0,24,1,0
106514,500,4,2,0,22,1,0
106776,508.474576271186,4,2,0,20,1,0
107028,545.054545454545,4,2,0,20,1,0
107300,-100,4,2,0,24,0,0
107573,-100,4,2,0,20,0,0
108118,-100,4,2,0,19,0,0
108390,-100,4,2,0,18,0,0
108663,-100,4,2,0,16,0,0
109053,545.054545454545,4,2,0,17,1,0
109345,545.054545454545,4,2,0,18,1,0
109769,545.054545454545,4,2,0,20,1,0
110029,545.054545454545,4,2,0,20,1,0
110317,545.054545454545,4,2,0,20,1,0
110862,-100,4,2,0,22,0,0
111134,-100,4,2,0,21,0,0
111393,540.540540540541,4,2,0,20,1,0
111663,-100,4,2,0,19,0,0
111915,500,4,2,0,18,1,0
112179,508.474576271186,4,2,0,18,1,0
112443,600,4,2,0,18,1,0
112711,521.739130434783,4,2,0,18,1,0
115319,468.75,4,2,0,18,1,0
115438,521.739130434783,4,2,0,18,1,0
117163,521.739130434783,4,2,0,18,1,0
117670,521.739130434783,4,2,0,18,1,0
117818,521.739130434783,4,2,0,18,1,0
118188,521.739130434783,4,2,0,18,1,0
119247,521.739130434783,4,2,0,18,1,0
120561,521.739130434783,4,2,0,18,1,0
120693,521.739130434783,4,2,0,18,1,0
122635,521.739130434783,4,2,0,18,1,0
122907,521.739130434783,4,2,0,18,1,0
123573,521.739130434783,4,2,0,18,1,0
123663,521.739130434783,4,2,0,18,1,0
123937,521.739130434783,4,2,0,18,1,0
125510,555.555555555556,4,2,0,18,1,0
126343,444.444444444444,4,2,0,18,1,0
126583,500,4,2,0,18,1,0
126847,461.538461538462,4,2,0,18,1,0
127099,480,4,2,0,18,1,0
127381,487.80487804878,4,2,0,18,1,0
127624,555.555555555556,4,2,0,18,1,0
128734,521.739130434783,4,2,0,18,1,0
129255,571.428571428571,4,2,0,18,1,0
129808,526.315789473684,4,2,0,18,1,0
130350,545.454545454546,4,2,0,18,1,0
130604,535.714285714286,4,2,0,18,1,0
132211,600,4,2,0,18,1,0
132781,600,4,2,0,18,1,0
133606,555.555555555556,4,2,0,18,1,0
133878,512.820512820513,4,2,0,18,1,0
134669,512.820512820513,4,2,0,18,1,0
134953,535.714285714286,4,2,0,18,1,0
135798,545.454545454546,4,2,0,18,1,0
136411,800,4,2,0,18,1,0
137937,606.060606060606,4,2,0,18,1,0
138846,821.917808219178,4,2,0,18,1,0
139617,625,4,2,0,18,1,0
139929,560.747663551402,4,2,0,18,1,0
140814,666.666666666667,4,2,0,18,1,0
141960,689.655172413793,4,2,0,18,1,0
141960,-125,4,2,0,18,0,0
144861,642.573913043477,4,2,0,18,1,0
147431,-100,4,2,0,10,0,0
147774,560.747663551402,4,2,0,10,1,0
148595,560.747663551402,4,2,0,10,1,0
149734,631.578947368421,4,2,0,10,1,0
150329,545.454545454546,4,2,0,10,1,0
150894,555.555555555556,4,2,0,10,1,0
151445,582.52427184466,4,2,0,10,1,0
152045,582.52427184466,4,2,0,10,1,0
152362,500,4,2,0,10,1,0
152878,566.037735849057,4,2,0,10,1,0
153749,566.037735849057,4,2,0,10,1,0
154311,566.037735849057,4,2,0,10,1,0
154887,566.037735849057,4,2,0,10,1,0
155473,566.037735849057,4,2,0,10,1,0
156049,535.714285714286,4,2,0,10,1,0
156608,600,4,2,0,10,1,0
157786,631.578947368421,4,2,0,10,1,0
158377,571.428571428571,4,2,0,10,1,0
158948,600,4,2,0,10,1,0
159510,606.2,4,2,0,10,1,0
160080,606.2,4,2,0,10,1,0
160666,530.973451327434,4,2,0,10,1,0
161220,582.52427184466,4,2,0,10,1,0
162039,600,4,2,0,10,1,0
162907,545.454545454546,4,2,0,10,1,0
163466,560.747663551402,4,2,0,10,1,0
164563,560.747663551402,4,2,0,10,1,0
165099,545.454545454546,4,2,0,10,1,0
165644,571.428571428571,4,2,0,10,1,0
165939,571.428571428571,4,2,0,10,1,0
166224,535.714285714286,4,2,0,10,1,0
166491,555.555555555556,4,2,0,10,1,0
166768,571.428571428571,4,2,0,10,1,0
167043,571.428571428571,4,2,0,10,1,0
167336,600,4,2,0,10,1,0
167926,599.9,4,2,0,10,1,0
169105,599.8,4,2,0,10,1,0
169548,599.4,4,2,0,10,1,0
170311,582.52427184466,4,2,0,10,1,0
170761,582.52427184466,4,2,0,10,1,0
171209,600,4,2,0,10,1,0
171525,540.540540540541,4,2,0,10,1,0
171661,600,4,2,0,10,1,0
172275,600,4,2,0,10,1,0
172415,681.818181818182,4,2,0,10,1,0
172585,600,4,2,0,10,1,0
172717,600,4,2,0,10,1,0
175129,545.454545454546,4,2,0,10,1,0
175401,606.060606060606,4,2,0,10,1,0
175552,576.923076923077,4,2,0,10,1,0
176573,594.059405940594,4,2,0,10,1,0
178058,589.035294117647,4,2,0,10,1,0
178657,576.923076923077,4,2,0,10,1,0
179247,600,4,2,0,10,1,0
179851,610.86,4,2,0,10,1,0
180041,600,4,2,0,10,1,0
180171,600,4,2,0,10,1,0
180483,600,4,2,0,10,1,0
180609,618.556701030928,4,2,0,10,1,0
181217,600,4,2,0,10,1,0
181805,600,4,2,0,10,1,0
182091,600,4,2,0,10,1,0
182257,600,4,2,0,10,1,0
182547,582.52427184466,4,2,0,10,1,0
182993,582.52427184466,4,2,0,10,1,0
183128,582.52427184466,4,2,0,10,1,0
183850,582.52427184466,4,2,0,10,1,0
184017,582.52427184466,4,2,0,10,1,0

[Colours]
Combo1 : 255,128,0
Combo2 : 0,64,128
Combo3 : 192,192,192
Combo4 : 128,0,0

[HitObjects]
284,136,1646,6,0,P|310:132|339:126,1,55
408,92,2146,2,0,L|427:95,3,18.3333333333333
408,92,5493,6,0,P|391:171|351:246,1,165
448,224,6457,1,0,0:0:0:0:
328,128,6697,1,0,0:0:0:0:
328,128,7245,2,0,L|272:123,1,55
273,123,9280,5,0,0:0:0:0:
336,80,9456,1,0,0:0:0:0:
368,12,9632,1,0,0:0:0:0:
368,12,11590,5,0,0:0:0:0:
336,80,11760,1,0,0:0:0:0:
273,123,11930,2,0,L|161:133,1,110
136,56,15180,5,0,0:0:0:0:
120,156,15846,1,0,0:0:0:0:
124,183,17680,2,0,L|120:156,1,27.5
136,56,19616,6,0,P|212:85|293:83,1,165
294,82,22728,2,0,P|339:111|360:161,1,110
336,236,23585,1,0,0:0:0:0:
296,276,23799,2,0,L|273:284,5,18.3333333333333
278,282,24973,1,0,0:0:0:0:
220,224,26814,6,0,P|164:215|108:214,1,110
72,356,27917,2,0,L|48:93,1,263.99999194336
16,20,30295,5,0,0:0:0:0:
96,56,30816,1,0,0:0:0:0:
188,60,31407,1,0,0:0:0:0:
272,156,32007,2,0,P|377:169|448:90,1,220
337,62,34230,2,0,L|317:281,1,220
304,336,36600,5,0,0:0:0:0:
232,256,36889,2,0,P|242:229|260:207,1,55.0000020980836
144,56,37504,1,0,0:0:0:0:
316,104,37938,2,0,P|275:110|240:131,1,82.5000031471254
232,256,38338,1,0,0:0:0:0:
386,343,38690,2,0,L|304:336,1,82.5000031471254
216,348,39077,2,0,P|66:306|51:151,1,330.000012588501
171,216,40277,5,0,0:0:0:0:
260,92,40577,2,0,L|427:106,1,165.000006294251
476,260,41264,2,0,L|308:245,1,165
260,92,42014,1,0,0:0:0:0:
200,268,42375,1,0,0:0:0:0:
412,200,42736,6,0,P|485:162|509:83,1,165.000006294251
344,180,43497,2,0,L|314:345,2,165.000006294251,0|0|0,0:0|0:0|0:0,3:0:0:0:
368,36,44619,1,0,0:0:0:0:
272,160,45008,1,0,0:0:0:0:
213,15,45360,1,0,0:0:0:0:
444,209,45713,6,0,P|396:270|313:279,1,165.000006294251
152,204,46388,2,0,P|212:147|294:152,1,165.000006294251,0|0,0:0|0:0,3:0:0:0:
464,348,47119,2,0,L|318:264,1,165
48,36,47808,2,0,L|193:120,1,165
375,155,48516,5,0,0:0:0:0:
248,216,48891,1,0,0:0:0:0:
184,88,49252,1,0,0:0:0:0:
376,72,49604,2,0,P|416:81|445:112,1,82.5000031471254
392,204,49957,2,0,P|353:275|335:358,1,165.000006294251
440,332,50487,1,0,0:0:0:0:
440,332,50663,2,0,L|454:249,1,82.5000031471254
375,155,51020,1,0,0:0:0:0:
375,155,51201,2,0,L|358:237,1,82.5000031471254
276,332,51715,5,0,0:0:0:0:
192,356,51902,2,0,P|85:306|95:189,1,247.500009441376
176,254,52607,2,0,P|148:141|243:69,1,247.500009441376
249,175,53296,2,0,B|193:184|148:146|135:98|135:98|34:155|55:254,1,330.000012588501
128,304,54173,6,0,L|375:282,2,247.500009441376
40,340,55409,2,0,P|113:243|120:118,1,247.500009441376
20,140,56110,2,0,B|28:200|84:228|140:224|140:224|228:216,1,247.500009441376
208,138,56824,6,0,P|143:230|235:295,1,247.500009441376
340,312,57538,1,0,0:0:0:0:
340,312,57886,1,0,0:0:0:0:
224,216,58061,1,0,0:0:0:0:
356,164,58235,2,0,P|429:126|451:50,1,165.000006294251
356,0,58758,2,0,P|282:37|260:113,1,165.000006294251
340,312,59282,1,0,0:0:0:0:
224,216,59460,1,0,0:0:0:0:
356,164,59639,1,0,0:0:0:0:
172,84,59817,5,0,0:0:0:0:
260,112,60161,1,0,0:0:0:0:
154,126,60506,1,0,0:0:0:0:
282,80,60850,1,0,0:0:0:0:
168,204,61196,2,0,P|135:202|108:193,2,60.5000018463135
324,196,61862,2,0,P|356:197|383:206,2,60.5000018463135
208,316,62529,6,0,L|218:256,1,60.5000018463135
240,176,62866,2,0,L|250:235,1,60.5000018463135
324,196,63203,2,0,L|313:136,1,60.5000018463135
306,53,63540,2,0,L|336:104,1,60.5000018463135
400,148,63877,2,0,L|410:88,1,60.5000018463135
488,72,64217,2,0,L|477:131,1,60.5000018463135
452,212,64578,1,0,0:0:0:0:
306,53,64935,1,0,0:0:0:0:
176,140,65300,6,0,P|143:138|116:129,1,60.5000018463135
92,52,65605,2,0,P|120:52|151:62,1,60.5000018463135
232,80,65971,1,0,0:0:0:0:
259,113,66137,1,0,0:0:0:0:
264,156,66294,1,0,0:0:0:0:
247,196,66460,1,0,0:0:0:0:
236,234,66634,1,0,0:0:0:0:
264,267,66808,1,0,0:0:0:0:
305,283,66983,1,0,0:0:0:0:
348,286,67119,1,0,0:0:0:0:
391,277,67289,1,0,0:0:0:0:
430,256,67459,1,0,0:0:0:0:
457,222,67630,2,0,L|467:166,1,55
440,84,67985,5,0,0:0:0:0:
405,111,68159,1,0,0:0:0:0:
378,146,68333,1,0,0:0:0:0:
362,186,68478,1,0,0:0:0:0:
357,230,68652,1,0,0:0:0:0:
345,272,68826,1,0,0:0:0:0:
317,306,68985,1,0,0:0:0:0:
280,329,69161,1,0,0:0:0:0:
232,332,69337,2,0,L|172:326,1,60.5000018463135
96,232,69690,2,0,L|153:247,1,60.5000018463135
272,224,70026,2,0,L|217:198,1,60.5000018463135
164,68,70383,2,0,L|213:102,1,60.5000018463135
284,144,70715,5,0,0:0:0:0:
344,252,71059,1,0,0:0:0:0:
344,252,71362,1,0,0:0:0:0:
352,108,71665,1,0,0:0:0:0:
208,280,71968,2,0,P|284:203|391:174,1,220
389,174,72868,1,0,0:0:0:0:
264,348,73183,5,0,0:0:0:0:
264,348,73744,2,0,P|161:357|118:264,2,220
130,179,75059,1,0,0:0:0:0:
207,280,75322,6,0,L|245:59,1,220
336,104,76058,2,0,P|234:153|129:179,1,220
52,260,76814,1,0,0:0:0:0:
168,320,77015,6,0,L|187:209,1,110
124,120,77515,1,0,0:0:0:0:
264,208,77765,2,0,L|283:97,1,110
220,8,78213,1,0,0:0:0:0:
187,211,78463,1,0,0:0:0:0:
283,99,78703,1,0,0:0:0:0:
264,208,78933,1,0,0:0:0:0:
124,120,79164,6,0,P|72:109|22:83,1,110
283,99,79626,2,0,P|334:109|384:135,1,110
416,248,80099,1,0,0:0:0:0:
476,36,80561,1,0,0:0:0:0:
283,99,81034,5,0,0:0:0:0:
416,248,81264,1,0,0:0:0:0:
280,176,81495,1,0,0:0:0:0:
352,40,81726,1,0,0:0:0:0:
332,268,81957,2,0,P|228:272|172:176,1,220
172,182,82657,1,0,0:0:0:0:
192,352,82887,5,0,0:0:0:0:
192,352,83118,2,0,L|246:249,1,110
280,92,83580,1,0,0:0:0:0:
332,268,83810,1,0,0:0:0:0:
172,182,84041,1,0,0:0:0:0:
420,56,84272,1,0,0:0:0:0:
420,56,84503,1,0,0:0:0:0:
400,208,84733,6,0,L|419:318,1,110
288,288,85165,1,0,0:0:0:0:
239,278,85280,1,0,0:0:0:0:
191,286,85395,1,0,0:0:0:0:
145,305,85511,1,0,0:0:0:0:
96,311,85626,1,0,0:0:0:0:
51,293,85741,1,0,0:0:0:0:
21,254,85857,1,0,0:0:0:0:
7,207,85972,1,0,0:0:0:0:
11,158,86088,1,0,0:0:0:0:
34,114,86203,1,0,0:0:0:0:
74,87,86318,1,0,0:0:0:0:
123,79,86434,1,0,0:0:0:0:
184,84,86573,6,0,P|244:96|320:80,1,137.5
212,216,87094,1,0,0:0:0:0:
352,12,87335,1,0,0:0:0:0:
472,272,87576,1,0,0:0:0:0:
317,80,88059,1,0,0:0:0:0:
288,248,88268,2,0,P|244:291|183:293,1,123.75
80,228,88762,5,0,0:0:0:0:
248,172,89003,1,0,0:0:0:0:
60,108,89244,1,0,0:0:0:0:
317,80,89485,1,0,0:0:0:0:
84,28,89691,2,0,L|176:40,1,73.3333333333333
256,124,89993,2,0,P|320:156|364:136,1,110
444,20,90492,5,0,0:0:0:0:
416,264,90763,1,0,0:0:0:0:
317,80,91004,1,0,0:0:0:0:
208,258,91246,1,0,0:0:0:0:
396,120,91488,1,0,0:0:0:0:
144,200,91731,1,0,0:0:0:0:
416,264,91975,1,0,0:0:0:0:
126,285,92216,1,0,0:0:0:0:
228,52,92478,5,0,0:0:0:0:
191,344,92718,1,0,0:0:0:0:
272,140,92958,1,0,0:0:0:0:
208,258,93198,1,0,0:0:0:0:
317,80,93460,2,0,P|377:68|440:184,1,206.25
372,344,94557,5,0,0:0:0:0:
363,155,94802,1,0,0:0:0:0:
248,216,95048,2,0,P|191:214|137:196,1,110
76,84,95540,1,0,0:0:0:0:
72,216,95786,1,0,0:0:0:0:
100,88,96032,1,0,0:0:0:0:
48,212,96278,1,0,0:0:0:0:
168,132,96548,6,0,P|276:138|384:170,1,220
448,284,97291,1,0,0:0:0:0:
300,228,97539,2,0,P|300:122|392:68,2,220
420,360,98763,5,0,0:0:0:0:
268,332,99001,2,0,L|211:235,1,110
68,184,99477,2,0,P|120:182|178:164,1,110
296,224,99953,1,0,0:0:0:0:
392,116,100191,2,0,P|373:63|327:39,1,110
220,44,100608,5,0,0:0:0:0:
173,67,100752,1,0,0:0:0:0:
122,75,100869,1,0,0:0:0:0:
69,73,100993,1,0,0:0:0:0:
38,105,101116,1,0,0:0:0:0:
26,156,101214,1,0,0:0:0:0:
30,208,101358,1,0,0:0:0:0:
52,255,101454,1,0,0:0:0:0:
90,290,101574,1,0,0:0:0:0:
140,304,101694,1,0,0:0:0:0:
191,299,101834,2,0,B|284:232|404:256,1,220
400,255,102642,5,0,0:0:0:0:
400,128,102876,1,0,0:0:0:0:
379,83,102996,1,0,0:0:0:0:
342,51,103096,1,0,0:0:0:0:
295,36,103218,1,0,0:0:0:0:
240,36,103355,2,0,L|184:45,1,55
88,108,103607,2,0,L|143:117,1,55
256,180,103863,2,0,L|200:189,1,55
56,256,104129,2,0,L|111:265,1,55
200,320,104385,6,0,P|285:310|351:269,1,165
372,208,104916,1,0,0:0:0:0:
372,208,105048,1,0,0:0:0:0:
372,208,105179,1,0,0:0:0:0:
376,76,105427,2,0,P|384:53|404:27,2,55
424,128,105827,2,0,P|455:120|476:108,2,55
348,140,106234,1,0,0:0:0:0:
296,120,106363,1,0,0:0:0:0:
232,100,106514,6,0,L|176:104,1,55
92,116,106776,2,0,L|124:161,1,55
176,228,107028,2,0,L|199:178,1,55
272,70,107300,1,0,0:0:0:0:
296,120,107437,1,0,0:0:0:0:
320,168,107573,2,0,L|300:220,1,55
300,296,107845,2,0,L|247:315,1,55
188,362,108118,2,0,L|139:334,1,55
65,318,108390,2,0,L|55:262,1,55
56,188,108663,5,0,0:0:0:0:
61,139,108799,1,0,0:0:0:0:
92,101,108935,1,0,0:0:0:0:
140,91,109071,1,0,0:0:0:0:
187,105,109208,1,0,0:0:0:0:
232,126,109344,1,0,0:0:0:0:
280,139,109480,1,0,0:0:0:0:
329,139,109616,1,0,0:0:0:0:
376,124,109769,1,0,0:0:0:0:
376,124,109906,1,0,0:0:0:0:
376,124,110030,1,0,0:0:0:0:
376,124,110166,1,0,0:0:0:0:
404,84,110317,1,0,0:0:0:0:
394,36,110453,1,0,0:0:0:0:
356,6,110589,1,0,0:0:0:0:
307,8,110725,1,0,0:0:0:0:
272,44,110862,6,0,L|262:99,1,55
144,68,111134,2,0,L|153:123,1,55
272,80,111393,2,0,L|262:135,1,55
144,104,111663,2,0,L|153:159,1,55
272,116,111915,2,0,L|262:171,1,55
144,140,112179,2,0,L|153:195,1,55
272,152,112443,2,0,L|262:207,1,55
144,176,112711,2,0,L|153:231,1,55
272,272,112971,5,0,0:0:0:0:
272,272,113102,1,0,0:0:0:0:
156,284,113232,1,0,0:0:0:0:
156,284,113363,1,0,0:0:0:0:
272,316,113493,1,0,0:0:0:0:
272,316,113624,1,0,0:0:0:0:
156,328,113754,1,0,0:0:0:0:
156,328,113885,1,0,0:0:0:0:
272,360,114015,1,0,0:0:0:0:
272,360,114146,1,0,0:0:0:0:
156,372,114276,1,0,0:0:0:0:
156,372,114407,1,0,0:0:0:0:
72,344,114537,1,0,0:0:0:0:
45,302,114667,1,0,0:0:0:0:
40,253,114797,1,0,0:0:0:0:
58,208,114928,1,0,0:0:0:0:
97,178,115058,6,0,L|151:170,1,55
224,220,115319,2,0,L|278:227,1,55
360,192,115568,1,0,0:0:0:0:
444,220,115698,1,0,0:0:0:0:
372,168,115829,1,0,0:0:0:0:
300,56,116090,5,0,0:0:0:0:
247,39,116220,1,0,0:0:0:0:
193,30,116350,1,0,0:0:0:0:
138,30,116481,1,0,0:0:0:0:
101,46,116611,1,0,0:0:0:0:
120,98,116742,1,0,0:0:0:0:
123,153,116872,1,0,0:0:0:0:
113,207,117003,1,0,0:0:0:0:
96,272,117163,6,0,P|112:296|131:314,1,55
204,288,117423,2,0,P|234:290|259:297,1,55
312,340,117670,1,0,0:0:0:0:
366,333,117818,1,0,0:0:0:0:
411,303,117948,1,0,0:0:0:0:
431,252,118078,1,0,0:0:0:0:
432,197,118188,1,0,0:0:0:0:
384,182,118318,1,0,0:0:0:0:
342,148,118448,1,0,0:0:0:0:
324,96,118579,1,0,0:0:0:0:
343,45,118709,1,0,0:0:0:0:
388,16,118840,1,0,0:0:0:0:
443,18,118970,1,0,0:0:0:0:
486,50,119101,1,0,0:0:0:0:
498,102,119247,6,0,P|492:128|476:160,1,55
444,192,119507,2,0,P|425:210|395:230,1,55
351,242,119768,2,0,P|325:249|289:251,1,55
245,238,120029,2,0,P|219:231|187:215,1,55
156,183,120290,2,0,P|137:164|117:134,1,55
156,68,120561,2,0,P|174:86|194:116,1,55
144,248,120823,2,0,P|136:222|134:186,1,55
201,148,121084,2,0,P|208:173|210:209,1,55
101,298,121345,6,0,P|107:272|123:240,1,55
192,216,121606,1,0,0:0:0:0:
245,207,121736,1,0,0:0:0:0:
293,232,121866,1,0,0:0:0:0:
327,275,121997,1,0,0:0:0:0:
367,312,122127,1,0,0:0:0:0:
420,322,122258,1,0,0:0:0:0:
472,304,122388,5,0,0:0:0:0:
506,262,122519,1,0,0:0:0:0:
512,208,122635,1,0,0:0:0:0:
496,156,122765,1,0,0:0:0:0:
461,114,122907,2,0,L|412:80,1,55
356,60,123167,2,0,L|300:60,1,55
240,84,123428,5,0,0:0:0:0:
209,128,123573,1,0,0:0:0:0:
205,182,123663,2,0,L|213:239,1,55
276,292,123937,1,0,0:0:0:0:
329,295,124067,1,0,0:0:0:0:
378,271,124197,2,0,L|422:235,1,55
422,158,124458,1,0,0:0:0:0:
398,110,124588,1,0,0:0:0:0:
352,80,124718,2,0,L|298:58,1,55
244,96,124980,1,0,0:0:0:0:
193,114,125110,1,0,0:0:0:0:
138,106,125240,1,0,0:0:0:0:
96,73,125371,1,0,0:0:0:0:
75,23,125510,6,0,L|65:83,1,55
138,106,125787,2,0,L|147:166,1,55
75,189,126065,2,0,L|65:249,1,55
138,272,126343,2,0,L|147:332,1,55
216,292,126583,2,0,L|224:237,1,55
294,271,126847,2,0,L|302:325,1,55
371,292,127099,2,0,L|380:238,1,55
332,176,127381,2,0,L|340:121,1,55
368,44,127624,5,0,0:0:0:0:
472,187,127901,1,0,0:0:0:0:
303,132,128179,1,0,0:0:0:0:
472,77,128457,1,0,0:0:0:0:
368,221,128734,2,0,L|328:329,1,110
324,232,129255,2,0,L|284:340,1,110
219,198,129808,6,0,P|253:155|303:132,1,110
360,280,130350,1,0,0:0:0:0:
424,148,130604,1,0,0:0:0:0:
272,272,130871,1,0,0:0:0:0:
272,272,131139,1,0,0:0:0:0:
176,320,131407,1,0,0:0:0:0:
176,320,131675,2,0,P|124:288|108:240,1,110
164,140,132211,5,0,0:0:0:0:
184,188,132361,1,0,0:0:0:0:
188,240,132511,1,0,0:0:0:0:
184,56,132781,1,0,0:0:0:0:
276,240,133081,2,0,P|380:264|440:208,1,192.5
384,69,133878,2,0,L|347:173,1,110
276,240,134390,5,0,0:0:0:0:
228,264,134519,1,0,0:0:0:0:
172,268,134669,1,0,0:0:0:0:
92,184,134953,1,0,0:0:0:0:
132,332,135220,1,0,0:0:0:0:
176,184,135488,1,0,0:0:0:0:
16,268,135798,1,0,0:0:0:0:
172,268,136070,2,0,P|240:256|304:208,1,137.5
348,72,136811,6,0,P|349:128|367:182,2,110
212,28,137937,2,0,P|144:52|112:96,1,110
176,200,138543,1,0,0:0:0:0:
261,151,138846,2,0,P|315:155|365:178,1,110
368,332,139617,6,0,P|323:300|291:255,1,110
176,200,140209,2,0,P|104:212|64:264,1,110
100,364,140814,1,0,0:0:0:0:
224,320,141147,1,0,0:0:0:0:
256,192,141480,1,0,0:0:0:0:
256,72,141960,6,0,B|281:103|281:103|233:151|233:151|281:199|281:199|233:247|233:247|281:295|281:295|256:328,1,352
296,96,144861,2,0,B|392:24|488:104|460:312|312:216|256:328|256:328|200:216|52:312|24:104|120:24|216:96|216:96|216:96,1,880
256,224,147774,5,0,0:0:0:0:
376,172,148054,2,0,P|428:200|444:252,1,110
376,376,148595,1,0,0:0:0:0:
372,244,148875,1,0,0:0:0:0:
260,312,149155,1,0,0:0:0:0:
300,164,149435,1,0,0:0:0:0:
172,232,149734,6,0,P|112:248|56:240,1,110
200,328,150329,2,0,P|260:312|316:320,1,110
300,164,150894,2,0,P|256:120|235:67,1,110
376,132,151445,2,0,P|376:196|316:244,1,110
220,316,152045,5,0,0:0:0:0:
76,184,152362,2,0,L|95:73,1,110
228,20,152878,1,0,0:0:0:0:
376,132,153161,1,0,0:0:0:0:
324,16,153444,1,0,0:0:0:0:
205,204,153749,1,0,0:0:0:0:
94,75,154032,1,0,0:0:0:0:
151,259,154311,6,0,P|209:282|253:263,1,110
404,220,154887,2,0,L|423:330,1,110
308,241,155473,2,0,L|205:204,1,110
52,272,156049,1,0,0:0:0:0:
168,372,156316,1,0,0:0:0:0:
232,236,156608,6,0,P|256:184|304:164,1,110
424,256,157208,1,0,0:0:0:0:
488,116,157508,1,0,0:0:0:0:
336,96,157786,2,0,P|280:86|228:60,1,110
80,32,158377,2,0,P|120:88|124:152,1,110
40,248,158948,6,0,L|145:286,1,110
276,364,159510,1,0,0:0:0:0:
392,204,159813,1,0,0:0:0:0:
248,292,160080,1,0,0:0:0:0:
120,204,160383,1,0,0:0:0:0:
108,359,160666,1,0,0:0:0:0:
208,116,160931,1,0,0:0:0:0:
392,204,161220,6,0,L|502:184,2,110
248,292,162039,2,0,L|344:348,2,110
81,266,162907,2,0,L|119:371,1,110
0,288,163466,5,0,0:0:0:0:
184,336,163746,1,0,0:0:0:0:
68,148,164026,1,0,0:0:0:0:
248,292,164307,1,0,0:0:0:0:
144,92,164563,2,0,P|159:163|145:199,1,110
0,112,165099,1,0,0:0:0:0:
224,220,165371,1,0,0:0:0:0:
264,48,165644,6,0,L|273:103,1,55
348,140,165939,2,0,L|312:182,1,55
331,263,166224,2,0,L|275:263,1,55
225,329,166491,2,0,L|189:286,1,55
107,291,166768,2,0,L|116:235,1,55
32,160,167043,2,0,L|41:215,1,55
116,160,167337,2,0,L|171:150,1,55
236,192,167636,2,0,L|291:201,1,55
360,168,167926,5,0,0:0:0:0:
364,172,168075,1,0,0:0:0:0:
368,176,168225,2,0,P|376:144|376:120,1,55
304,72,168525,1,0,0:0:0:0:
304,72,168675,1,0,0:0:0:0:
304,72,168825,2,0,P|296:104|296:128,1,55
296,200,169105,1,0,0:0:0:0:
264,244,169254,1,0,0:0:0:0:
215,266,169404,1,0,0:0:0:0:
161,261,169554,1,0,0:0:0:0:
117,229,169697,2,0,L|97:178,1,55
12,112,169997,2,0,L|17:166,1,55
36,252,170311,5,0,0:0:0:0:
63,298,170456,1,0,0:0:0:0:
108,330,170602,1,0,0:0:0:0:
160,347,170761,1,0,0:0:0:0:
215,350,170906,1,0,0:0:0:0:
269,339,171052,1,0,0:0:0:0:
318,315,171197,1,0,0:0:0:0:
357,277,171359,1,0,0:0:0:0:
381,228,171525,2,0,L|392:168,1,55
416,100,171811,2,0,L|464:72,2,55
336,120,172275,5,0,0:0:0:0:
265,87,172415,2,0,L|209:96,1,55
308,200,172717,1,0,0:0:0:0:
237,167,172867,2,0,L|181:176,1,55
280,280,173167,1,0,0:0:0:0:
209,247,173317,2,0,L|153:256,1,55
268,356,173617,2,0,L|323:346,1,55
388,308,173917,5,0,0:0:0:0:
414,260,174067,1,0,0:0:0:0:
416,206,174217,1,0,0:0:0:0:
488,184,174367,1,0,0:0:0:0:
468,132,174517,1,0,0:0:0:0:
428,96,174667,1,0,0:0:0:0:
352,112,174817,2,0,L|296:107,1,55
212,72,175129,6,0,L|221:127,1,55
240,236,175401,2,0,L|197:200,1,55
120,104,175696,2,0,L|129:159,1,55
148,268,175984,2,0,L|105:232,1,55
28,136,176273,2,0,L|37:191,1,55
28,248,176573,1,0,0:0:0:0:
56,296,176721,1,0,0:0:0:0:
105,232,176870,2,0,L|148:268,1,55
200,292,177167,1,0,0:0:0:0:
256,288,177315,1,0,0:0:0:0:
308,232,177464,6,0,P|322:207|343:189,3,55
416,168,178058,2,0,P|428:143|434:116,3,55
376,56,178657,2,0,P|363:80|357:107,3,55
300,164,179247,2,0,L|244:173,1,55
192,116,179547,2,0,L|201:60,1,55
268,20,179851,6,0,P|288:76|288:88,1,68.75
300,164,180171,1,0,0:0:0:0:
275,212,180321,1,0,0:0:0:0:
238,253,180483,1,0,0:0:0:0:
211,292,180609,1,0,0:0:0:0:
244,334,180763,1,0,0:0:0:0:
296,350,180918,1,0,0:0:0:0:
351,343,181072,1,0,0:0:0:0:
398,316,181217,1,0,0:0:0:0:
433,274,181367,1,0,0:0:0:0:
446,221,181517,1,0,0:0:0:0:
428,170,181667,1,0,0:0:0:0:
410,118,181805,1,0,0:0:0:0:
401,64,181955,1,0,0:0:0:0:
360,36,182091,1,0,0:0:0:0:
304,64,182257,6,0,P|278:75|248:77,1,55
196,82,182547,2,0,L|141:78,1,55
88,96,182838,1,0,0:0:0:0:
62,144,182993,1,0,0:0:0:0:
62,198,183128,1,0,0:0:0:0:
88,246,183273,1,0,0:0:0:0:
134,276,183419,1,0,0:0:0:0:
188,281,183564,1,0,0:0:0:0:
238,259,183710,1,0,0:0:0:0:
272,217,183850,1,0,0:0:0:0:
282,163,184017,1,0,0:0:0:0:
