osu file format v14

[General]
AudioFilename: Kyle_Cook_-_Coastal_Ride[www.MP3Fiber.com].mp3
AudioLeadIn: 0
PreviewTime: -1
Countdown: 1
SampleSet: Soft
StackLeniency: 0.7
Mode: 0
LetterboxInBreaks: 1
WidescreenStoryboard: 0

[Editor]
Bookmarks: 99,13250,18181,19825,25579,26401,39140,39551,52291,52702,65853,77359,79003,91743,92154,105305,118455,130768,131590,143113,144757,157480,157891,171058
DistanceSpacing: 1
BeatDivisor: 4
GridSize: 8
TimelineZoom: 1

[Metadata]
Title:Coastal Ride
TitleUnicode:Coastal Ride
Artist:Kyle Cook
ArtistUnicode:Kyle Cook
Creator:TBTE
Version:Beach!
Source:
Tags:
BeatmapID:564572
BeatmapSetID:244978

[Difficulty]
HPDrainRate:6
CircleSize:4
OverallDifficulty:7
ApproachRate:8
SliderMultiplier:2.4
SliderTickRate:1

[Events]
//Background and Video events
//Break Periods
2,105488,117689
//Storyboard Layer 0 (Background)
//Storyboard Layer 1 (Fail)
//Storyboard Layer 2 (Pass)
//Storyboard Layer 3 (Foreground)
//Storyboard Sound Samples

[TimingPoints]
13235.3154362416,410.958904109589,4,2,0,70,1,0
26386,-100,4,1,0,70,0,0
32755,-100,4,1,0,50,0,0
32858,-100,4,1,0,70,0,0
37892,-100,4,2,0,70,0,0
39125,1643.83561643836,4,2,0,30,1,0
39536,410.958904109589,4,1,0,70,1,0
52687,-100,4,3,0,50,0,0
65838,-100,4,1,0,70,0,0
78988,-100,4,1,0,70,0,1
79399,-100,4,1,0,70,0,0
79809,-100,4,1,0,70,0,1
80220,-100,4,1,0,70,0,0
80631,-100,4,1,0,70,0,1
91728,1643.83561643836,4,2,0,70,1,0
92138,410.958904109589,4,1,0,70,1,1
105288,-100,4,1,0,70,0,0
118439,-100,4,2,0,35,0,0
143918,-100,4,2,0,70,0,0
144740,-100,4,1,0,70,0,0
157480,1643.83561643836,4,2,0,70,1,0
157890,410.958904109589,4,1,0,70,1,0
158300,-100,4,2,0,70,0,0
158711,-100,4,1,0,70,0,0
159225,-100,4,2,0,70,0,0
159533,-100,4,1,0,70,0,0
172684,-100,4,1,0,10,0,0

[HitObjects]
120,88,19810,5,8,0:1:0:0:
192,288,20221,1,8,0:1:0:0:
256,80,20632,1,8,0:1:0:0:
320,288,21043,1,8,0:1:0:0:
392,88,21454,1,8,0:1:0:0:
256,80,21865,2,8,L|16:80,1,240,8|8,0:1|0:1,0:0:0:0:
256,304,22687,2,8,L|496:304,1,240,8|8,0:1|0:1,0:0:0:0:
312,192,23509,5,8,0:1:0:0:
96,192,23920,1,8,0:1:0:0:
256,88,24331,1,8,0:1:0:0:
256,304,24742,5,12,1:0:0:0:
32,192,25564,5,2,0:0:0:0:
56,192,25666,1,2,0:0:0:0:
80,192,25769,1,2,0:0:0:0:
104,192,25872,1,2,0:0:0:0:
256,88,25975,1,2,0:0:0:0:
232,88,26077,1,2,0:0:0:0:
208,88,26180,1,2,0:0:0:0:
184,88,26283,1,2,0:0:0:0:
160,88,26386,5,0,0:0:0:0:
256,280,26796,1,8,0:0:0:0:
344,88,27207,1,0,0:0:0:0:
416,192,27516,2,0,L|504:192,1,60,0|8,0:0|0:0,0:0:0:0:
376,192,27824,1,0,0:0:0:0:
280,192,28029,1,0,0:0:0:0:
256,0,28440,5,8,0:0:0:0:
216,192,28851,1,0,0:0:0:0:
256,328,29159,2,0,L|256:256,1,60,0|8,0:0|0:0,0:0:0:0:
128,136,29468,2,0,P|112:192|136:256,1,120
488,192,30084,5,8,0:0:0:0:
384,32,30495,1,0,0:0:0:0:
256,96,30803,2,0,L|256:168,1,60,0|8,0:0|0:0,0:0:0:0:
256,56,31112,2,0,B|184:56|184:56|136:32,1,120
32,192,31728,5,8,0:0:0:0:
72,280,31933,1,0,1:0:0:0:
152,328,32139,1,0,0:0:0:0:
240,248,32344,1,0,0:0:0:0:
256,224,32447,1,0,0:0:0:0:
256,192,32550,1,8,0:0:0:0:
152,136,32755,1,12,0:0:0:0:
256,72,32961,5,0,0:0:0:0:
320,144,33166,1,0,0:0:0:0:
416,160,33372,1,8,0:0:0:0:
416,256,33577,1,0,0:0:0:0:
328,296,33783,1,0,0:0:0:0:
256,360,33988,1,0,0:0:0:0:
256,336,34091,1,0,0:0:0:0:
256,312,34194,1,8,0:0:0:0:
256,216,34399,1,0,0:0:0:0:
176,272,34605,6,0,P|104:224|104:152,1,120
176,144,35016,2,0,P|248:192|248:264,1,120,8|0,0:0|0:0,0:0:0:0:
344,192,35427,1,0,0:0:0:0:
288,120,35632,1,0,0:0:0:0:
272,104,35735,1,0,0:0:0:0:
256,88,35838,1,8,0:0:0:0:
160,80,36043,5,0,0:0:0:0:
88,144,36249,1,0,0:0:0:0:
88,240,36454,1,0,0:0:0:0:
160,304,36659,1,8,0:0:0:0:
168,192,36865,1,0,0:0:0:0:
248,264,37070,6,0,P|312:336|408:312,1,180
416,280,37481,2,0,P|488:296|488:384,1,120,8|0,0:0|0:0,0:0:0:0:
504,192,37892,6,0,P|424:144|256:128,1,240,0|8,0:0|0:1,0:0:0:0:
200,192,38509,2,0,P|96:160|80:24,1,240
168,96,39125,2,0,L|256:96,1,60,8|4,0:1|0:0,0:0:0:0:
312,192,39742,1,0,0:0:0:0:
480,192,39947,6,0,B|448:144|448:144|384:120,1,120,8|0,0:0|0:0,0:0:0:0:
312,192,40358,1,0,0:0:0:0:
256,288,40564,1,0,0:0:0:0:
288,336,40666,1,0,0:0:0:0:
312,376,40769,1,8,0:0:0:0:
368,288,40975,1,0,0:0:0:0:
256,288,41180,6,0,P|200:224|144:240,1,120
312,192,41591,2,0,P|280:104|336:80,1,120,8|0,0:0|0:0,0:0:0:0:
176,96,42002,5,0,0:0:0:0:
128,192,42207,1,0,0:0:0:0:
128,248,42310,1,0,0:0:0:0:
128,304,42413,1,8,0:0:0:0:
128,192,42618,2,0,P|80:136|8:120,1,120,0|0,0:0|0:0,0:0:0:0:
256,192,43029,2,0,P|304:136|376:120,1,120,0|8,0:0|0:0,0:0:0:0:
424,192,43440,5,0,0:0:0:0:
352,272,43646,1,0,0:0:0:0:
256,312,43851,1,0,0:0:0:0:
256,312,43954,1,0,0:0:0:0:
256,312,44057,1,8,0:0:0:0:
160,272,44262,1,0,0:0:0:0:
88,192,44468,1,0,0:0:0:0:
192,192,44673,6,0,P|144:128|80:104,1,120,0|8,0:0|0:0,0:0:0:0:
320,192,45084,2,0,P|368:128|432:104,1,120
256,32,45495,1,0,0:0:0:0:
256,56,45598,1,0,0:0:0:0:
256,80,45701,1,8,0:0:0:0:
192,192,45906,1,0,0:0:0:0:
320,192,46112,6,0,L|392:288,1,120
288,280,46522,2,0,P|360:360|416:360,1,120,8|0,0:0|0:0,0:0:0:0:
416,192,46933,2,0,P|467:220|494:273,1,120
496,296,47242,1,0,0:0:0:0:
496,320,47344,1,8,0:0:0:0:
256,352,47550,5,0,0:0:0:0:
152,336,47755,6,0,P|88:264|96:200,1,120
192,256,48166,2,0,L|120:144,1,120,8|0,0:0|0:0,0:0:0:0:
288,248,48577,2,0,P|269:191|221:156,1,120
200,152,48886,1,0,0:0:0:0:
176,152,48988,1,8,0:0:0:0:
104,72,49194,5,0,0:0:0:0:
208,48,49399,6,0,L|352:48,1,120
248,120,49810,2,0,L|360:200,1,120,8|0,0:0|0:0,0:0:0:0:
232,200,50221,2,0,L|304:320,1,120
293,302,50529,1,0,0:0:0:0:
293,302,50632,1,8,0:0:0:0:
200,344,50838,5,0,0:0:0:0:
168,240,51043,1,0,0:0:0:0:
88,320,51249,1,0,0:0:0:0:
11,243,51454,1,8,0:0:0:0:
87,166,51659,1,0,0:0:0:0:
168,240,51865,2,0,P|213:190|205:110,1,120
208,120,52173,1,0,0:0:0:0:
200,96,52276,1,8,0:0:0:0:
256,16,52687,5,0,1:0:0:0:
280,16,52790,1,0,0:0:0:0:
304,16,52892,1,0,0:0:0:0:
328,16,52995,1,0,0:0:0:0:
352,16,53098,1,0,1:0:0:0:
376,16,53201,1,0,0:0:0:0:
400,16,53303,1,0,0:0:0:0:
424,16,53406,1,0,0:0:0:0:
448,16,53509,1,0,1:0:0:0:
472,24,53612,1,0,0:0:0:0:
472,48,53714,1,0,0:0:0:0:
472,72,53817,1,0,1:0:0:0:
504,192,53920,5,0,0:0:0:0:
480,192,54022,1,0,0:0:0:0:
456,192,54125,1,0,1:0:0:0:
432,192,54228,1,0,0:0:0:0:
408,192,54331,1,0,1:0:0:0:
384,192,54433,1,0,0:0:0:0:
360,192,54536,1,0,0:0:0:0:
336,192,54639,1,0,0:0:0:0:
312,192,54742,1,0,1:0:0:0:
288,192,54844,1,0,0:0:0:0:
264,192,54947,1,0,0:0:0:0:
240,192,55050,1,0,0:0:0:0:
8,192,55153,6,0,L|56:232,3,60,0|0|0|0,1:0|0:0|0:0|1:0,0:0:0:0:
80,232,55564,2,0,L|176:232,3,60,0|0|0|0,0:0|0:0|1:0|0:0,0:0:0:0:
160,232,55975,2,0,L|248:232,3,60,0|0|0|0,1:0|0:0|0:0|0:0,0:0:0:0:
256,352,56386,5,0,1:0:0:0:
280,352,56488,1,0,0:0:0:0:
304,352,56591,1,0,0:0:0:0:
328,344,56694,1,0,0:0:0:0:
344,328,56796,1,0,1:0:0:0:
352,304,56899,1,0,0:0:0:0:
352,280,57002,1,0,0:0:0:0:
352,256,57105,1,0,1:0:0:0:
352,232,57207,1,0,0:0:0:0:
352,208,57310,1,0,0:0:0:0:
352,184,57413,1,0,1:0:0:0:
352,160,57516,1,0,0:0:0:0:
256,32,57618,5,0,1:0:0:0:
232,32,57720,1,0,0:0:0:0:
208,32,57823,1,0,0:0:0:0:
184,40,57926,1,0,0:0:0:0:
168,56,58028,1,0,1:0:0:0:
160,80,58131,1,0,0:0:0:0:
160,104,58234,1,0,0:0:0:0:
160,128,58337,1,0,0:0:0:0:
160,152,58439,1,0,1:0:0:0:
160,176,58542,1,0,0:0:0:0:
160,200,58645,1,0,0:0:0:0:
160,224,58748,1,0,1:0:0:0:
16,192,58851,5,0,0:0:0:0:
40,192,58954,1,0,0:0:0:0:
64,192,59057,1,0,1:0:0:0:
88,192,59159,1,0,0:0:0:0:
56,280,59262,5,0,1:0:0:0:
80,280,59365,1,0,0:0:0:0:
104,280,59468,1,0,0:0:0:0:
128,280,59570,1,0,0:0:0:0:
152,280,59673,1,0,1:0:0:0:
176,280,59776,1,0,0:0:0:0:
200,280,59879,1,0,0:0:0:0:
224,280,59981,1,0,0:0:0:0:
248,280,60084,1,0,1:0:0:0:
272,280,60187,1,0,0:0:0:0:
296,280,60290,1,0,0:0:0:0:
320,280,60392,1,0,1:0:0:0:
256,192,60495,5,0,0:0:0:0:
256,168,60598,1,0,0:0:0:0:
256,144,60701,1,0,1:0:0:0:
256,120,60803,1,0,0:0:0:0:
256,96,60906,1,0,1:0:0:0:
264,72,61009,1,0,0:0:0:0:
280,56,61112,1,0,0:0:0:0:
304,48,61214,1,0,0:0:0:0:
328,48,61317,1,0,1:0:0:0:
352,56,61420,1,0,0:0:0:0:
368,72,61522,1,0,0:0:0:0:
376,96,61625,1,0,0:0:0:0:
472,200,61728,5,0,1:0:0:0:
472,224,61831,1,0,0:0:0:0:
472,248,61934,1,0,0:0:0:0:
472,272,62036,1,0,1:0:0:0:
472,296,62139,1,0,0:0:0:0:
464,320,62242,1,0,0:0:0:0:
448,336,62345,1,0,1:0:0:0:
424,344,62447,1,0,0:0:0:0:
400,344,62550,1,0,1:0:0:0:
376,336,62653,1,0,0:0:0:0:
360,320,62755,1,0,0:0:0:0:
352,296,62858,1,0,0:0:0:0:
464,184,62961,5,0,1:0:0:0:
440,184,63064,1,0,0:0:0:0:
416,184,63166,1,0,0:0:0:0:
392,184,63269,1,0,0:0:0:0:
376,200,63372,1,0,1:0:0:0:
360,216,63475,1,0,0:0:0:0:
344,232,63577,1,0,0:0:0:0:
328,248,63680,1,0,1:0:0:0:
304,248,63783,1,0,0:0:0:0:
280,248,63886,1,0,0:0:0:0:
256,248,63988,1,0,1:0:0:0:
232,248,64091,1,0,0:0:0:0:
256,80,64194,5,0,1:0:0:0:
272,96,64296,1,0,0:0:0:0:
288,112,64399,1,0,0:0:0:0:
304,128,64502,1,0,0:0:0:0:
320,144,64605,1,0,1:0:0:0:
336,160,64707,1,0,0:0:0:0:
352,176,64810,1,0,0:0:0:0:
368,192,64913,1,0,0:0:0:0:
384,208,65016,5,0,1:0:0:0:
384,280,65153,1,0,0:0:0:0:
336,336,65290,1,0,0:0:0:0:
264,360,65427,2,0,P|144:352|56:264,1,240,0|4,1:0|0:0,0:0:0:0:
216,120,66249,6,0,P|320:64|360:176,2,240,8|0|8,0:0|0:0|0:0,0:0:0:0:
296,136,67481,1,0,0:0:0:0:
256,224,67892,1,8,0:0:0:0:
184,288,68303,1,0,0:0:0:0:
176,192,68612,2,0,L|88:192,1,60,0|8,0:0|0:0,0:0:0:0:
56,192,68920,2,0,P|48:120|96:88,1,120,0|0,0:0|0:0,0:0:0:0:
256,32,69536,5,8,0:0:0:0:
344,112,69947,1,0,0:0:0:0:
256,192,70358,2,0,P|336:232|456:160,2,240,8|0|8,0:0|0:0|0:0,0:0:0:0:
256,144,71386,1,0,0:0:0:0:
256,96,71591,1,0,0:0:0:0:
16,192,72002,6,0,P|80:256|264:272,1,240,8|0,0:0|0:0,0:0:0:0:
256,96,72824,1,8,0:0:0:0:
496,192,73235,2,0,P|432:256|248:272,2,240,0|8|0,0:0|0:0|0:0,0:0:0:0:
419,115,74262,1,0,0:0:0:0:
312,96,74468,1,8,0:0:0:0:
256,192,74673,1,0,0:0:0:0:
200,288,74879,2,0,P|120:232|120:88,2,240,0|8|0,0:0|0:0|0:0,0:0:0:0:
256,384,75906,5,0,0:0:0:0:
312,296,76112,1,8,0:0:0:0:
328,192,76317,1,0,0:0:0:0:
312,88,76522,1,0,0:0:0:0:
256,0,76728,1,0,0:0:0:0:
240,16,76831,1,0,0:0:0:0:
224,32,76933,2,0,P|176:144|224:304,1,240,8|0,0:0|0:0,0:0:0:0:
256,192,77755,12,0,78577,0:0:0:0:
32,192,78988,6,0,L|144:88,1,120
184,192,79399,1,2,2:0:0:0:
208,192,79502,1,2,2:0:0:0:
232,192,79605,1,2,2:0:0:0:
256,192,79707,1,2,2:0:0:0:
464,192,79810,6,0,P|408:136|264:112,1,180,0|0,0:0|0:0,0:0:0:0:
288,104,80221,1,2,0:2:0:0:
264,104,80324,1,2,2:0:0:0:
240,104,80427,1,2,0:2:0:0:
216,104,80529,1,2,2:0:0:0:
192,104,80632,6,0,P|104:152|96:320,1,240,0|8,0:0|0:0,0:0:0:0:
184,280,81249,2,0,B|184:208|184:208|272:144|368:200|368:200|368:256|368:328,1,360,0|8,0:0|0:0,0:0:0:0:
272,248,82070,5,0,0:0:0:0:
256,352,82276,1,0,0:0:0:0:
360,328,82481,1,0,0:0:0:0:
376,224,82687,2,0,P|424:184|504:184,1,120,8|0,0:0|0:0,0:0:0:0:
392,112,83098,1,0,0:0:0:0:
296,56,83303,6,0,L|256:8,2,60,0|0|8,0:0|0:0|0:0,0:0:0:0:
256,152,83714,1,0,0:0:0:0:
160,192,83920,1,0,0:0:0:0:
192,88,84125,2,0,B|144:56|144:56|40:56,1,120,0|8,0:0|0:0,0:0:0:0:
256,152,84536,2,0,B|304:184|304:184|408:184,1,120
312,272,84946,5,0,0:0:0:0:
296,288,85049,1,0,0:0:0:0:
280,304,85152,1,8,0:0:0:0:
176,288,85357,1,8,0:0:0:0:
152,192,85564,6,0,P|80:144|64:96,1,120
232,192,85975,2,0,P|304:240|320:288,1,120,8|0,0:0|0:0,0:0:0:0:
192,248,86386,2,0,P|144:320|96:336,1,120
192,136,86796,2,0,P|240:64|288:48,1,120,8|0,0:0|0:0,0:0:0:0:
352,128,87207,6,0,P|424:144|480:128,1,120
304,208,87618,2,0,P|360:232|456:216,1,120,8|0,0:0|0:0,0:0:0:0:
256,296,88029,2,0,P|336:336|400:328,1,120
392,328,88338,1,0,0:0:0:0:
416,320,88440,2,0,B|464:280|464:280|464:216,1,120,8|0,0:0|0:0,0:0:0:0:
256,48,88851,6,0,P|320:32|376:32,1,120
464,96,89262,1,8,0:0:0:0:
424,192,89468,1,0,0:0:0:0:
320,192,89673,1,0,0:0:0:0:
256,280,89879,1,0,0:0:0:0:
152,280,90084,1,8,0:0:0:0:
48,96,90495,5,0,0:0:0:0:
88,192,90701,1,0,0:0:0:0:
192,192,90906,1,8,0:0:0:0:
256,280,91112,1,0,0:0:0:0:
360,280,91317,2,0,L|496:280,1,120
480,192,91728,6,0,L|416:192,1,60,8|0,0:1|1:0,0:0:0:0:
464,96,92343,5,0,0:0:0:0:
368,48,92548,1,8,0:0:0:0:
256,56,92754,1,0,0:0:0:0:
312,144,92959,1,0,0:0:0:0:
256,240,93165,1,0,0:0:0:0:
360,272,93370,1,8,0:0:0:0:
464,248,93576,1,0,0:0:0:0:
416,344,93781,6,0,P|304:344|264:328,1,120
360,272,94192,2,0,P|288:272|216:240,1,120,8|0,0:0|0:0,0:0:0:0:
304,192,94603,2,0,P|248:184|176:136,1,120
256,112,95014,2,0,P|216:64|216:8,1,120,8|0,0:0|0:0,0:0:0:0:
344,112,95425,6,0,P|384:64|384:8,1,120
384,192,95836,2,0,L|512:192,1,120,8|0,0:0|0:0,0:0:0:0:
344,272,96247,2,0,P|382:316|384:375,1,120
304,192,96658,2,0,L|176:192,1,120,8|0,0:0|0:0,0:0:0:0:
256,112,97069,5,0,0:0:0:0:
184,192,97274,1,0,0:0:0:0:
256,272,97480,1,8,0:0:0:0:
328,192,97685,1,0,0:0:0:0:
256,112,97891,2,0,L|400:112,1,120
256,272,98302,2,0,L|384:272,1,120,8|0,0:0|0:0,0:0:0:0:
448,192,98713,5,0,0:0:0:0:
448,88,98918,1,0,0:0:0:0:
328,192,99124,2,0,L|328:64,1,120,8|0,0:0|0:0,0:0:0:0:
224,88,99535,1,0,0:0:0:0:
144,160,99740,1,0,0:0:0:0:
256,176,99946,2,0,P|232:248|168:256,1,120,8|0,0:0|0:0,0:0:0:0:
240,360,100357,5,0,0:0:0:0:
184,272,100562,1,0,0:0:0:0:
296,272,100768,2,0,L|432:272,1,120,8|0,0:0|0:0,0:0:0:0:
336,192,101179,1,0,0:0:0:0:
232,192,101384,1,0,0:0:0:0:
120,192,101590,2,0,L|0:192,1,120,8|0,0:0|0:0,0:0:0:0:
256,192,102001,12,0,105288,0:0:0:0:
40,192,118439,5,8,0:1:0:0:
176,24,118850,1,8,0:1:0:0:
152,200,119261,5,8,0:1:0:0:
288,32,119672,1,12,0:1:0:0:
272,248,120083,6,8,L|512:248,1,240,8|8,0:0|0:1,0:0:0:0:
312,176,120905,2,8,P|208:200|256:336,1,240,8|12,0:1|0:1,0:0:0:0:
16,192,121727,5,8,0:1:0:0:
232,192,122138,1,8,0:1:0:0:
32,112,122548,1,8,0:1:0:0:
248,120,122959,1,12,0:1:0:0:
496,192,123370,5,8,0:1:0:0:
280,192,123781,1,8,0:1:0:0:
480,272,124191,1,8,0:1:0:0:
264,264,124602,1,12,0:1:0:0:
56,192,125014,6,8,P|112:112|272:96,1,240,8|8,0:1|0:1,0:0:0:0:
456,192,125836,2,8,P|400:272|240:288,1,240,8|12,0:1|0:1,0:0:0:0:
147,304,126658,5,8,0:1:0:0:
364,79,127069,1,8,0:1:0:0:
99,194,127480,1,8,0:1:0:0:
412,189,127891,1,12,0:1:0:0:
143,83,128302,5,8,0:1:0:0:
368,300,128713,1,8,0:1:0:0:
253,35,129124,1,8,0:1:0:0:
258,348,129535,1,8,0:1:0:0:
256,192,129946,5,8,0:1:0:0:
256,192,130768,12,0,131590,0:0:0:0:
48,112,132001,6,0,P|104:64|192:64,1,120,8|0,0:1|0:0,0:1:0:0:
120,160,132411,2,0,L|248:160,1,120,8|0,0:1|0:0,0:1:0:0:
48,208,132822,2,0,P|104:256|192:256,1,120,8|0,0:1|0:0,0:1:0:0:
256,264,133233,1,8,0:1:0:0:
256,264,133644,1,8,0:1:0:0:
256,264,134055,1,8,0:1:0:0:
256,264,134466,1,8,0:1:0:0:
464,184,134877,6,0,P|416:128|328:152,1,120,8|0,0:1|0:0,0:1:0:0:
272,200,135288,2,0,L|400:200,1,120,8|0,0:1|0:0,0:1:0:0:
464,216,135699,2,0,P|416:272|328:248,1,120,8|0,0:1|0:0,0:1:0:0:
264,272,136110,2,0,P|200:240|208:160,1,120,8|0,0:1|0:0,0:1:0:0:
256,112,136521,1,8,0:1:0:0:
256,112,136932,1,8,0:1:0:0:
256,112,137343,1,8,0:1:0:0:
256,112,137754,1,8,0:1:0:0:
56,192,138165,6,0,P|72:256|224:256,1,240,8|8,0:1|0:1,0:1:0:0:
208,48,138987,1,8,0:1:0:0:
208,48,139398,1,8,0:1:0:0:
456,192,139809,6,0,P|440:256|288:256,1,240,8|8,0:1|0:1,0:1:0:0:
304,48,140631,1,8,0:1:0:0:
304,48,141042,1,8,0:1:0:0:
256,192,141453,12,0,143096,0:0:0:0:
64,192,143918,5,0,0:0:0:0:
88,192,144021,1,0,0:0:0:0:
112,192,144124,1,0,0:0:0:0:
136,192,144227,1,0,0:0:0:0:
256,104,144329,1,0,0:0:0:0:
232,104,144432,1,0,0:0:0:0:
208,104,144535,1,0,0:0:0:0:
184,104,144638,1,0,0:0:0:0:
152,104,144740,6,0,P|56:120|24:256,1,240,0|2,0:0|2:0,0:0:0:0:
24,264,145254,1,2,2:0:0:0:
40,280,145357,1,2,2:0:0:0:
56,296,145459,1,2,2:0:0:0:
72,312,145562,2,0,L|336:312,1,240,0|10,0:0|0:2,2:0:0:0:
336,296,146076,1,2,2:0:0:0:
352,280,146179,1,2,1:2:0:0:
368,264,146281,1,2,2:0:0:0:
384,248,146384,6,0,B|472:152|472:152|472:96|384:64,1,240,2|8,0:2|0:0,0:0:0:0:
320,24,147001,2,0,B|232:120|232:120|232:176|320:208,1,240
320,200,147514,1,0,0:0:0:0:
336,184,147617,1,8,0:0:0:0:
360,80,147822,1,0,0:0:0:0:
256,104,148028,6,0,P|120:104|48:192,1,240,0|8,0:0|0:0,0:0:0:0:
66,247,148644,2,0,P|181:265|272:192,1,240
280,168,149158,1,0,0:0:0:0:
256,168,149261,1,8,0:0:0:0:
152,168,149466,1,0,0:0:0:0:
152,56,149672,6,0,P|232:40|312:64,1,120
336,128,150083,2,0,P|424:152|488:136,1,120,8|0,0:0|0:0,0:0:0:0:
456,256,150494,2,0,P|396:255|340:276,1,120
308,316,150802,1,0,0:0:0:0:
273,358,150905,2,0,P|213:363|155:347,1,120,8|8,0:0|0:0,0:0:0:0:
48,352,151316,6,0,P|96:296|160:264,1,120
32,248,151727,2,0,P|104:200|168:200,1,120,8|0,0:0|0:0,0:0:0:0:
40,144,152138,2,0,P|128:112|208:128,1,120
176,120,152446,1,0,0:0:0:0:
200,112,152548,2,0,P|264:96|352:104,1,120,8|0,0:0|0:0,0:0:0:0:
480,40,152959,6,0,L|360:40,1,120
448,112,153370,2,0,L|296:112,1,120,8|0,0:0|0:0,0:0:0:0:
408,184,153781,2,0,L|280:184,1,120
264,184,154090,1,0,0:0:0:0:
240,184,154192,2,0,L|64:184,1,120,8|0,0:0|0:0,0:0:0:0:
264,344,154603,6,0,P|320:296|384:320,1,120
256,248,155014,2,0,L|120:248,1,120,8|0,0:0|0:0,0:0:0:0:
360,192,155425,2,0,P|301:193|262:150,1,120
280,128,155733,1,0,0:0:0:0:
296,112,155836,1,8,0:0:0:0:
256,8,156042,1,0,0:0:0:0:
160,56,156247,5,0,0:0:0:0:
88,136,156453,1,0,0:0:0:0:
176,192,156658,1,8,0:0:0:0:
112,280,156864,1,0,0:0:0:0:
192,352,157069,1,0,0:0:0:0:
296,352,157274,1,0,0:0:0:0:
256,272,157480,6,0,L|256:200,1,60,8|0,0:0|0:0,0:0:0:0:
160,168,158095,5,0,0:0:0:0:
256,64,158300,1,8,2:0:0:0:
280,64,158403,1,2,2:0:0:0:
304,64,158506,1,2,2:0:0:0:
328,64,158609,1,2,2:0:0:0:
352,64,158711,2,0,P|352:176|240:200,1,240,0|8,0:0|1:0,0:0:0:0:
232,184,159225,1,2,0:2:0:0:
224,160,159328,1,2,1:2:0:0:
216,136,159431,1,2,0:2:0:0:
208,112,159533,1,2,1:2:0:0:
112,56,159739,5,0,0:0:0:0:
32,128,159944,1,8,0:0:0:0:
112,200,160150,1,0,0:0:0:0:
216,240,160355,2,0,P|320:216|400:152,1,180
392,160,160766,2,0,L|392:40,1,120,8|0,0:0|0:0,0:0:0:0:
288,64,161177,5,0,0:0:0:0:
344,160,161383,1,0,0:0:0:0:
312,264,161588,1,8,0:0:0:0:
256,168,161794,1,0,0:0:0:0:
160,176,161999,2,0,L|80:72,1,120,0|0,0:0|0:0,0:0:0:0:
152,256,162410,2,0,L|72:360,1,120,8|0,0:0|0:0,0:0:0:0:
176,344,162821,6,0,B|256:240|256:240|256:128,1,240,0|8,0:0|0:0,0:0:0:0:
152,104,163437,1,0,0:0:0:0:
256,32,163643,1,0,0:0:0:0:
360,64,163848,1,0,0:0:0:0:
360,64,163951,1,0,0:0:0:0:
360,64,164054,1,8,0:0:0:0:
424,152,164259,1,0,0:0:0:0:
328,192,164465,6,0,L|256:296,1,120
248,184,164876,2,0,L|120:184,1,120,8|0,0:0|0:0,0:0:0:0:
208,112,165287,2,0,L|136:8,1,120
112,16,165595,1,0,0:0:0:0:
88,16,165698,1,8,0:0:0:0:
0,80,165903,1,0,0:0:0:0:
16,192,166109,6,0,L|144:192,1,120
64,272,166520,2,0,L|168:360,1,120,8|0,0:0|0:0,0:0:0:0:
176,240,166931,2,0,L|312:240,1,120
320,240,167239,1,0,0:0:0:0:
344,240,167342,1,8,0:0:0:0:
448,240,167547,1,0,0:0:0:0:
352,192,167753,6,0,L|464:128,1,120
352,112,168163,2,0,L|464:48,1,120,8|0,0:0|0:0,0:0:0:0:
256,184,168574,2,0,L|144:120,1,120
256,104,168984,2,0,L|144:40,1,120,8|0,0:0|0:0,0:0:0:0:
80,128,169396,5,0,0:0:0:0:
216,280,169807,1,8,0:0:0:0:
320,240,170013,1,0,0:0:0:0:
240,168,170218,1,0,0:0:0:0:
256,192,170629,12,0,172684,2:0:0:0:
