osu file format v13

[General]
AudioFilename: Kyle Andrews - Sushi.ogg
AudioLeadIn: 0
PreviewTime: 41016
Countdown: 0
SampleSet: Normal
StackLeniency: 0.7
Mode: 0
LetterboxInBreaks: 1
WidescreenStoryboard: 1

[Editor]
Bookmarks: 16316,19982,22326,26159,48649,50649,52982,55982,69649,70649,71982,72826,87649,89649,91982,97316,98982,100316,102316,102982,122982,128316,132982,138982,140982,143659,185992,186992,189659,190326,190992,192992,193659,194326
DistanceSpacing: 1
BeatDivisor: 2
GridSize: 4
TimelineZoom: 1

[Metadata]
Title:Sushi
TitleUnicode:Sushi
Artist:Kyle Andrews
ArtistUnicode:Kyle Andrews
Creator:Ringating
Version:Insane
Source:
Tags:NISLT TF2 fragmovie frag movie team fortress 2 montage fps first person shooter video game
BeatmapID:466682
BeatmapSetID:196744

[Difficulty]
HPDrainRate:8
CircleSize:4
OverallDifficulty:7
ApproachRate:8.7
SliderMultiplier:2
SliderTickRate:1

[Events]
//Background and Video events
Video,0,"moving image.avi"
//Break Periods
2,33216,131038
2,131883,152371
//Storyboard Layer 0 (Background)
//Storyboard Layer 1 (Fail)
//Storyboard Layer 2 (Pass)
//Storyboard Layer 3 (Foreground)
//Storyboard Sound Samples
//Background Colour Transformations
3,100,163,162,255

[TimingPoints]
9017,333.333333333333,4,1,0,50,1,0
30350,-133.333333333333,4,1,0,50,0,0
41016,-100,4,1,0,50,0,1
62350,-100,4,1,0,50,0,0
94350,-100,4,1,0,50,0,1
115683,-100,4,1,0,50,0,0
163683,-100,4,1,0,50,0,1
193016,-100,4,1,0,50,0,0

[HitObjects]
384,92,9017,5,4,0:0:0:0:
412,224,9350,1,0,0:0:0:0:
132,176,9683,2,0,P|140:132|180:80,1,100
216,244,10017,2,0,P|208:288|168:340,1,100
72,224,10350,1,0,0:0:0:0:
272,188,10683,1,0,0:0:0:0:
472,184,11016,1,8,0:0:0:0:
356,280,11183,1,8,0:0:0:0:
256,92,11350,1,8,0:0:0:0:
156,280,11516,1,8,0:0:0:0:
40,184,11683,5,0,0:0:0:0:
256,92,12016,1,0,0:0:0:0:
416,240,12350,2,0,L|444:352,1,100
96,144,12683,2,0,L|68:32,1,100
316,228,13016,1,0,0:0:0:0:
196,156,13350,1,0,0:0:0:0:
456,136,13683,1,8,0:0:0:0:
199,254,13850,1,8,0:0:0:0:
267,66,14016,1,8,0:0:0:0:
387,323,14183,1,8,0:0:0:0:
336,196,14350,5,0,0:0:0:0:
336,196,14683,1,0,0:0:0:0:
140,76,15016,2,0,P|112:108|92:168,1,100
336,196,15350,1,0,0:0:0:0:
175,174,15516,2,0,P|159:221|127:260,1,100
127,259,16016,1,0,0:0:0:0:
132,128,16350,1,8,0:0:0:0:
256,292,16517,1,8,0:0:0:0:
344,112,16683,2,0,L|212:76,1,100
344,228,17016,5,0,0:0:0:0:
256,292,17350,1,0,0:0:0:0:
108,40,17683,1,0,0:0:0:0:
32,108,17850,1,0,0:0:0:0:
112,168,18016,1,0,0:0:0:0:
196,224,18183,1,0,0:0:0:0:
125,301,18350,1,0,0:0:0:0:
365,322,18683,1,0,0:0:0:0:
386,82,19016,2,0,P|356:108|280:120,1,100
146,61,19350,2,0,P|128:108|144:188,1,100
256,192,19683,1,0,0:0:0:0:
64,232,20016,5,0,0:0:0:0:
348,256,20350,2,0,L|324:360,1,100
228,176,20683,2,0,L|250:78,1,100
408,192,21016,1,0,0:0:0:0:
164,236,21350,1,0,0:0:0:0:
348,256,21683,1,0,0:0:0:0:
228,176,21850,1,0,0:0:0:0:
408,192,22016,1,0,0:0:0:0:
164,236,22183,1,0,0:0:0:0:
76,188,22350,5,0,0:0:0:0:
196,28,22683,1,0,0:0:0:0:
356,148,23016,2,0,P|352:192|324:244,1,100
280,152,23350,2,0,P|284:108|312:56,1,100
424,104,23683,1,0,0:0:0:0:
192,168,24016,1,0,0:0:0:0:
476,264,24350,1,0,0:0:0:0:
152,332,24683,1,0,0:0:0:0:
321,219,25016,1,0,0:0:0:0:
264,84,25350,5,0,0:0:0:0:
136,128,25683,1,0,0:0:0:0:
210,248,25850,1,0,0:0:0:0:
59,166,26016,1,0,0:0:0:0:
287,210,26183,1,0,0:0:0:0:
84,288,26350,2,0,B|168:344|168:344|272:336,1,200
284,108,27016,2,0,B|224:86|224:86|136:102,1,100
192,260,27350,1,0,0:0:0:0:
364,192,27516,2,0,B|380:164|380:164|396:68,1,100
192,260,28016,5,0,0:0:0:0:
364,192,28350,1,0,0:0:0:0:
288,260,28516,1,0,0:0:0:0:
296,128,28683,1,0,0:0:0:0:
356,324,28850,1,0,0:0:0:0:
192,260,29016,1,0,0:0:0:0:
136,60,29350,1,0,0:0:0:0:
60,244,29683,2,0,P|92:308|148:332,1,100
96,160,30016,2,0,P|79:113|41:81,1,100,0|0,0:0|0:0,0:0:0:0:
368,40,30350,6,0,B|452:111|452:111|472:158,1,150.000005722046
144,344,31016,2,0,B|59:272|59:272|39:225,1,150.000005722046
368,40,31683,2,0,B|452:111|452:111|472:158,1,150.000005722046
104,112,32350,2,0,B|136:72|136:72|176:52,1,75.0000028610231
408,272,32683,2,0,B|376:312|376:312|336:332,1,75.0000028610231
256,192,33016,1,0,0:0:0:0:
256,192,131683,5,0,0:0:0:0:
256,192,153016,5,0,0:0:0:0:
