osu file format v12

[General]
AudioFilename: MAD.mp3
AudioLeadIn: 0
PreviewTime: 88366
Countdown: 0
SampleSet: Soft
StackLeniency: 0.7
Mode: 0
LetterboxInBreaks: 1
WidescreenStoryboard: 0

[Editor]
DistanceSpacing: 1.5
BeatDivisor: 4
GridSize: 8
TimelineZoom: 2.3

[Metadata]
Title:Ninjya Re Bang Bang
TitleUnicode:にんじゃりばんばん
Artist:Kyary Pamyu Pamyu
ArtistUnicode:きゃりーぱみゅぱみゅ
Creator:LZCSC
Version:Insane
Source:
Tags:
BeatmapID:337798
BeatmapSetID:134729

[Difficulty]
HPDrainRate:7
CircleSize:4
OverallDifficulty:7
ApproachRate:8
SliderMultiplier:2
SliderTickRate:1

[Events]
//Background and Video events
Video,-503,"MAD.avi"
0,0,"BG.jpg",0,0
//Break Periods
//Storyboard Layer 0 (Background)
//Storyboard Layer 1 (Fail)
//Storyboard Layer 2 (Pass)
//Storyboard Layer 3 (Foreground)
//Storyboard Sound Samples
//Background Colour Transformations
3,100,163,162,255

[TimingPoints]
910,461.513610805572,4,2,1,100,1,0
15678,-100,4,2,1,80,0,1
19370,-200,4,2,1,80,0,1
20755,-100,4,2,1,80,0,1
26754,-200,4,2,1,80,0,1
28139,-100,4,2,1,80,0,1
41523,-200,4,2,1,80,0,1
42907,-100,4,2,1,80,0,1
45215,-100,4,2,1,100,0,0
53984,-200,4,1,0,100,0,0
54445,-100,4,2,1,100,0,0
55830,-200,4,1,0,100,0,0
56291,-100,4,2,1,100,0,0
57676,-200,4,1,0,100,0,0
58137,-100,4,2,1,100,0,0
59060,-200,4,1,0,60,0,0
59983,-200,4,2,1,50,0,0
67367,-200,4,2,1,40,0,0
68290,-200,4,2,1,50,0,0
69214,-200,4,2,1,60,0,0
70137,-200,4,2,1,70,0,0
71060,-200,4,2,1,80,0,0
71983,-200,4,2,1,70,0,0
72906,-200,4,2,1,60,0,0
73829,-200,4,2,1,40,0,0
87674,-100,4,2,1,80,0,0
89520,-83.3333333333333,4,2,1,80,0,1
108442,-100,4,2,1,80,0,1
108904,-133.333333333333,4,2,1,80,0,1
109365,-83.3333333333333,4,2,1,80,0,1
115365,-200,4,2,1,80,0,1
116749,-83.3333333333333,4,2,1,80,0,1
119057,-100,4,2,1,100,0,0
127826,-200,4,1,0,80,0,0
128287,-100,4,2,1,100,0,0
129672,-200,4,1,0,80,0,0
130133,-100,4,2,1,100,0,0
131518,-200,4,1,0,80,0,0
131979,-100,4,2,1,100,0,0
133825,-100,4,2,1,80,0,0
134748,-100,4,2,1,60,0,0
136595,-100,4,2,1,40,0,0
137518,-100,4,2,1,20,0,0
141210,-100,4,2,1,5,0,0

[HitObjects]
96,120,14524,5,0,0:0:0:0:
208,88,14755,2,0,P|264:72|312:96,1,100
352,192,15216,2,0,P|304:208|248:184,1,100,2|0,0:0|0:0,0:0:0:0:
96,120,15678,2,0,P|112:72|184:24,2,100,8|0|8,0:0|0:0|0:0,0:0:0:0:
128,256,16370,1,0,0:0:0:0:
248,328,16601,2,0,P|306:300|327:256,1,100,8|0,0:0|0:0,0:0:0:0:
344,224,16947,1,0,0:0:0:0:
344,176,17062,2,0,P|317:101|286:75,2,100,8|0|8,0:0|0:0|0:0,0:0:0:0:
352,352,17755,1,0,0:0:0:0:
472,272,17986,6,0,P|432:192|384:184,1,100,8|0,0:0|0:0,0:0:0:0:
280,168,18447,2,0,P|224:152|184:112,1,100,8|0,0:0|0:0,0:0:0:0:
160,88,18793,1,0,0:0:0:0:
120,56,18909,2,0,P|79:29|16:32,1,100,8|0,0:0|0:0,0:0:0:0:
56,104,19370,6,0,L|72:168,1,50,8|0,0:0|0:0,0:0:0:0:
128,352,19832,2,0,L|144:288,1,50,8|0,0:0|0:0,0:0:0:0:
224,168,20293,2,0,L|240:224,1,50,8|0,0:0|0:0,0:0:0:0:
408,304,20755,5,8,0:0:0:0:
452,138,20985,1,0,0:0:0:0:
285,183,21216,1,0,0:0:0:0:
479,234,21447,1,0,0:0:0:0:
356,112,21678,1,0,0:0:0:0:
312,280,21908,1,0,0:0:0:0:
384,208,22139,1,8,0:0:0:0:
248,80,22370,2,0,L|193:62,1,50,2|2,0:0|0:0,0:0:0:0:
157,55,22601,1,10,0:0:0:0:
56,240,22831,1,2,0:0:0:0:
32,352,23062,6,0,P|95:348|136:320,1,100,8|0,0:0|0:0,0:0:0:0:
240,248,23524,2,0,P|272:184|328:168,2,100,8|0|8,0:0|0:0|0:0,0:0:0:0:
376,272,24216,2,0,P|432:264|440:264,1,50
472,256,24447,2,0,P|504:216|504:144,1,100,8|0,0:0|0:0,0:0:0:0:
328,80,24908,6,0,P|248:24|216:24,2,100,8|0|8,0:0|0:0|0:0,0:0:0:0:
208,168,25600,1,0,0:0:0:0:
56,152,25831,2,0,P|32:208|40:248,1,100,8|0,0:0|0:0,0:0:0:0:
56,288,26177,1,0,0:0:0:0:
88,312,26293,2,0,P|144:328|192:312,1,100,8|0,0:0|0:0,0:0:0:0:
400,80,26754,6,0,L|384:128,1,50,8|0,0:0|0:0,0:0:0:0:
280,344,27216,2,0,L|256:280,1,50,8|0,0:0|0:0,0:0:0:0:
184,136,27677,2,0,L|152:192,1,50,8|0,0:0|0:0,0:0:0:0:
87,278,28139,5,8,0:0:0:0:
12,123,28369,1,0,0:0:0:0:
184,135,28600,1,0,0:0:0:0:
3,222,28831,1,0,0:0:0:0:
101,79,29062,1,0,0:0:0:0:
176,236,29292,1,0,0:0:0:0:
92,179,29523,1,8,0:0:0:0:
304,160,29754,1,2,0:0:0:0:
320,200,29869,2,0,L|352:256,1,50,2|10,0:0|0:0,0:0:0:0:
464,200,30446,6,0,P|440:152|408:112,1,100,8|0,0:0|0:0,0:0:0:0:
288,32,30908,1,8,0:0:0:0:
192,47,31139,2,0,P|238:28|288:32,2,100,0|8|0,0:0|0:0|0:0,0:0:0:0:
152,80,31716,1,0,0:0:0:0:
120,120,31831,2,0,P|80:168|32:176,2,100,8|0|8,0:0|0:0|0:0,0:0:0:0:
40,96,32523,1,0,0:0:0:0:
92,229,32754,5,8,0:0:0:0:
151,304,32985,2,0,P|119:248|71:224,2,100,0|8|0,0:0|0:0|0:0,0:0:0:0:
184,328,33562,1,0,0:0:0:0:
224,344,33677,2,0,P|296:360|328:344,1,100,8|0,0:0|0:0,0:0:0:0:
400,48,34138,5,8,0:0:0:0:
376,112,34369,1,0,0:0:0:0:
288,304,34600,1,8,0:0:0:0:
256,240,34831,1,0,0:0:0:0:
192,112,35062,1,8,0:0:0:0:
152,176,35292,1,0,0:0:0:0:
408,304,35523,5,8,0:0:0:0:
452,138,35753,1,0,0:0:0:0:
285,183,35984,1,0,0:0:0:0:
479,234,36215,1,0,0:0:0:0:
356,112,36446,1,0,0:0:0:0:
312,280,36676,1,0,0:0:0:0:
384,208,36907,1,8,0:0:0:0:
268,56,37138,1,0,0:0:0:0:
223,32,37254,1,0,0:0:0:0:
224,80,37369,1,8,0:0:0:0:
384,208,37600,1,0,0:0:0:0:
267,313,37831,6,0,P|224:336|175:334,1,100,8|0,0:0|0:0,0:0:0:0:
216,189,38292,2,0,P|248:153|297:148,1,100,8|0,0:0|0:0,0:0:0:0:
424,256,38754,2,0,P|387:288|338:292,1,100,8|0,0:0|0:0,0:0:0:0:
299,258,39099,1,0,0:0:0:0:
279,213,39215,2,0,P|255:169|212:145,1,100,8|0,0:0|0:0,0:0:0:0:
153,78,39677,5,8,0:0:0:0:
15,18,39907,1,0,0:0:0:0:
16,176,40138,2,0,P|9:243|32:278,1,100,8|0,0:0|0:0,0:0:0:0:
302,296,40600,2,0,P|295:247|259:215,1,100,8|0,0:0|0:0,0:0:0:0:
210,224,40945,1,0,0:0:0:0:
165,252,41061,2,0,P|160:300|192:338,1,100,8|0,0:0|0:0,0:0:0:0:
85,45,41523,6,0,P|61:43|38:52,1,50,8|0,0:0|0:0,0:0:0:0:
347,131,41984,2,0,P|371:127|395:135,1,50,8|0,0:0|0:0,0:0:0:0:
161,213,42446,2,0,P|136:212|114:222,1,50,8|0,0:0|0:0,0:0:0:0:
249,337,42907,5,0,0:0:0:0:
449,326,43138,1,8,0:0:0:0:
343,160,43369,1,8,0:0:0:0:
345,360,43600,1,0,0:0:0:0:
443,228,43830,1,0,0:0:0:0:
243,228,44061,1,8,0:0:0:0:
349,263,44292,1,0,0:0:0:0:
192,112,44523,1,0,0:0:0:0:
163,72,44638,1,0,0:0:0:0:
206,63,44753,1,8,0:0:0:0:
113,277,44984,1,0,0:0:0:0:
317,343,45215,6,0,L|441:343,1,100,8|0,0:0|0:0,0:0:0:0:
431,243,45676,1,8,0:0:0:0:
478,226,45792,1,0,0:0:0:0:
495,179,45907,1,0,0:0:0:0:
478,132,46022,1,0,0:0:0:0:
441,97,46138,2,0,P|445:45|495:18,1,100,8|0,0:0|0:0,0:0:0:0:
441,97,46599,5,8,0:0:0:0:
393,79,46715,1,0,0:0:0:0:
344,69,46830,1,0,0:0:0:0:
295,81,46945,1,0,0:0:0:0:
246,93,47061,2,0,P|193:93|145:69,1,100,8|0,0:0|0:0,0:0:0:0:
246,93,47522,5,8,0:0:0:0:
210,128,47638,1,0,0:0:0:0:
181,168,47753,1,0,0:0:0:0:
163,214,47869,1,0,0:0:0:0:
140,258,47984,2,0,P|76:313|31:313,1,100,8|0,0:0|0:0,0:0:0:0:
321,345,48445,5,8,0:0:0:0:
257,173,48676,1,0,0:0:0:0:
195,343,48907,6,0,L|71:343,1,100,8|0,0:0|0:0,0:0:0:0:
81,243,49368,1,8,0:0:0:0:
34,226,49484,1,0,0:0:0:0:
17,179,49599,1,0,0:0:0:0:
34,132,49714,1,0,0:0:0:0:
70,97,49830,2,0,P|69:48|30:19,1,100,8|0,0:0|0:0,0:0:0:0:
70,97,50291,5,8,0:0:0:0:
119,79,50407,1,0,0:0:0:0:
168,69,50522,1,0,0:0:0:0:
217,81,50637,1,0,0:0:0:0:
265,92,50753,2,0,P|315:93|361:73,1,100,8|0,0:0|0:0,0:0:0:0:
265,92,51214,5,8,0:0:0:0:
302,128,51330,1,0,0:0:0:0:
331,168,51445,1,0,0:0:0:0:
349,214,51561,1,0,0:0:0:0:
371,257,51676,2,0,P|402:297|448:315,1,100,8|0,0:0|0:0,0:0:0:0:
435,164,52138,5,8,0:0:0:0:
429,14,52368,1,0,0:0:0:0:
278,19,52599,5,8,0:0:0:0:
223,18,52714,1,0,0:0:0:0:
168,27,52830,1,0,0:0:0:0:
117,47,52945,1,0,0:0:0:0:
72,79,53061,1,8,0:0:0:0:
58,132,53176,1,0,0:0:0:0:
53,186,53291,1,0,0:0:0:0:
57,241,53407,1,0,0:0:0:0:
82,289,53522,1,8,0:0:0:0:
120,327,53637,1,0,0:0:0:0:
175,330,53753,1,0,0:0:0:0:
220,299,53868,1,0,0:0:0:0:
246,276,53984,6,0,P|224:226|226:215,1,50
246,276,54445,1,0,0:0:0:0:
270,244,54560,1,0,0:0:0:0:
268,203,54676,1,0,0:0:0:0:
275,163,54791,1,0,0:0:0:0:
286,124,54907,1,8,0:0:0:0:
311,93,55022,1,0,0:0:0:0:
347,77,55137,1,0,0:0:0:0:
386,69,55253,1,0,0:0:0:0:
420,89,55368,1,8,0:0:0:0:
443,121,55483,1,0,0:0:0:0:
457,158,55599,1,0,0:0:0:0:
459,197,55714,1,0,0:0:0:0:
458,233,55830,6,0,L|397:232,1,50
458,233,56291,1,0,0:0:0:0:
453,273,56407,1,0,0:0:0:0:
439,310,56522,1,0,0:0:0:0:
408,335,56637,1,0,0:0:0:0:
368,341,56753,1,8,0:0:0:0:
328,347,56868,1,0,0:0:0:0:
290,333,56983,1,0,0:0:0:0:
261,304,57099,1,0,0:0:0:0:
238,271,57214,1,8,0:0:0:0:
228,231,57330,1,0,0:0:0:0:
229,191,57445,1,0,0:0:0:0:
245,154,57560,1,0,0:0:0:0:
270,123,57676,6,0,L|330:126,1,50
270,123,58137,1,0,0:0:0:0:
257,84,58253,1,0,0:0:0:0:
223,62,58368,1,0,0:0:0:0:
183,66,58483,1,0,0:0:0:0:
163,100,58599,1,8,0:0:0:0:
166,139,58714,1,0,0:0:0:0:
191,169,58829,1,0,0:0:0:0:
201,207,58945,1,0,0:0:0:0:
192,240,59060,6,0,P|168:272|80:216,1,150
30,116,59983,5,0,0:0:0:0:
56,45,60214,1,0,0:0:0:0:
130,33,60445,1,0,0:0:0:0:
184,95,60906,5,0,0:0:0:0:
101,112,61137,1,0,0:0:0:0:
63,189,61368,1,0,0:0:0:0:
103,266,61829,5,0,0:0:0:0:
150,183,62060,1,0,0:0:0:0:
242,161,62291,1,0,0:0:0:0:
319,226,62752,5,0,0:0:0:0:
207,259,62983,1,0,0:0:0:0:
161,354,63214,1,0,0:0:0:0:
382,33,63675,5,0,0:0:0:0:
456,45,63906,1,0,0:0:0:0:
482,116,64137,1,0,0:0:0:0:
449,189,64598,5,0,0:0:0:0:
411,112,64829,1,0,0:0:0:0:
328,95,65060,1,0,0:0:0:0:
270,161,65521,5,0,0:0:0:0:
362,183,65752,1,0,0:0:0:0:
409,266,65983,1,0,0:0:0:0:
351,354,66444,5,0,0:0:0:0:
305,259,66675,1,0,0:0:0:0:
193,226,66906,1,0,0:0:0:0:
254,157,67367,5,0,0:0:0:0:
293,220,67598,1,0,0:0:0:0:
217,222,67829,1,0,0:0:0:0:
161,203,68290,5,0,0:0:0:0:
288,271,68521,1,0,0:0:0:0:
289,132,68752,1,0,0:0:0:0:
347,138,69214,5,0,0:0:0:0:
241,319,69444,1,0,0:0:0:0:
127,137,69675,1,0,0:0:0:0:
149,51,70137,5,0,0:0:0:0:
153,328,70368,1,0,0:0:0:0:
401,189,70598,1,0,0:0:0:0:
383,261,71060,5,0,0:0:0:0:
98,258,71290,1,0,0:0:0:0:
233,17,71521,1,0,0:0:0:0:
310,63,71983,5,0,0:0:0:0:
128,177,72214,1,0,0:0:0:0:
309,283,72444,1,0,0:0:0:0:
257,260,72906,5,0,0:0:0:0:
187,140,73137,1,0,0:0:0:0:
332,135,73368,1,0,0:0:0:0:
304,185,73829,5,0,0:0:0:0:
237,149,74060,1,0,0:0:0:0:
240,223,74291,1,0,0:0:0:0:
104,154,74752,6,0,L|123:208,1,50,4|0,0:0|0:0,0:0:0:0:
48,200,75213,2,0,L|67:254,1,50,4|0,0:0|0:0,0:0:0:0:
16,296,75675,6,0,L|-2:350,1,50
72,336,76136,2,0,L|55:388,1,50
144,336,76598,6,0,L|159:383,1,50
200,296,77059,2,0,L|215:343,1,50
272,192,77521,6,0,L|255:239,1,50,4|0,0:0|0:0,0:0:0:0:
216,146,77982,2,0,L|199:193,1,50,4|0,0:0|0:0,0:0:0:0:
248,32,78444,6,0,L|211:81,1,50
328,72,78905,2,0,L|291:121,1,50,0|0,0:0|0:0,0:0:0:0:
464,96,79367,6,0,L|501:145,1,50
384,136,79828,2,0,L|421:185,1,50,0|0,0:0|0:0,0:0:0:0:
328,248,80290,6,0,L|291:297,1,50,0|0,0:0|0:0,0:0:0:0:
248,208,80751,2,0,L|211:257,1,50
384,312,81213,6,0,L|421:361,1,50,0|0,0:0|0:0,0:0:0:0:
464,272,81674,2,0,L|501:321,1,50
376,240,82136,6,0,P|414:202|420:189,2,50
344,144,82828,1,0,0:0:0:0:
440,112,83059,2,0,P|392:56|348:38,1,100
272,32,83751,1,0,0:0:0:0:
176,40,83982,2,0,P|118:69|94:116,1,100
56,184,84674,1,0,0:0:0:0:
96,280,84905,2,0,P|138:335|174:350,1,100
264,344,85597,1,0,0:0:0:0:
344,280,85828,1,0,0:0:0:0:
256,192,85943,12,0,87674,0:0:0:0:
208,72,88366,5,0,0:0:0:0:
80,168,88597,1,0,0:0:0:0:
232,208,88828,1,0,0:0:0:0:
360,112,89059,2,0,P|426:106|472:122,1,100
304,208,89520,6,0,P|319:141|382:106,1,119.999996337891,8|0,0:0|0:0,0:0:0:0:
441,233,89982,2,0,P|490:280|489:351,1,119.999996337891,8|0,0:0|0:0,0:0:0:0:
354,348,90443,2,0,P|288:367|226:331,1,119.999996337891,8|0,0:0|0:0,0:0:0:0:
200,328,90789,1,0,0:0:0:0:
168,288,90905,2,0,P|134:227|138:171,1,119.999996337891,8|0,0:0|0:0,0:0:0:0:
152,32,91366,2,0,P|224:56|256:128,1,119.999996337891,8|0,0:0|0:0,0:0:0:0:
248,232,91828,6,0,P|194:210|158:151,2,119.999996337891,8|0|8,0:0|0:0|0:0,0:0:0:0:
448,152,92520,1,0,0:0:0:0:
432,104,92635,1,0,0:0:0:0:
392,72,92751,2,0,P|335:45|285:65,1,119.999996337891,8|0,0:0|0:0,0:0:0:0:
173,134,93212,5,8,0:0:0:0:
85,43,93443,1,0,0:0:0:0:
185,261,93674,1,8,0:0:0:0:
102,343,93904,1,0,0:0:0:0:
325,254,94135,1,8,0:0:0:0:
421,326,94366,1,0,0:0:0:0:
408,184,94597,6,0,P|432:124|488:99,1,119.999996337891,8|0,0:0|0:0,0:0:0:0:
493,244,95058,2,0,P|469:304|413:329,1,119.999996337891,8|0,0:0|0:0,0:0:0:0:
288,192,95520,1,0,0:0:0:0:
106,34,95751,1,0,0:0:0:0:
60,270,95981,1,0,0:0:0:0:
288,192,96212,1,0,0:0:0:0:
259,153,96328,1,0,0:0:0:0:
214,168,96443,1,0,0:0:0:0:
214,216,96559,1,0,0:0:0:0:
259,230,96674,1,0,0:0:0:0:
106,228,96904,6,0,B|79:301|138:356,1,119.999996337891,8|0,0:0|0:0,0:0:0:0:
200,273,97250,1,0,0:0:0:0:
106,228,97366,2,0,B|55:167|-21:191,1,119.999996337891,8|0,0:0|0:0,0:0:0:0:
19,286,97711,1,0,0:0:0:0:
106,228,97827,2,0,B|182:213|201:135,1,119.999996337891,8|0,0:0|0:0,0:0:0:0:
98,123,98173,1,0,0:0:0:0:
1,185,98288,1,8,0:0:0:0:
124,340,98520,1,0,0:0:0:0:
192,157,98750,1,0,0:0:0:0:
1,185,98981,1,8,0:0:0:0:
124,340,99212,6,0,P|186:356|234:308,1,119.999996337891,8|0,0:0|0:0,0:0:0:0:
361,105,99673,2,0,P|290:106|256:156,1,119.999996337891,8|0,0:0|0:0,0:0:0:0:
272,208,100020,1,0,0:0:0:0:
326,171,100135,2,0,P|316:102|245:68,1,119.999996337891,8|0,0:0|0:0,0:0:0:0:
32,47,100596,5,8,0:0:0:0:
32,47,100827,1,0,0:0:0:0:
50,286,101058,1,8,0:0:0:0:
50,286,101289,1,0,0:0:0:0:
222,335,101519,1,8,0:0:0:0:
222,335,101750,1,0,0:0:0:0:
280,168,101981,5,8,0:0:0:0:
90,84,102212,1,0,0:0:0:0:
111,295,102442,1,8,0:0:0:0:
210,70,102673,1,0,0:0:0:0:
39,194,102904,1,8,0:0:0:0:
233,281,103135,1,8,0:0:0:0:
90,85,103366,1,0,0:0:0:0:
112,296,103596,1,8,0:0:0:0:
176,288,103711,1,0,0:0:0:0:
232,280,103827,1,0,0:0:0:0:
336,152,104289,6,0,B|413:166|431:244,1,119.999996337891,8|0,0:0|0:0,0:0:0:0:
328,256,104635,1,0,0:0:0:0:
336,152,104750,2,0,B|309:78|368:23,1,119.999996337891,8|0,0:0|0:0,0:0:0:0:
430,106,105096,1,0,0:0:0:0:
336,152,105212,2,0,B|285:211|208:188,1,119.999996337891,8|0,0:0|0:0,0:0:0:0:
249,93,105558,1,0,0:0:0:0:
352,40,105673,1,8,0:0:0:0:
424,224,105905,1,0,0:0:0:0:
232,192,106135,1,0,0:0:0:0:
352,40,106366,1,8,0:0:0:0:
424,224,106597,6,0,P|400:304|368:336,1,119.999996337891,8|0,0:0|0:0,0:0:0:0:
208,352,107058,2,0,P|158:301|169:241,1,119.999996337891,8|0,0:0|0:0,0:0:0:0:
217,214,107405,1,0,0:0:0:0:
230,279,107520,2,0,P|174:320|99:294,1,119.999996337891,8|0,0:0|0:0,0:0:0:0:
144,96,107981,6,0,P|173:42|240:9,1,119.999996337891,8|0,0:0|0:0,0:0:0:0:
280,224,108442,6,0,P|305:179|357:156,1,100,8|0,0:0|0:0,0:0:0:0:
384,312,108904,6,0,P|409:275|442:262,1,75.0000028610231,8|0,0:0|0:0,0:0:0:0:
192,304,109365,5,0,0:0:0:0:
52,149,109596,1,0,0:0:0:0:
256,106,109827,1,0,0:0:0:0:
77,266,110057,1,0,0:0:0:0:
142,69,110288,1,0,0:0:0:0:
281,223,110519,1,0,0:0:0:0:
168,192,110750,1,0,0:0:0:0:
48,120,110980,6,0,P|57:91|75:67,1,59.9999981689454
24,168,111211,1,8,0:0:0:0:
48,344,111442,1,0,0:0:0:0:
130,217,111673,6,0,P|79:245|71:303,1,119.999996337891,8|0,0:0|0:0,0:0:0:0:
120,353,112019,1,0,0:0:0:0:
140,287,112134,2,0,P|102:241|44:234,1,119.999996337891,8|0,0:0|0:0,0:0:0:0:
1,291,112480,1,0,0:0:0:0:
72,304,112596,2,0,P|110:259|110:200,1,119.999996337891
48,167,112942,1,0,0:0:0:0:
45,235,113057,2,0,P|106:255|173:241,1,119.999996337891
344,120,113519,6,0,P|377:170|355:227,1,119.999996337891,8|0,0:0|0:0,0:0:0:0:
294,247,113865,1,0,0:0:0:0:
305,179,113980,2,0,P|359:155|432:195,1,119.999996337891,8|0,0:0|0:0,0:0:0:0:
428,244,114326,1,0,0:0:0:0:
360,224,114442,2,0,P|348:152|390:101,1,119.999996337891
440,112,114788,1,0,0:0:0:0:
415,177,114903,1,0,0:0:0:0:
96,320,115134,1,0,0:0:0:0:
80,48,115365,6,0,P|88:96|96:112,1,50,8|0,0:0|0:0,0:0:0:0:
224,304,115826,2,0,L|224:248,1,50,8|0,0:0|0:0,0:0:0:0:
376,160,116288,2,0,L|376:224,1,50,8|0,0:0|0:0,0:0:0:0:
240,144,116749,5,8,0:0:0:0:
216,240,116980,1,0,0:0:0:0:
336,256,117211,1,8,0:0:0:0:
376,120,117442,1,0,0:0:0:0:
216,72,117672,1,8,0:0:0:0:
152,256,117903,1,0,0:0:0:0:
360,320,118134,1,8,0:0:0:0:
272,176,118365,6,0,P|280:128|288:112,1,59.9999981689454
264,240,118595,1,8,0:0:0:0:
368,48,119057,6,0,L|492:48,1,100,8|0,0:0|0:0,0:0:0:0:
320,48,119518,1,8,0:0:0:0:
272,48,119634,1,0,0:0:0:0:
224,56,119749,1,0,0:0:0:0:
176,64,119864,1,0,0:0:0:0:
128,80,119980,2,0,P|90:111|74:158,1,100,8|0,0:0|0:0,0:0:0:0:
176,168,120442,5,8,0:0:0:0:
224,168,120558,1,0,0:0:0:0:
272,176,120673,1,0,0:0:0:0:
320,184,120788,1,0,0:0:0:0:
368,200,120904,2,0,P|405:231|421:278,1,100,8|0,0:0|0:0,0:0:0:0:
320,272,121365,5,8,0:0:0:0:
272,272,121481,1,0,0:0:0:0:
224,280,121596,1,0,0:0:0:0:
176,288,121711,1,0,0:0:0:0:
128,304,121827,2,0,P|90:335|74:382,1,100,8|0,0:0|0:0,0:0:0:0:
321,345,122287,5,8,0:0:0:0:
257,173,122518,1,0,0:0:0:0:
195,343,122749,6,0,L|71:343,1,100,8|0,0:0|0:0,0:0:0:0:
24,272,123210,1,8,0:0:0:0:
8,224,123326,1,0,0:0:0:0:
32,184,123441,1,0,0:0:0:0:
72,160,123556,1,0,0:0:0:0:
112,128,123672,2,0,P|111:79|88:32,1,100,8|0,0:0|0:0,0:0:0:0:
8,96,124133,5,8,0:0:0:0:
32,144,124249,1,0,0:0:0:0:
56,192,124364,1,0,0:0:0:0:
96,224,124479,1,0,0:0:0:0:
136,256,124595,2,0,P|176:288|224:296,1,100,8|0,0:0|0:0,0:0:0:0:
216,192,125057,5,8,0:0:0:0:
232,144,125173,1,0,0:0:0:0:
272,112,125288,1,0,0:0:0:0:
320,96,125403,1,0,0:0:0:0:
368,96,125519,2,0,P|416:80|440:16,1,100,8|0,0:0|0:0,0:0:0:0:
344,8,125980,5,8,0:0:0:0:
472,160,126210,1,0,0:0:0:0:
344,8,126441,5,8,0:0:0:0:
400,24,126556,1,0,0:0:0:0:
456,56,126672,1,0,0:0:0:0:
464,104,126787,1,0,0:0:0:0:
448,160,126903,1,8,0:0:0:0:
392,176,127018,1,0,0:0:0:0:
344,208,127133,1,0,0:0:0:0:
304,256,127249,1,0,0:0:0:0:
288,312,127364,1,8,0:0:0:0:
312,368,127479,1,0,0:0:0:0:
368,376,127595,1,0,0:0:0:0:
416,344,127710,1,0,0:0:0:0:
440,312,127826,6,0,P|408:304|368:304,1,50,8|0,0:0|0:0,0:0:0:0:
448,280,128287,1,8,0:0:0:0:
432,240,128403,1,0,0:0:0:0:
408,208,128518,1,0,0:0:0:0:
376,192,128634,1,0,0:0:0:0:
336,176,128749,1,8,0:0:0:0:
296,168,128864,1,0,0:0:0:0:
264,144,128980,1,0,0:0:0:0:
232,112,129095,1,0,0:0:0:0:
224,72,129210,1,8,0:0:0:0:
240,32,129326,1,0,0:0:0:0:
280,16,129441,1,0,0:0:0:0:
320,24,129556,1,0,0:0:0:0:
352,48,129672,6,0,L|296:80,1,50,8|0,0:0|0:0,0:0:0:0:
384,80,130133,1,8,0:0:0:0:
384,120,130249,1,0,0:0:0:0:
360,152,130364,1,0,0:0:0:0:
336,184,130479,1,0,0:0:0:0:
296,200,130595,1,8,0:0:0:0:
256,208,130710,1,0,0:0:0:0:
216,216,130825,1,0,0:0:0:0:
184,232,130941,1,0,0:0:0:0:
152,256,131056,1,8,0:0:0:0:
136,296,131172,1,0,0:0:0:0:
152,336,131287,1,0,0:0:0:0:
192,336,131402,1,0,0:0:0:0:
224,320,131518,6,0,P|192:288|168:280,1,50,8|0,0:0|0:0,0:0:0:0:
248,280,131979,1,8,0:0:0:0:
224,248,132095,1,0,0:0:0:0:
224,224,132210,1,0,0:0:0:0:
192,224,132325,1,0,0:0:0:0:
208,184,132441,1,8,0:0:0:0:
160,184,132556,1,0,0:0:0:0:
184,144,132671,1,0,0:0:0:0:
136,152,132787,1,0,0:0:0:0:
160,104,132902,1,8,0:0:0:0:
256,192,133018,12,0,133825,0:0:0:0:
256,192,133941,12,0,134748,0:0:0:0:
256,192,134864,12,0,135671,0:0:0:0:
256,192,135787,12,0,136595,0:0:0:0:
256,192,136710,12,0,137518,0:0:0:0:
256,192,137633,12,0,141210,0:0:0:0:
