osu file format v14

[General]
AudioFilename: 01 .mp3
AudioLeadIn: 0
PreviewTime: 69468
Countdown: 0
SampleSet: None
StackLeniency: 0.7
Mode: 3
LetterboxInBreaks: 0
SpecialStyle: 0
WidescreenStoryboard: 0

[Editor]
DistanceSpacing: 1
BeatDivisor: 4
GridSize: 4
TimelineZoom: 1

[Metadata]
Title:Mottai Night Land
TitleUnicode:もったいないとらんど
Artist:Kyary Pamyu Pamyu
ArtistUnicode:きゃりーぱみゅぱみゅ
Creator:Cuppp
Version:Insane
Source:
Tags:
BeatmapID:691829
BeatmapSetID:309474

[Difficulty]
HPDrainRate:8
CircleSize:7
OverallDifficulty:5
ApproachRate:5
SliderMultiplier:1.4
SliderTickRate:1

[Events]
//Background and Video events
0,0,"kyaru pamyu pamyu mottai night land 10.png",0,0
//Break Periods
//Storyboard Layer 0 (Background)
//Storyboard Layer 1 (Fail)
//Storyboard Layer 2 (Pass)
//Storyboard Layer 3 (Foreground)
//Storyboard Sound Samples

[TimingPoints]
187,375,4,1,0,5,1,0
54187,-100,4,1,0,5,0,0
69187,-100,4,1,0,5,0,0

[HitObjects]
109,192,187,5,0,0:0:0:0:
182,192,187,1,0,0:0:0:0:
402,192,374,1,0,0:0:0:0:
475,192,562,1,0,0:0:0:0:
36,192,562,1,0,0:0:0:0:
109,192,749,1,0,0:0:0:0:
182,192,749,1,0,0:0:0:0:
182,192,937,1,0,0:0:0:0:
109,192,937,1,0,0:0:0:0:
402,192,1124,1,0,0:0:0:0:
475,192,1312,1,0,0:0:0:0:
36,192,1312,1,0,0:0:0:0:
182,192,1499,1,0,0:0:0:0:
109,192,1499,1,0,0:0:0:0:
329,192,1687,1,0,0:0:0:0:
402,192,1687,1,0,0:0:0:0:
182,192,1874,1,0,0:0:0:0:
109,192,1874,1,0,0:0:0:0:
475,192,2062,1,0,0:0:0:0:
36,192,2062,1,0,0:0:0:0:
182,192,2249,1,0,0:0:0:0:
109,192,2249,1,0,0:0:0:0:
182,192,2437,1,0,0:0:0:0:
109,192,2437,1,0,0:0:0:0:
329,192,2624,1,0,0:0:0:0:
36,192,2624,1,0,0:0:0:0:
402,192,2718,1,0,0:0:0:0:
109,192,2718,1,0,0:0:0:0:
475,192,2812,1,0,0:0:0:0:
182,192,2812,1,0,0:0:0:0:
256,192,2858,1,0,0:0:0:0:
329,192,2905,1,0,0:0:0:0:
402,192,2952,1,0,0:0:0:0:
475,192,2999,1,0,0:0:0:0:
109,192,2999,1,0,0:0:0:0:
182,192,3093,1,0,0:0:0:0:
36,192,3187,128,0,4499:0:0:0:0:
109,192,3187,1,0,0:0:0:0:
402,192,3187,1,0,0:0:0:0:
329,192,3187,1,0,0:0:0:0:
256,192,3187,1,0,0:0:0:0:
182,192,3374,1,0,0:0:0:0:
256,192,3562,1,0,0:0:0:0:
475,192,3562,1,0,0:0:0:0:
182,192,3749,1,0,0:0:0:0:
329,192,3937,1,0,0:0:0:0:
402,192,3937,1,0,0:0:0:0:
182,192,4124,1,0,0:0:0:0:
329,192,4312,1,0,0:0:0:0:
402,192,4312,1,0,0:0:0:0:
256,192,4499,1,0,0:0:0:0:
109,192,4499,1,0,0:0:0:0:
402,192,4687,1,0,0:0:0:0:
329,192,4687,1,0,0:0:0:0:
475,192,4687,128,0,5999:0:0:0:0:
182,192,4687,1,0,0:0:0:0:
36,192,4687,1,0,0:0:0:0:
329,192,4874,1,0,0:0:0:0:
36,192,5062,1,0,0:0:0:0:
256,192,5062,1,0,0:0:0:0:
329,192,5249,1,0,0:0:0:0:
182,192,5437,1,0,0:0:0:0:
109,192,5437,1,0,0:0:0:0:
329,192,5624,1,0,0:0:0:0:
109,192,5812,1,0,0:0:0:0:
182,192,5812,1,0,0:0:0:0:
256,192,5999,1,0,0:0:0:0:
402,192,6187,128,0,6421:0:0:0:0:
182,192,6187,1,0,0:0:0:0:
109,192,6187,1,0,0:0:0:0:
36,192,6187,1,0,0:0:0:0:
475,192,6187,128,0,6233:0:0:0:0:
329,192,6187,128,0,6608:0:0:0:0:
36,192,6374,128,0,6421:0:0:0:0:
109,192,6374,128,0,6608:0:0:0:0:
402,192,6562,128,0,6608:0:0:0:0:
475,192,6562,128,0,6796:0:0:0:0:
256,192,6562,128,0,6983:0:0:0:0:
109,192,6749,128,0,6796:0:0:0:0:
36,192,6749,128,0,6983:0:0:0:0:
475,192,6937,128,0,6983:0:0:0:0:
402,192,6937,128,0,7171:0:0:0:0:
182,192,6937,128,0,7358:0:0:0:0:
36,192,7124,128,0,7358:0:0:0:0:
109,192,7124,128,0,7171:0:0:0:0:
329,192,7312,128,0,7358:0:0:0:0:
402,192,7312,128,0,7546:0:0:0:0:
256,192,7312,128,0,7733:0:0:0:0:
109,192,7499,128,0,7733:0:0:0:0:
182,192,7499,128,0,7546:0:0:0:0:
36,192,7687,128,0,7733:0:0:0:0:
475,192,7687,128,0,7733:0:0:0:0:
329,192,7687,128,0,7921:0:0:0:0:
402,192,7687,128,0,8108:0:0:0:0:
109,192,7874,128,0,7921:0:0:0:0:
182,192,7874,128,0,8108:0:0:0:0:
256,192,8062,128,0,8624:0:0:0:0:
329,192,8062,128,0,8108:0:0:0:0:
475,192,8062,128,0,8999:0:0:0:0:
36,192,8062,1,0,0:0:0:0:
109,192,8249,1,0,0:0:0:0:
329,192,8249,1,0,0:0:0:0:
402,192,8437,1,0,0:0:0:0:
36,192,8437,1,0,0:0:0:0:
109,192,8624,1,0,0:0:0:0:
329,192,8812,128,0,8999:0:0:0:0:
256,192,8812,1,0,0:0:0:0:
182,192,8812,1,0,0:0:0:0:
36,192,8812,1,0,0:0:0:0:
109,192,8999,1,0,0:0:0:0:
182,192,9187,1,0,0:0:0:0:
475,192,9187,1,0,0:0:0:0:
109,192,9187,1,0,0:0:0:0:
36,192,9187,128,0,10499:0:0:0:0:
256,192,9187,1,0,0:0:0:0:
402,192,9187,128,0,9468:0:0:0:0:
182,192,9374,1,0,0:0:0:0:
256,192,9562,1,0,0:0:0:0:
475,192,9562,1,0,0:0:0:0:
329,192,9562,128,0,9843:0:0:0:0:
182,192,9749,1,0,0:0:0:0:
402,192,9937,1,0,0:0:0:0:
329,192,9937,1,0,0:0:0:0:
256,192,9937,128,0,10218:0:0:0:0:
182,192,10124,1,0,0:0:0:0:
329,192,10312,1,0,0:0:0:0:
475,192,10312,128,0,10499:0:0:0:0:
256,192,10312,1,0,0:0:0:0:
109,192,10499,1,0,0:0:0:0:
256,192,10499,1,0,0:0:0:0:
182,192,10499,128,0,10687:0:0:0:0:
402,192,10687,1,0,0:0:0:0:
329,192,10687,1,0,0:0:0:0:
36,192,10687,1,0,0:0:0:0:
475,192,10687,128,0,11999:0:0:0:0:
256,192,10687,128,0,10874:0:0:0:0:
329,192,10874,1,0,0:0:0:0:
109,192,10874,128,0,11062:0:0:0:0:
36,192,11062,1,0,0:0:0:0:
256,192,11062,1,0,0:0:0:0:
182,192,11062,128,0,11249:0:0:0:0:
329,192,11249,1,0,0:0:0:0:
256,192,11249,128,0,11437:0:0:0:0:
109,192,11437,1,0,0:0:0:0:
182,192,11437,1,0,0:0:0:0:
402,192,11437,128,0,11718:0:0:0:0:
36,192,11624,1,0,0:0:0:0:
329,192,11624,1,0,0:0:0:0:
182,192,11812,1,0,0:0:0:0:
109,192,11812,1,0,0:0:0:0:
36,192,11812,128,0,11999:0:0:0:0:
256,192,11999,1,0,0:0:0:0:
109,192,11999,128,0,12187:0:0:0:0:
402,192,12187,128,0,12421:0:0:0:0:
182,192,12187,1,0,0:0:0:0:
329,192,12187,128,0,12233:0:0:0:0:
36,192,12187,1,0,0:0:0:0:
256,192,12187,128,0,12608:0:0:0:0:
109,192,12374,128,0,12608:0:0:0:0:
182,192,12374,128,0,12421:0:0:0:0:
182,192,12562,128,0,12983:0:0:0:0:
475,192,12562,128,0,12796:0:0:0:0:
402,192,12562,128,0,12608:0:0:0:0:
109,192,12749,128,0,12796:0:0:0:0:
36,192,12749,128,0,12983:0:0:0:0:
402,192,12937,128,0,12983:0:0:0:0:
329,192,12937,128,0,13171:0:0:0:0:
475,192,12937,128,0,13358:0:0:0:0:
182,192,13124,128,0,13358:0:0:0:0:
109,192,13124,128,0,13171:0:0:0:0:
402,192,13312,128,0,13546:0:0:0:0:
329,192,13312,128,0,13358:0:0:0:0:
109,192,13312,128,0,13733:0:0:0:0:
329,192,13499,128,0,13733:0:0:0:0:
256,192,13499,128,0,13546:0:0:0:0:
475,192,13687,128,0,13733:0:0:0:0:
256,192,13687,128,0,13921:0:0:0:0:
182,192,13687,128,0,13733:0:0:0:0:
36,192,13687,128,0,14108:0:0:0:0:
402,192,13874,128,0,13921:0:0:0:0:
182,192,13874,128,0,14108:0:0:0:0:
329,192,14062,128,0,14108:0:0:0:0:
475,192,14062,128,0,14999:0:0:0:0:
256,192,14062,128,0,14624:0:0:0:0:
109,192,14249,1,0,0:0:0:0:
329,192,14249,1,0,0:0:0:0:
182,192,14437,1,0,0:0:0:0:
36,192,14437,1,0,0:0:0:0:
402,192,14437,1,0,0:0:0:0:
36,192,14624,1,0,0:0:0:0:
109,192,14671,1,0,0:0:0:0:
182,192,14718,1,0,0:0:0:0:
256,192,14765,1,0,0:0:0:0:
329,192,14812,1,0,0:0:0:0:
402,192,14812,1,0,0:0:0:0:
36,192,14812,1,0,0:0:0:0:
36,192,14999,1,0,0:0:0:0:
109,192,15046,1,0,0:0:0:0:
182,192,15093,1,0,0:0:0:0:
256,192,15140,1,0,0:0:0:0:
329,192,15187,1,0,0:0:0:0:
402,192,15187,1,0,0:0:0:0:
475,192,15187,1,0,0:0:0:0:
36,192,15187,1,0,0:0:0:0:
109,192,15187,1,0,0:0:0:0:
475,192,15374,128,0,15562:0:0:0:0:
256,192,15374,1,0,0:0:0:0:
182,192,15374,1,0,0:0:0:0:
36,192,15562,128,0,15749:0:0:0:0:
402,192,15562,1,0,0:0:0:0:
329,192,15562,1,0,0:0:0:0:
109,192,15562,1,0,0:0:0:0:
475,192,15749,128,0,15937:0:0:0:0:
256,192,15749,1,0,0:0:0:0:
182,192,15749,1,0,0:0:0:0:
402,192,15937,128,0,16124:0:0:0:0:
109,192,15937,1,0,0:0:0:0:
36,192,15937,1,0,0:0:0:0:
256,192,15937,1,0,0:0:0:0:
329,192,16124,128,0,16312:0:0:0:0:
475,192,16124,1,0,0:0:0:0:
182,192,16124,1,0,0:0:0:0:
256,192,16312,128,0,16499:0:0:0:0:
109,192,16312,1,0,0:0:0:0:
36,192,16312,1,0,0:0:0:0:
402,192,16312,1,0,0:0:0:0:
36,192,16499,128,0,16687:0:0:0:0:
475,192,16499,1,0,0:0:0:0:
329,192,16499,1,0,0:0:0:0:
182,192,16687,128,0,16874:0:0:0:0:
256,192,16687,1,0,0:0:0:0:
402,192,16687,1,0,0:0:0:0:
109,192,16687,1,0,0:0:0:0:
329,192,16874,128,0,17062:0:0:0:0:
36,192,16874,1,0,0:0:0:0:
256,192,16874,1,0,0:0:0:0:
475,192,17062,128,0,18187:0:0:0:0:
109,192,17062,1,0,0:0:0:0:
182,192,17062,1,0,0:0:0:0:
402,192,17062,1,0,0:0:0:0:
402,192,17249,1,0,0:0:0:0:
329,192,17249,1,0,0:0:0:0:
256,192,17343,1,0,0:0:0:0:
182,192,17437,1,0,0:0:0:0:
109,192,17437,1,0,0:0:0:0:
36,192,17437,1,0,0:0:0:0:
329,192,17624,1,0,0:0:0:0:
402,192,17624,1,0,0:0:0:0:
256,192,17718,1,0,0:0:0:0:
329,192,17812,128,0,17999:0:0:0:0:
182,192,17812,1,0,0:0:0:0:
109,192,17812,1,0,0:0:0:0:
36,192,17812,1,0,0:0:0:0:
402,192,17999,128,0,18187:0:0:0:0:
36,192,17999,1,0,0:0:0:0:
109,192,17999,1,0,0:0:0:0:
182,192,18093,1,0,0:0:0:0:
256,192,18187,1,0,0:0:0:0:
329,192,18187,1,0,0:0:0:0:
36,192,18187,1,0,0:0:0:0:
182,192,18374,1,0,0:0:0:0:
109,192,18374,1,0,0:0:0:0:
475,192,18374,128,0,18562:0:0:0:0:
36,192,18562,128,0,18749:0:0:0:0:
402,192,18562,1,0,0:0:0:0:
329,192,18562,1,0,0:0:0:0:
256,192,18562,1,0,0:0:0:0:
475,192,18749,128,0,18937:0:0:0:0:
329,192,18749,1,0,0:0:0:0:
182,192,18749,1,0,0:0:0:0:
36,192,18937,128,0,19124:0:0:0:0:
256,192,18937,1,0,0:0:0:0:
402,192,18937,1,0,0:0:0:0:
109,192,18937,1,0,0:0:0:0:
475,192,19124,128,0,19312:0:0:0:0:
329,192,19124,1,0,0:0:0:0:
182,192,19124,1,0,0:0:0:0:
109,192,19312,128,0,19499:0:0:0:0:
256,192,19312,1,0,0:0:0:0:
402,192,19312,1,0,0:0:0:0:
36,192,19312,1,0,0:0:0:0:
256,192,19499,128,0,19687:0:0:0:0:
475,192,19499,1,0,0:0:0:0:
402,192,19499,1,0,0:0:0:0:
329,192,19593,1,0,0:0:0:0:
402,192,19687,128,0,19874:0:0:0:0:
182,192,19687,1,0,0:0:0:0:
109,192,19687,1,0,0:0:0:0:
36,192,19687,1,0,0:0:0:0:
182,192,19874,128,0,20062:0:0:0:0:
329,192,19874,1,0,0:0:0:0:
475,192,19874,1,0,0:0:0:0:
256,192,19968,1,0,0:0:0:0:
329,192,20062,128,0,20249:0:0:0:0:
109,192,20062,1,0,0:0:0:0:
36,192,20062,1,0,0:0:0:0:
475,192,20062,1,0,0:0:0:0:
182,192,20249,128,0,20437:0:0:0:0:
475,192,20249,1,0,0:0:0:0:
402,192,20249,1,0,0:0:0:0:
329,192,20343,1,0,0:0:0:0:
36,192,20437,128,0,20624:0:0:0:0:
475,192,20437,128,0,20624:0:0:0:0:
256,192,20437,1,0,0:0:0:0:
109,192,20437,1,0,0:0:0:0:
402,192,20437,1,0,0:0:0:0:
109,192,20624,1,0,0:0:0:0:
182,192,20624,1,0,0:0:0:0:
256,192,20718,1,0,0:0:0:0:
329,192,20812,128,0,20999:0:0:0:0:
182,192,20812,128,0,20999:0:0:0:0:
475,192,20812,1,0,0:0:0:0:
36,192,20812,1,0,0:0:0:0:
402,192,20999,1,0,0:0:0:0:
109,192,20999,1,0,0:0:0:0:
256,192,21187,128,0,21468:0:0:0:0:
182,192,21187,128,0,21468:0:0:0:0:
329,192,21187,128,0,21374:0:0:0:0:
109,192,21187,1,0,0:0:0:0:
36,192,21187,1,0,0:0:0:0:
475,192,21374,1,0,0:0:0:0:
402,192,21374,1,0,0:0:0:0:
256,192,21562,128,0,21843:0:0:0:0:
329,192,21562,128,0,21843:0:0:0:0:
402,192,21562,128,0,21749:0:0:0:0:
109,192,21562,1,0,0:0:0:0:
36,192,21562,1,0,0:0:0:0:
475,192,21749,1,0,0:0:0:0:
182,192,21749,1,0,0:0:0:0:
329,192,21937,128,0,22218:0:0:0:0:
402,192,21937,128,0,22218:0:0:0:0:
475,192,21937,128,0,22124:0:0:0:0:
182,192,21937,1,0,0:0:0:0:
109,192,21983,1,0,0:0:0:0:
36,192,22030,1,0,0:0:0:0:
256,192,22124,1,0,0:0:0:0:
182,192,22218,1,0,0:0:0:0:
109,192,22312,1,0,0:0:0:0:
36,192,22312,1,0,0:0:0:0:
256,192,22312,1,0,0:0:0:0:
329,192,22312,1,0,0:0:0:0:
402,192,22312,1,0,0:0:0:0:
475,192,22312,1,0,0:0:0:0:
182,192,22499,1,0,0:0:0:0:
329,192,22499,1,0,0:0:0:0:
475,192,22687,1,0,0:0:0:0:
256,192,22687,128,0,22968:0:0:0:0:
402,192,22687,1,0,0:0:0:0:
182,192,22687,128,0,22874:0:0:0:0:
329,192,22687,128,0,22968:0:0:0:0:
109,192,22874,1,0,0:0:0:0:
36,192,22874,1,0,0:0:0:0:
109,192,23062,128,0,23249:0:0:0:0:
256,192,23062,128,0,23343:0:0:0:0:
475,192,23062,1,0,0:0:0:0:
182,192,23062,128,0,23343:0:0:0:0:
402,192,23062,1,0,0:0:0:0:
329,192,23249,1,0,0:0:0:0:
36,192,23249,1,0,0:0:0:0:
182,192,23437,128,0,23718:0:0:0:0:
36,192,23437,128,0,23624:0:0:0:0:
109,192,23437,128,0,23718:0:0:0:0:
329,192,23437,1,0,0:0:0:0:
402,192,23483,1,0,0:0:0:0:
475,192,23530,1,0,0:0:0:0:
256,192,23624,1,0,0:0:0:0:
329,192,23718,1,0,0:0:0:0:
475,192,23812,1,0,0:0:0:0:
182,192,23812,1,0,0:0:0:0:
402,192,23812,1,0,0:0:0:0:
256,192,23812,1,0,0:0:0:0:
109,192,23812,1,0,0:0:0:0:
36,192,23812,1,0,0:0:0:0:
329,192,23905,1,0,0:0:0:0:
256,192,23999,1,0,0:0:0:0:
475,192,23999,1,0,0:0:0:0:
182,192,24093,1,0,0:0:0:0:
402,192,24093,1,0,0:0:0:0:
109,192,24187,1,0,0:0:0:0:
36,192,24187,1,0,0:0:0:0:
329,192,24187,1,0,0:0:0:0:
256,192,24280,1,0,0:0:0:0:
475,192,24374,128,0,25030:0:0:0:0:
402,192,24374,128,0,24655:0:0:0:0:
182,192,24374,128,0,24843:0:0:0:0:
256,192,24562,128,0,24843:0:0:0:0:
329,192,24562,128,0,25030:0:0:0:0:
109,192,24562,128,0,25030:0:0:0:0:
402,192,24749,128,0,25405:0:0:0:0:
36,192,24749,128,0,25405:0:0:0:0:
182,192,24937,128,0,25218:0:0:0:0:
256,192,24937,128,0,25218:0:0:0:0:
329,192,25124,128,0,25405:0:0:0:0:
475,192,25124,128,0,25405:0:0:0:0:
109,192,25124,128,0,25968:0:0:0:0:
182,192,25312,128,0,25780:0:0:0:0:
256,192,25312,128,0,25780:0:0:0:0:
329,192,25499,128,0,25780:0:0:0:0:
402,192,25499,128,0,25968:0:0:0:0:
475,192,25499,128,0,26155:0:0:0:0:
36,192,25499,128,0,25968:0:0:0:0:
329,192,25874,128,0,26905:0:0:0:0:
182,192,25874,128,0,26155:0:0:0:0:
256,192,25874,128,0,26155:0:0:0:0:
109,192,26062,128,0,26530:0:0:0:0:
36,192,26062,128,0,26530:0:0:0:0:
402,192,26062,128,0,26718:0:0:0:0:
256,192,26249,128,0,26905:0:0:0:0:
475,192,26249,128,0,26718:0:0:0:0:
182,192,26249,128,0,26530:0:0:0:0:
182,192,26624,128,0,27093:0:0:0:0:
109,192,26624,128,0,27093:0:0:0:0:
36,192,26624,128,0,27093:0:0:0:0:
475,192,26812,128,0,27093:0:0:0:0:
402,192,26812,128,0,27093:0:0:0:0:
329,192,26999,128,0,27187:0:0:0:0:
256,192,26999,128,0,27187:0:0:0:0:
475,192,27187,1,0,0:0:0:0:
402,192,27187,1,0,0:0:0:0:
182,192,27187,1,0,0:0:0:0:
109,192,27187,1,0,0:0:0:0:
36,192,27187,1,0,0:0:0:0:
329,192,27562,1,0,0:0:0:0:
402,192,27562,1,0,0:0:0:0:
182,192,27749,1,0,0:0:0:0:
109,192,27749,1,0,0:0:0:0:
36,192,27749,1,0,0:0:0:0:
475,192,27749,1,0,0:0:0:0:
402,192,27843,1,0,0:0:0:0:
182,192,27937,1,0,0:0:0:0:
109,192,27937,1,0,0:0:0:0:
36,192,27937,1,0,0:0:0:0:
329,192,27937,1,0,0:0:0:0:
256,192,28124,1,0,0:0:0:0:
329,192,28312,1,0,0:0:0:0:
475,192,28312,1,0,0:0:0:0:
182,192,28312,1,0,0:0:0:0:
109,192,28312,1,0,0:0:0:0:
36,192,28499,1,0,0:0:0:0:
256,192,28499,1,0,0:0:0:0:
109,192,28593,1,0,0:0:0:0:
329,192,28593,1,0,0:0:0:0:
182,192,28687,1,0,0:0:0:0:
402,192,28687,1,0,0:0:0:0:
475,192,28687,1,0,0:0:0:0:
329,192,28874,1,0,0:0:0:0:
256,192,28874,1,0,0:0:0:0:
182,192,28968,1,0,0:0:0:0:
36,192,29062,1,0,0:0:0:0:
109,192,29062,1,0,0:0:0:0:
256,192,29249,1,0,0:0:0:0:
329,192,29249,1,0,0:0:0:0:
402,192,29343,1,0,0:0:0:0:
109,192,29437,1,0,0:0:0:0:
475,192,29437,1,0,0:0:0:0:
182,192,29624,1,0,0:0:0:0:
256,192,29812,1,0,0:0:0:0:
36,192,29812,1,0,0:0:0:0:
475,192,29812,1,0,0:0:0:0:
36,192,29999,1,0,0:0:0:0:
182,192,29999,1,0,0:0:0:0:
475,192,29999,1,0,0:0:0:0:
329,192,30187,128,0,30280:0:0:0:0:
402,192,30187,128,0,30280:0:0:0:0:
256,192,30187,128,0,30421:0:0:0:0:
182,192,30187,128,0,30421:0:0:0:0:
475,192,30187,128,0,30655:0:0:0:0:
329,192,30374,128,0,30421:0:0:0:0:
402,192,30374,128,0,30421:0:0:0:0:
182,192,30562,128,0,30796:0:0:0:0:
109,192,30562,128,0,30796:0:0:0:0:
256,192,30562,128,0,30655:0:0:0:0:
329,192,30562,128,0,30655:0:0:0:0:
402,192,30562,128,0,31030:0:0:0:0:
329,192,30749,128,0,30796:0:0:0:0:
256,192,30749,128,0,30796:0:0:0:0:
109,192,30937,128,0,31171:0:0:0:0:
36,192,30937,128,0,31171:0:0:0:0:
182,192,30937,128,0,31030:0:0:0:0:
256,192,30937,128,0,31030:0:0:0:0:
329,192,30937,128,0,31546:0:0:0:0:
256,192,31124,128,0,31171:0:0:0:0:
182,192,31124,128,0,31171:0:0:0:0:
402,192,31312,128,0,31405:0:0:0:0:
475,192,31312,128,0,31405:0:0:0:0:
256,192,31312,128,0,31546:0:0:0:0:
182,192,31312,128,0,31546:0:0:0:0:
402,192,31499,128,0,31546:0:0:0:0:
475,192,31499,128,0,31546:0:0:0:0:
182,192,31687,128,0,31780:0:0:0:0:
36,192,31687,128,0,31780:0:0:0:0:
109,192,31687,128,0,31921:0:0:0:0:
329,192,31687,128,0,31921:0:0:0:0:
256,192,31687,128,0,32155:0:0:0:0:
182,192,31874,128,0,31921:0:0:0:0:
36,192,31874,128,0,31921:0:0:0:0:
329,192,32062,128,0,32155:0:0:0:0:
475,192,32062,128,0,32155:0:0:0:0:
182,192,32062,128,0,32296:0:0:0:0:
109,192,32062,128,0,32296:0:0:0:0:
402,192,32062,128,0,32530:0:0:0:0:
329,192,32249,128,0,32296:0:0:0:0:
475,192,32249,128,0,32296:0:0:0:0:
182,192,32437,128,0,32530:0:0:0:0:
36,192,32437,128,0,32530:0:0:0:0:
256,192,32437,128,0,32671:0:0:0:0:
329,192,32437,128,0,32671:0:0:0:0:
109,192,32437,128,0,32905:0:0:0:0:
182,192,32624,128,0,32671:0:0:0:0:
36,192,32624,128,0,32671:0:0:0:0:
256,192,32812,128,0,32905:0:0:0:0:
329,192,32812,128,0,32905:0:0:0:0:
182,192,32812,128,0,33280:0:0:0:0:
402,192,32812,128,0,33046:0:0:0:0:
475,192,32812,128,0,33046:0:0:0:0:
256,192,32999,128,0,33046:0:0:0:0:
329,192,32999,128,0,33046:0:0:0:0:
329,192,33187,128,0,33280:0:0:0:0:
402,192,33187,128,0,33280:0:0:0:0:
256,192,33187,128,0,33655:0:0:0:0:
475,192,33187,128,0,33421:0:0:0:0:
36,192,33187,128,0,33421:0:0:0:0:
109,192,33187,128,0,33280:0:0:0:0:
329,192,33374,128,0,33421:0:0:0:0:
402,192,33374,128,0,33421:0:0:0:0:
109,192,33374,128,0,33421:0:0:0:0:
402,192,33562,128,0,33655:0:0:0:0:
475,192,33562,128,0,33655:0:0:0:0:
329,192,33562,128,0,34030:0:0:0:0:
36,192,33562,128,0,33796:0:0:0:0:
109,192,33562,128,0,33796:0:0:0:0:
182,192,33562,128,0,33655:0:0:0:0:
402,192,33749,128,0,33796:0:0:0:0:
475,192,33749,128,0,33796:0:0:0:0:
182,192,33749,128,0,33796:0:0:0:0:
256,192,33937,128,0,34030:0:0:0:0:
109,192,33937,128,0,34030:0:0:0:0:
402,192,33937,128,0,34405:0:0:0:0:
36,192,33937,128,0,34405:0:0:0:0:
256,192,34124,128,0,34171:0:0:0:0:
329,192,34124,128,0,34171:0:0:0:0:
109,192,34124,128,0,34171:0:0:0:0:
329,192,34312,128,0,34405:0:0:0:0:
475,192,34312,128,0,34405:0:0:0:0:
182,192,34312,128,0,34593:0:0:0:0:
402,192,34499,128,0,34593:0:0:0:0:
256,192,34499,128,0,34593:0:0:0:0:
109,192,34499,128,0,34780:0:0:0:0:
329,192,34687,128,0,34780:0:0:0:0:
182,192,34687,128,0,34780:0:0:0:0:
36,192,34687,128,0,34968:0:0:0:0:
475,192,34687,128,0,34874:0:0:0:0:
256,192,34874,128,0,34968:0:0:0:0:
109,192,34874,128,0,34968:0:0:0:0:
402,192,34874,128,0,35062:0:0:0:0:
182,192,35062,128,0,35155:0:0:0:0:
36,192,35062,128,0,35155:0:0:0:0:
329,192,35062,128,0,35249:0:0:0:0:
256,192,35249,128,0,35343:0:0:0:0:
109,192,35249,128,0,35343:0:0:0:0:
182,192,35249,128,0,35437:0:0:0:0:
36,192,35249,128,0,35812:0:0:0:0:
329,192,35437,128,0,35530:0:0:0:0:
402,192,35437,128,0,35624:0:0:0:0:
475,192,35437,128,0,35718:0:0:0:0:
109,192,35437,1,0,0:0:0:0:
256,192,35437,1,0,0:0:0:0:
329,192,35624,1,0,0:0:0:0:
109,192,35624,128,0,35718:0:0:0:0:
182,192,35624,128,0,35718:0:0:0:0:
402,192,35718,1,0,0:0:0:0:
475,192,35812,1,0,0:0:0:0:
182,192,35812,1,0,0:0:0:0:
109,192,35812,1,0,0:0:0:0:
256,192,35812,1,0,0:0:0:0:
329,192,35812,1,0,0:0:0:0:
329,192,35999,1,0,0:0:0:0:
402,192,35999,1,0,0:0:0:0:
182,192,35999,1,0,0:0:0:0:
109,192,35999,1,0,0:0:0:0:
182,192,36187,128,0,36655:0:0:0:0:
36,192,36187,128,0,36280:0:0:0:0:
109,192,36187,128,0,36280:0:0:0:0:
329,192,36187,128,0,36374:0:0:0:0:
109,192,36374,128,0,36421:0:0:0:0:
36,192,36374,128,0,36421:0:0:0:0:
402,192,36374,128,0,36562:0:0:0:0:
256,192,36562,128,0,36796:0:0:0:0:
109,192,36562,128,0,36655:0:0:0:0:
36,192,36562,128,0,36655:0:0:0:0:
475,192,36562,128,0,36749:0:0:0:0:
182,192,36749,128,0,36937:0:0:0:0:
109,192,36749,128,0,36796:0:0:0:0:
36,192,36749,128,0,36796:0:0:0:0:
109,192,36937,128,0,37171:0:0:0:0:
329,192,36937,128,0,37171:0:0:0:0:
256,192,36937,128,0,37171:0:0:0:0:
402,192,36937,128,0,37030:0:0:0:0:
475,192,36937,128,0,37030:0:0:0:0:
36,192,36937,128,0,37171:0:0:0:0:
402,192,37124,128,0,37171:0:0:0:0:
475,192,37124,128,0,37171:0:0:0:0:
109,192,37312,128,0,37546:0:0:0:0:
36,192,37312,128,0,37546:0:0:0:0:
329,192,37312,128,0,37546:0:0:0:0:
402,192,37312,128,0,37405:0:0:0:0:
475,192,37312,128,0,37405:0:0:0:0:
256,192,37312,128,0,37546:0:0:0:0:
402,192,37499,128,0,37546:0:0:0:0:
475,192,37499,128,0,37546:0:0:0:0:
182,192,37687,128,0,37921:0:0:0:0:
256,192,37687,128,0,38062:0:0:0:0:
109,192,37687,128,0,37780:0:0:0:0:
36,192,37687,128,0,37780:0:0:0:0:
475,192,37687,128,0,37874:0:0:0:0:
402,192,37874,128,0,38062:0:0:0:0:
109,192,37874,128,0,37921:0:0:0:0:
36,192,37874,128,0,37921:0:0:0:0:
329,192,38062,128,0,38249:0:0:0:0:
109,192,38062,128,0,38155:0:0:0:0:
36,192,38062,128,0,38155:0:0:0:0:
182,192,38062,128,0,38296:0:0:0:0:
256,192,38249,128,0,38437:0:0:0:0:
109,192,38249,128,0,38296:0:0:0:0:
36,192,38249,128,0,38296:0:0:0:0:
109,192,38437,128,0,38671:0:0:0:0:
36,192,38437,128,0,38999:0:0:0:0:
329,192,38437,128,0,38530:0:0:0:0:
402,192,38437,128,0,38530:0:0:0:0:
475,192,38437,128,0,38671:0:0:0:0:
182,192,38437,128,0,39046:0:0:0:0:
329,192,38624,128,0,38671:0:0:0:0:
402,192,38624,128,0,38671:0:0:0:0:
402,192,38812,128,0,38905:0:0:0:0:
329,192,38812,128,0,38905:0:0:0:0:
475,192,38812,128,0,39046:0:0:0:0:
256,192,38812,128,0,39046:0:0:0:0:
109,192,38812,128,0,39421:0:0:0:0:
329,192,38999,128,0,39046:0:0:0:0:
402,192,38999,128,0,39046:0:0:0:0:
402,192,39187,128,0,39280:0:0:0:0:
329,192,39187,128,0,39280:0:0:0:0:
475,192,39187,128,0,39796:0:0:0:0:
256,192,39187,128,0,39421:0:0:0:0:
182,192,39187,128,0,39421:0:0:0:0:
402,192,39374,128,0,39421:0:0:0:0:
329,192,39374,128,0,39421:0:0:0:0:
109,192,39562,128,0,39796:0:0:0:0:
256,192,39562,128,0,39655:0:0:0:0:
182,192,39562,128,0,39796:0:0:0:0:
329,192,39562,128,0,39655:0:0:0:0:
402,192,39562,128,0,40171:0:0:0:0:
256,192,39749,128,0,39796:0:0:0:0:
329,192,39749,128,0,39796:0:0:0:0:
256,192,39937,128,0,40030:0:0:0:0:
109,192,39937,128,0,40171:0:0:0:0:
182,192,39937,128,0,40030:0:0:0:0:
329,192,39937,128,0,40546:0:0:0:0:
36,192,39937,128,0,40171:0:0:0:0:
256,192,40124,128,0,40171:0:0:0:0:
182,192,40124,128,0,40171:0:0:0:0:
475,192,40312,128,0,40405:0:0:0:0:
402,192,40312,128,0,40405:0:0:0:0:
182,192,40312,128,0,40546:0:0:0:0:
256,192,40312,128,0,40546:0:0:0:0:
475,192,40499,128,0,40546:0:0:0:0:
402,192,40499,128,0,40546:0:0:0:0:
109,192,40687,128,0,40968:0:0:0:0:
36,192,40687,128,0,40968:0:0:0:0:
329,192,40687,128,0,41155:0:0:0:0:
402,192,40687,128,0,40968:0:0:0:0:
182,192,40874,128,0,41343:0:0:0:0:
256,192,40874,128,0,41155:0:0:0:0:
475,192,41062,128,0,41530:0:0:0:0:
402,192,41062,128,0,41624:0:0:0:0:
109,192,41062,128,0,41343:0:0:0:0:
36,192,41062,128,0,41343:0:0:0:0:
329,192,41249,128,0,41718:0:0:0:0:
256,192,41249,128,0,41718:0:0:0:0:
182,192,41437,128,0,41530:0:0:0:0:
109,192,41437,128,0,41624:0:0:0:0:
36,192,41437,128,0,41718:0:0:0:0:
475,192,41624,1,0,0:0:0:0:
182,192,41624,1,0,0:0:0:0:
402,192,41718,1,0,0:0:0:0:
109,192,41718,1,0,0:0:0:0:
329,192,41812,1,0,0:0:0:0:
36,192,41812,1,0,0:0:0:0:
256,192,41812,1,0,0:0:0:0:
329,192,41999,1,0,0:0:0:0:
329,192,42093,1,0,0:0:0:0:
36,192,42187,1,0,0:0:0:0:
109,192,42187,1,0,0:0:0:0:
475,192,42187,1,0,0:0:0:0:
402,192,42187,1,0,0:0:0:0:
182,192,42280,1,0,0:0:0:0:
256,192,42374,1,0,0:0:0:0:
402,192,42374,1,0,0:0:0:0:
109,192,42374,1,0,0:0:0:0:
36,192,42468,1,0,0:0:0:0:
329,192,42562,1,0,0:0:0:0:
475,192,42562,1,0,0:0:0:0:
182,192,42562,1,0,0:0:0:0:
109,192,42655,1,0,0:0:0:0:
256,192,42749,1,0,0:0:0:0:
402,192,42749,1,0,0:0:0:0:
36,192,42749,1,0,0:0:0:0:
182,192,42843,1,0,0:0:0:0:
329,192,42937,1,0,0:0:0:0:
36,192,42937,1,0,0:0:0:0:
109,192,42937,1,0,0:0:0:0:
256,192,43030,1,0,0:0:0:0:
182,192,43124,1,0,0:0:0:0:
402,192,43124,1,0,0:0:0:0:
475,192,43124,1,0,0:0:0:0:
109,192,43218,1,0,0:0:0:0:
36,192,43312,1,0,0:0:0:0:
329,192,43312,1,0,0:0:0:0:
402,192,43312,1,0,0:0:0:0:
475,192,43312,1,0,0:0:0:0:
256,192,43312,1,0,0:0:0:0:
182,192,43405,1,0,0:0:0:0:
109,192,43499,1,0,0:0:0:0:
329,192,43499,1,0,0:0:0:0:
402,192,43499,1,0,0:0:0:0:
36,192,43593,1,0,0:0:0:0:
256,192,43687,1,0,0:0:0:0:
475,192,43687,1,0,0:0:0:0:
109,192,43687,1,0,0:0:0:0:
182,192,43780,1,0,0:0:0:0:
329,192,43874,1,0,0:0:0:0:
402,192,43874,1,0,0:0:0:0:
109,192,43874,1,0,0:0:0:0:
182,192,43968,1,0,0:0:0:0:
475,192,44062,1,0,0:0:0:0:
256,192,44062,1,0,0:0:0:0:
36,192,44062,1,0,0:0:0:0:
182,192,44155,1,0,0:0:0:0:
402,192,44249,1,0,0:0:0:0:
329,192,44249,1,0,0:0:0:0:
109,192,44249,1,0,0:0:0:0:
256,192,44343,1,0,0:0:0:0:
182,192,44437,1,0,0:0:0:0:
109,192,44437,1,0,0:0:0:0:
36,192,44437,1,0,0:0:0:0:
475,192,44437,128,0,44999:0:0:0:0:
402,192,44437,1,0,0:0:0:0:
256,192,44530,1,0,0:0:0:0:
329,192,44624,1,0,0:0:0:0:
109,192,44624,1,0,0:0:0:0:
256,192,44718,1,0,0:0:0:0:
182,192,44812,1,0,0:0:0:0:
402,192,44812,1,0,0:0:0:0:
36,192,44812,1,0,0:0:0:0:
256,192,44905,1,0,0:0:0:0:
329,192,44999,1,0,0:0:0:0:
109,192,44999,1,0,0:0:0:0:
402,192,45093,1,0,0:0:0:0:
475,192,45187,1,0,0:0:0:0:
329,192,45187,1,0,0:0:0:0:
256,192,45187,1,0,0:0:0:0:
36,192,45187,1,0,0:0:0:0:
109,192,45280,1,0,0:0:0:0:
182,192,45374,1,0,0:0:0:0:
329,192,45374,1,0,0:0:0:0:
402,192,45374,1,0,0:0:0:0:
256,192,45468,1,0,0:0:0:0:
402,192,45562,1,0,0:0:0:0:
475,192,45562,1,0,0:0:0:0:
109,192,45562,1,0,0:0:0:0:
256,192,45655,1,0,0:0:0:0:
329,192,45749,1,0,0:0:0:0:
36,192,45749,1,0,0:0:0:0:
182,192,45749,1,0,0:0:0:0:
402,192,45843,1,0,0:0:0:0:
475,192,45937,1,0,0:0:0:0:
256,192,45937,1,0,0:0:0:0:
109,192,45937,1,0,0:0:0:0:
402,192,46030,1,0,0:0:0:0:
182,192,46124,1,0,0:0:0:0:
329,192,46124,1,0,0:0:0:0:
36,192,46124,1,0,0:0:0:0:
109,192,46218,1,0,0:0:0:0:
256,192,46312,1,0,0:0:0:0:
402,192,46312,1,0,0:0:0:0:
36,192,46312,1,0,0:0:0:0:
182,192,46405,1,0,0:0:0:0:
329,192,46499,1,0,0:0:0:0:
475,192,46499,1,0,0:0:0:0:
109,192,46499,1,0,0:0:0:0:
256,192,46593,1,0,0:0:0:0:
402,192,46593,1,0,0:0:0:0:
182,192,46687,1,0,0:0:0:0:
36,192,46687,1,0,0:0:0:0:
475,192,46687,1,0,0:0:0:0:
329,192,46687,1,0,0:0:0:0:
256,192,46780,1,0,0:0:0:0:
475,192,46874,1,0,0:0:0:0:
329,192,46874,1,0,0:0:0:0:
109,192,46874,1,0,0:0:0:0:
182,192,46968,1,0,0:0:0:0:
402,192,47062,1,0,0:0:0:0:
256,192,47062,1,0,0:0:0:0:
36,192,47062,1,0,0:0:0:0:
475,192,47062,1,0,0:0:0:0:
109,192,47155,1,0,0:0:0:0:
329,192,47249,1,0,0:0:0:0:
182,192,47249,1,0,0:0:0:0:
475,192,47249,1,0,0:0:0:0:
36,192,47343,1,0,0:0:0:0:
256,192,47437,1,0,0:0:0:0:
109,192,47437,1,0,0:0:0:0:
475,192,47437,128,0,47999:0:0:0:0:
402,192,47437,1,0,0:0:0:0:
329,192,47437,1,0,0:0:0:0:
182,192,47624,1,0,0:0:0:0:
36,192,47624,1,0,0:0:0:0:
329,192,47624,1,0,0:0:0:0:
402,192,47812,1,0,0:0:0:0:
256,192,47812,1,0,0:0:0:0:
109,192,47812,1,0,0:0:0:0:
329,192,47812,1,0,0:0:0:0:
182,192,47999,1,0,0:0:0:0:
36,192,47999,1,0,0:0:0:0:
256,192,47999,1,0,0:0:0:0:
402,192,47999,1,0,0:0:0:0:
329,192,48187,1,0,0:0:0:0:
402,192,48187,1,0,0:0:0:0:
475,192,48187,1,0,0:0:0:0:
109,192,48187,128,0,48937:0:0:0:0:
36,192,48187,128,0,48562:0:0:0:0:
402,192,48374,128,0,48468:0:0:0:0:
329,192,48374,128,0,48468:0:0:0:0:
182,192,48374,1,0,0:0:0:0:
256,192,48374,128,0,48468:0:0:0:0:
475,192,48562,1,0,0:0:0:0:
402,192,48562,1,0,0:0:0:0:
329,192,48562,1,0,0:0:0:0:
402,192,48749,128,0,48843:0:0:0:0:
182,192,48749,1,0,0:0:0:0:
329,192,48749,128,0,48843:0:0:0:0:
475,192,48749,128,0,48843:0:0:0:0:
256,192,48937,128,0,49687:0:0:0:0:
329,192,48937,1,0,0:0:0:0:
402,192,48937,1,0,0:0:0:0:
475,192,48937,1,0,0:0:0:0:
182,192,48937,128,0,49312:0:0:0:0:
109,192,49124,128,0,49218:0:0:0:0:
36,192,49124,128,0,49218:0:0:0:0:
475,192,49124,128,0,49499:0:0:0:0:
329,192,49124,128,0,49218:0:0:0:0:
109,192,49312,1,0,0:0:0:0:
36,192,49312,1,0,0:0:0:0:
329,192,49312,1,0,0:0:0:0:
329,192,49499,128,0,49593:0:0:0:0:
182,192,49499,128,0,49593:0:0:0:0:
109,192,49499,1,0,0:0:0:0:
36,192,49499,1,0,0:0:0:0:
402,192,49499,128,0,49593:0:0:0:0:
402,192,49687,128,0,50437:0:0:0:0:
475,192,49687,1,0,0:0:0:0:
329,192,49687,1,0,0:0:0:0:
109,192,49687,128,0,49874:0:0:0:0:
329,192,49874,1,0,0:0:0:0:
256,192,49874,1,0,0:0:0:0:
182,192,49874,1,0,0:0:0:0:
256,192,50062,128,0,50812:0:0:0:0:
182,192,50062,1,0,0:0:0:0:
109,192,50062,1,0,0:0:0:0:
36,192,50062,1,0,0:0:0:0:
109,192,50249,128,0,50437:0:0:0:0:
329,192,50249,1,0,0:0:0:0:
475,192,50249,1,0,0:0:0:0:
36,192,50437,128,0,51187:0:0:0:0:
329,192,50437,1,0,0:0:0:0:
182,192,50437,1,0,0:0:0:0:
329,192,50624,128,0,50718:0:0:0:0:
402,192,50624,128,0,50718:0:0:0:0:
475,192,50624,128,0,50718:0:0:0:0:
182,192,50812,128,0,51562:0:0:0:0:
329,192,50812,1,0,0:0:0:0:
402,192,50812,1,0,0:0:0:0:
475,192,50812,1,0,0:0:0:0:
402,192,50999,128,0,51093:0:0:0:0:
256,192,50999,128,0,51093:0:0:0:0:
109,192,50999,128,0,51093:0:0:0:0:
329,192,51187,128,0,51937:0:0:0:0:
256,192,51187,1,0,0:0:0:0:
402,192,51187,1,0,0:0:0:0:
109,192,51187,1,0,0:0:0:0:
36,192,51374,128,0,51468:0:0:0:0:
109,192,51374,128,0,51468:0:0:0:0:
256,192,51374,128,0,51468:0:0:0:0:
475,192,51374,128,0,51562:0:0:0:0:
256,192,51562,1,0,0:0:0:0:
109,192,51562,1,0,0:0:0:0:
36,192,51562,1,0,0:0:0:0:
402,192,51562,128,0,51749:0:0:0:0:
256,192,51749,128,0,51937:0:0:0:0:
109,192,51749,128,0,52124:0:0:0:0:
182,192,51749,1,0,0:0:0:0:
36,192,51749,1,0,0:0:0:0:
475,192,51937,128,0,52687:0:0:0:0:
182,192,51937,128,0,52030:0:0:0:0:
36,192,51937,128,0,52030:0:0:0:0:
182,192,52124,1,0,0:0:0:0:
36,192,52124,1,0,0:0:0:0:
329,192,52124,1,0,0:0:0:0:
182,192,52312,128,0,52405:0:0:0:0:
109,192,52312,128,0,52405:0:0:0:0:
256,192,52312,128,0,52405:0:0:0:0:
329,192,52312,128,0,52405:0:0:0:0:
402,192,52312,128,0,52687:0:0:0:0:
256,192,52499,1,0,0:0:0:0:
36,192,52499,1,0,0:0:0:0:
109,192,52499,1,0,0:0:0:0:
329,192,52687,1,0,0:0:0:0:
36,192,52687,1,0,0:0:0:0:
182,192,52687,128,0,52968:0:0:0:0:
109,192,52874,1,0,0:0:0:0:
402,192,52874,1,0,0:0:0:0:
256,192,52874,128,0,53155:0:0:0:0:
329,192,53062,128,0,53343:0:0:0:0:
182,192,53062,1,0,0:0:0:0:
475,192,53062,1,0,0:0:0:0:
36,192,53062,1,0,0:0:0:0:
36,192,53249,128,0,53530:0:0:0:0:
256,192,53249,1,0,0:0:0:0:
402,192,53249,1,0,0:0:0:0:
109,192,53249,1,0,0:0:0:0:
109,192,53437,128,0,54187:0:0:0:0:
182,192,53437,128,0,53530:0:0:0:0:
256,192,53437,128,0,53530:0:0:0:0:
329,192,53437,128,0,53530:0:0:0:0:
475,192,53624,1,0,0:0:0:0:
256,192,53624,1,0,0:0:0:0:
402,192,53718,1,0,0:0:0:0:
182,192,53718,1,0,0:0:0:0:
329,192,53812,1,0,0:0:0:0:
475,192,53812,1,0,0:0:0:0:
36,192,53812,1,0,0:0:0:0:
256,192,53905,1,0,0:0:0:0:
475,192,53999,1,0,0:0:0:0:
182,192,53999,1,0,0:0:0:0:
36,192,54093,1,0,0:0:0:0:
256,192,54093,128,0,54187:0:0:0:0:
475,192,54187,1,0,0:0:0:0:
402,192,54187,1,0,0:0:0:0:
329,192,54187,1,0,0:0:0:0:
182,192,54187,128,0,54937:0:0:0:0:
36,192,54374,1,0,0:0:0:0:
329,192,54374,1,0,0:0:0:0:
109,192,54374,128,0,54608:0:0:0:0:
256,192,54562,128,0,54608:0:0:0:0:
402,192,54562,128,0,54608:0:0:0:0:
475,192,54562,128,0,54608:0:0:0:0:
329,192,54749,1,0,0:0:0:0:
109,192,54749,1,0,0:0:0:0:
475,192,54749,1,0,0:0:0:0:
329,192,54937,128,0,55687:0:0:0:0:
256,192,54937,1,0,0:0:0:0:
109,192,54937,1,0,0:0:0:0:
36,192,54937,1,0,0:0:0:0:
402,192,54937,1,0,0:0:0:0:
109,192,55124,128,0,55358:0:0:0:0:
256,192,55124,1,0,0:0:0:0:
475,192,55124,1,0,0:0:0:0:
36,192,55124,1,0,0:0:0:0:
475,192,55312,128,0,55358:0:0:0:0:
402,192,55312,128,0,55358:0:0:0:0:
256,192,55312,128,0,55358:0:0:0:0:
182,192,55499,1,0,0:0:0:0:
36,192,55499,1,0,0:0:0:0:
475,192,55499,1,0,0:0:0:0:
402,192,55687,128,0,56437:0:0:0:0:
256,192,55687,1,0,0:0:0:0:
182,192,55687,1,0,0:0:0:0:
109,192,55687,1,0,0:0:0:0:
36,192,55687,1,0,0:0:0:0:
36,192,55874,128,0,56108:0:0:0:0:
182,192,55874,1,0,0:0:0:0:
329,192,55874,1,0,0:0:0:0:
475,192,55874,1,0,0:0:0:0:
109,192,56062,128,0,56108:0:0:0:0:
256,192,56062,128,0,56108:0:0:0:0:
182,192,56062,128,0,56108:0:0:0:0:
182,192,56249,1,0,0:0:0:0:
36,192,56249,1,0,0:0:0:0:
475,192,56249,1,0,0:0:0:0:
329,192,56437,128,0,57187:0:0:0:0:
109,192,56437,1,0,0:0:0:0:
182,192,56437,1,0,0:0:0:0:
256,192,56437,1,0,0:0:0:0:
475,192,56437,1,0,0:0:0:0:
36,192,56624,128,0,56858:0:0:0:0:
182,192,56624,1,0,0:0:0:0:
402,192,56624,1,0,0:0:0:0:
475,192,56624,1,0,0:0:0:0:
109,192,56812,128,0,56858:0:0:0:0:
182,192,56812,128,0,56858:0:0:0:0:
475,192,56812,1,0,0:0:0:0:
402,192,56858,1,0,0:0:0:0:
256,192,56905,1,0,0:0:0:0:
182,192,56952,1,0,0:0:0:0:
109,192,56999,1,0,0:0:0:0:
36,192,57046,1,0,0:0:0:0:
475,192,57093,1,0,0:0:0:0:
402,192,57093,1,0,0:0:0:0:
256,192,57140,1,0,0:0:0:0:
109,192,57187,1,0,0:0:0:0:
36,192,57187,1,0,0:0:0:0:
182,192,57187,128,0,57468:0:0:0:0:
329,192,57374,128,0,57421:0:0:0:0:
402,192,57374,128,0,57421:0:0:0:0:
36,192,57374,128,0,57421:0:0:0:0:
475,192,57374,128,0,57562:0:0:0:0:
109,192,57562,1,0,0:0:0:0:
256,192,57562,1,0,0:0:0:0:
402,192,57562,1,0,0:0:0:0:
329,192,57562,128,0,57843:0:0:0:0:
36,192,57562,128,0,58312:0:0:0:0:
402,192,57749,128,0,57796:0:0:0:0:
475,192,57749,128,0,57796:0:0:0:0:
182,192,57749,128,0,57796:0:0:0:0:
256,192,57749,128,0,57937:0:0:0:0:
329,192,57937,1,0,0:0:0:0:
475,192,57937,1,0,0:0:0:0:
182,192,57937,1,0,0:0:0:0:
402,192,57937,128,0,58218:0:0:0:0:
329,192,58124,128,0,58171:0:0:0:0:
256,192,58124,128,0,58171:0:0:0:0:
109,192,58124,128,0,58171:0:0:0:0:
182,192,58124,128,0,58312:0:0:0:0:
402,192,58312,1,0,0:0:0:0:
256,192,58312,1,0,0:0:0:0:
109,192,58312,1,0,0:0:0:0:
329,192,58312,128,0,58593:0:0:0:0:
402,192,58499,128,0,58546:0:0:0:0:
475,192,58499,128,0,58546:0:0:0:0:
109,192,58499,128,0,58687:0:0:0:0:
36,192,58499,128,0,58546:0:0:0:0:
329,192,58687,1,0,0:0:0:0:
182,192,58687,1,0,0:0:0:0:
36,192,58687,1,0,0:0:0:0:
256,192,58687,128,0,58921:0:0:0:0:
475,192,58687,128,0,59437:0:0:0:0:
402,192,58687,128,0,58874:0:0:0:0:
329,192,58874,128,0,59062:0:0:0:0:
182,192,58874,128,0,58921:0:0:0:0:
109,192,58874,128,0,58921:0:0:0:0:
36,192,58874,128,0,58921:0:0:0:0:
256,192,59062,128,0,59249:0:0:0:0:
109,192,59062,1,0,0:0:0:0:
36,192,59062,1,0,0:0:0:0:
402,192,59062,1,0,0:0:0:0:
182,192,59249,128,0,59437:0:0:0:0:
402,192,59249,128,0,59296:0:0:0:0:
329,192,59249,128,0,59296:0:0:0:0:
36,192,59249,128,0,59296:0:0:0:0:
109,192,59437,128,0,60187:0:0:0:0:
402,192,59437,1,0,0:0:0:0:
329,192,59437,1,0,0:0:0:0:
256,192,59437,1,0,0:0:0:0:
182,192,59624,128,0,59671:0:0:0:0:
256,192,59624,128,0,59671:0:0:0:0:
402,192,59624,128,0,59671:0:0:0:0:
256,192,59812,128,0,60562:0:0:0:0:
475,192,59812,1,0,0:0:0:0:
402,192,59812,1,0,0:0:0:0:
329,192,59812,1,0,0:0:0:0:
36,192,59812,1,0,0:0:0:0:
402,192,60187,128,0,60937:0:0:0:0:
182,192,60187,1,0,0:0:0:0:
36,192,60187,1,0,0:0:0:0:
329,192,60187,1,0,0:0:0:0:
109,192,60374,1,0,0:0:0:0:
36,192,60562,128,0,61312:0:0:0:0:
182,192,60562,1,0,0:0:0:0:
329,192,60562,1,0,0:0:0:0:
475,192,60562,1,0,0:0:0:0:
256,192,60749,1,0,0:0:0:0:
109,192,60749,1,0,0:0:0:0:
182,192,60937,128,0,61687:0:0:0:0:
329,192,60937,1,0,0:0:0:0:
475,192,60937,1,0,0:0:0:0:
109,192,60937,1,0,0:0:0:0:
402,192,61124,1,0,0:0:0:0:
256,192,61124,1,0,0:0:0:0:
329,192,61312,128,0,62062:0:0:0:0:
109,192,61312,1,0,0:0:0:0:
475,192,61312,1,0,0:0:0:0:
402,192,61312,1,0,0:0:0:0:
402,192,61499,1,0,0:0:0:0:
256,192,61499,1,0,0:0:0:0:
109,192,61687,1,0,0:0:0:0:
36,192,61687,1,0,0:0:0:0:
475,192,61687,1,0,0:0:0:0:
182,192,61874,1,0,0:0:0:0:
402,192,61874,1,0,0:0:0:0:
109,192,62062,1,0,0:0:0:0:
36,192,62062,1,0,0:0:0:0:
256,192,62062,1,0,0:0:0:0:
475,192,62062,1,0,0:0:0:0:
402,192,62249,1,0,0:0:0:0:
182,192,62249,1,0,0:0:0:0:
329,192,62437,1,0,0:0:0:0:
109,192,62437,1,0,0:0:0:0:
475,192,62437,1,0,0:0:0:0:
36,192,62437,128,0,62812:0:0:0:0:
182,192,62624,1,0,0:0:0:0:
402,192,62624,1,0,0:0:0:0:
256,192,62812,128,0,62999:0:0:0:0:
329,192,62812,1,0,0:0:0:0:
475,192,62812,1,0,0:0:0:0:
109,192,62812,1,0,0:0:0:0:
402,192,62999,128,0,63187:0:0:0:0:
36,192,62999,1,0,0:0:0:0:
182,192,62999,1,0,0:0:0:0:
36,192,63187,128,0,63468:0:0:0:0:
182,192,63187,1,0,0:0:0:0:
256,192,63187,1,0,0:0:0:0:
329,192,63187,1,0,0:0:0:0:
475,192,63187,1,0,0:0:0:0:
109,192,63374,1,0,0:0:0:0:
182,192,63421,1,0,0:0:0:0:
256,192,63468,1,0,0:0:0:0:
329,192,63515,1,0,0:0:0:0:
402,192,63562,1,0,0:0:0:0:
475,192,63562,1,0,0:0:0:0:
36,192,63562,1,0,0:0:0:0:
109,192,63562,1,0,0:0:0:0:
475,192,63937,1,0,0:0:0:0:
182,192,63937,1,0,0:0:0:0:
402,192,64030,1,0,0:0:0:0:
109,192,64030,1,0,0:0:0:0:
475,192,64124,1,0,0:0:0:0:
182,192,64124,1,0,0:0:0:0:
256,192,64124,1,0,0:0:0:0:
402,192,64218,1,0,0:0:0:0:
109,192,64218,1,0,0:0:0:0:
475,192,64312,1,0,0:0:0:0:
182,192,64312,1,0,0:0:0:0:
256,192,64312,1,0,0:0:0:0:
36,192,64312,1,0,0:0:0:0:
329,192,64499,1,0,0:0:0:0:
475,192,64687,1,0,0:0:0:0:
402,192,64687,1,0,0:0:0:0:
329,192,64687,1,0,0:0:0:0:
182,192,64687,1,0,0:0:0:0:
109,192,64687,1,0,0:0:0:0:
475,192,64874,1,0,0:0:0:0:
402,192,64921,1,0,0:0:0:0:
329,192,64968,1,0,0:0:0:0:
256,192,65015,1,0,0:0:0:0:
182,192,65062,1,0,0:0:0:0:
109,192,65062,1,0,0:0:0:0:
36,192,65062,1,0,0:0:0:0:
329,192,65249,1,0,0:0:0:0:
256,192,65249,1,0,0:0:0:0:
182,192,65249,1,0,0:0:0:0:
109,192,65249,1,0,0:0:0:0:
475,192,65249,1,0,0:0:0:0:
329,192,65437,1,0,0:0:0:0:
475,192,65437,1,0,0:0:0:0:
402,192,65624,1,0,0:0:0:0:
256,192,65624,1,0,0:0:0:0:
182,192,65624,128,0,65718:0:0:0:0:
109,192,65624,128,0,65718:0:0:0:0:
329,192,65812,1,0,0:0:0:0:
36,192,65812,1,0,0:0:0:0:
329,192,65999,128,0,66562:0:0:0:0:
402,192,65999,128,0,66562:0:0:0:0:
182,192,65999,1,0,0:0:0:0:
109,192,65999,1,0,0:0:0:0:
256,192,66187,1,0,0:0:0:0:
36,192,66187,1,0,0:0:0:0:
182,192,66374,1,0,0:0:0:0:
109,192,66374,1,0,0:0:0:0:
256,192,66562,1,0,0:0:0:0:
36,192,66562,1,0,0:0:0:0:
475,192,66562,1,0,0:0:0:0:
182,192,66749,128,0,66843:0:0:0:0:
109,192,66749,128,0,66843:0:0:0:0:
402,192,66749,1,0,0:0:0:0:
329,192,66749,1,0,0:0:0:0:
256,192,66937,1,0,0:0:0:0:
475,192,66937,1,0,0:0:0:0:
36,192,66937,1,0,0:0:0:0:
182,192,67124,128,0,67218:0:0:0:0:
109,192,67124,128,0,67218:0:0:0:0:
329,192,67124,1,0,0:0:0:0:
256,192,67312,128,0,67405:0:0:0:0:
329,192,67312,128,0,67405:0:0:0:0:
109,192,67312,1,0,0:0:0:0:
36,192,67312,1,0,0:0:0:0:
182,192,67405,1,0,0:0:0:0:
402,192,67499,128,0,67593:0:0:0:0:
475,192,67499,128,0,67593:0:0:0:0:
256,192,67499,1,0,0:0:0:0:
329,192,67499,1,0,0:0:0:0:
182,192,67546,1,0,0:0:0:0:
109,192,67593,1,0,0:0:0:0:
36,192,67640,1,0,0:0:0:0:
475,192,67687,1,0,0:0:0:0:
402,192,67733,1,0,0:0:0:0:
329,192,67780,1,0,0:0:0:0:
256,192,67827,1,0,0:0:0:0:
182,192,67827,1,0,0:0:0:0:
475,192,67874,1,0,0:0:0:0:
109,192,67874,1,0,0:0:0:0:
402,192,67921,1,0,0:0:0:0:
36,192,67921,1,0,0:0:0:0:
329,192,67968,1,0,0:0:0:0:
256,192,68015,1,0,0:0:0:0:
182,192,68062,1,0,0:0:0:0:
109,192,68062,1,0,0:0:0:0:
475,192,68062,1,0,0:0:0:0:
36,192,68108,1,0,0:0:0:0:
402,192,68108,1,0,0:0:0:0:
329,192,68155,1,0,0:0:0:0:
256,192,68202,1,0,0:0:0:0:
182,192,68249,1,0,0:0:0:0:
109,192,68296,1,0,0:0:0:0:
36,192,68296,1,0,0:0:0:0:
475,192,68343,1,0,0:0:0:0:
402,192,68390,1,0,0:0:0:0:
329,192,68390,1,0,0:0:0:0:
256,192,68437,1,0,0:0:0:0:
182,192,68483,1,0,0:0:0:0:
109,192,68483,1,0,0:0:0:0:
36,192,68483,1,0,0:0:0:0:
475,192,68530,1,0,0:0:0:0:
402,192,68577,1,0,0:0:0:0:
329,192,68624,1,0,0:0:0:0:
256,192,68671,1,0,0:0:0:0:
182,192,68671,1,0,0:0:0:0:
109,192,68671,1,0,0:0:0:0:
36,192,68718,1,0,0:0:0:0:
182,192,68812,128,0,68905:0:0:0:0:
256,192,68812,128,0,68905:0:0:0:0:
329,192,68812,128,0,68905:0:0:0:0:
475,192,68812,128,0,68999:0:0:0:0:
109,192,68812,128,0,68999:0:0:0:0:
256,192,68999,1,0,0:0:0:0:
182,192,68999,1,0,0:0:0:0:
402,192,68999,128,0,69187:0:0:0:0:
36,192,68999,1,0,0:0:0:0:
329,192,68999,1,0,0:0:0:0:
109,192,69187,1,0,0:0:0:0:
36,192,69187,1,0,0:0:0:0:
256,192,69187,1,0,0:0:0:0:
329,192,69187,1,0,0:0:0:0:
475,192,69187,1,0,0:0:0:0:
256,192,69562,128,0,69937:0:0:0:0:
475,192,69937,1,0,0:0:0:0:
36,192,69937,128,0,70499:0:0:0:0:
182,192,69937,1,0,0:0:0:0:
109,192,69937,1,0,0:0:0:0:
329,192,69937,128,0,70124:0:0:0:0:
402,192,70124,1,0,0:0:0:0:
475,192,70124,1,0,0:0:0:0:
256,192,70124,128,0,70312:0:0:0:0:
329,192,70312,1,0,0:0:0:0:
475,192,70312,1,0,0:0:0:0:
182,192,70312,128,0,70499:0:0:0:0:
256,192,70405,1,0,0:0:0:0:
402,192,70499,1,0,0:0:0:0:
109,192,70499,1,0,0:0:0:0:
475,192,70499,1,0,0:0:0:0:
475,192,70687,128,0,70921:0:0:0:0:
402,192,70687,128,0,70921:0:0:0:0:
36,192,70687,128,0,70780:0:0:0:0:
182,192,70687,128,0,70780:0:0:0:0:
329,192,70687,128,0,70780:0:0:0:0:
109,192,70780,128,0,70874:0:0:0:0:
182,192,70874,128,0,70968:0:0:0:0:
256,192,70874,128,0,70968:0:0:0:0:
329,192,70874,128,0,70921:0:0:0:0:
36,192,71062,128,0,71296:0:0:0:0:
109,192,71062,128,0,71296:0:0:0:0:
475,192,71062,128,0,71155:0:0:0:0:
182,192,71062,128,0,71155:0:0:0:0:
329,192,71062,128,0,71155:0:0:0:0:
402,192,71155,128,0,71249:0:0:0:0:
329,192,71249,128,0,71343:0:0:0:0:
182,192,71249,128,0,71296:0:0:0:0:
256,192,71249,128,0,71343:0:0:0:0:
36,192,71437,128,0,71530:0:0:0:0:
329,192,71437,128,0,71530:0:0:0:0:
256,192,71437,128,0,71624:0:0:0:0:
109,192,71530,128,0,71624:0:0:0:0:
402,192,71530,128,0,71624:0:0:0:0:
182,192,71624,128,0,71718:0:0:0:0:
475,192,71624,128,0,71718:0:0:0:0:
256,192,71718,128,0,71812:0:0:0:0:
329,192,71812,128,0,72093:0:0:0:0:
402,192,71812,128,0,71905:0:0:0:0:
36,192,71812,128,0,71905:0:0:0:0:
109,192,71812,128,0,71905:0:0:0:0:
182,192,71812,128,0,72093:0:0:0:0:
109,192,71999,128,0,72093:0:0:0:0:
402,192,71999,128,0,72093:0:0:0:0:
475,192,71999,128,0,72093:0:0:0:0:
329,192,72187,128,0,72280:0:0:0:0:
475,192,72187,128,0,72280:0:0:0:0:
109,192,72187,128,0,72421:0:0:0:0:
36,192,72187,128,0,72421:0:0:0:0:
182,192,72187,128,0,72280:0:0:0:0:
402,192,72280,128,0,72374:0:0:0:0:
256,192,72374,128,0,72468:0:0:0:0:
329,192,72374,128,0,72468:0:0:0:0:
182,192,72374,128,0,72421:0:0:0:0:
182,192,72562,128,0,72655:0:0:0:0:
402,192,72562,128,0,72796:0:0:0:0:
475,192,72562,128,0,72796:0:0:0:0:
329,192,72562,128,0,72655:0:0:0:0:
36,192,72562,128,0,72655:0:0:0:0:
109,192,72655,128,0,72749:0:0:0:0:
182,192,72749,128,0,72843:0:0:0:0:
256,192,72749,128,0,72843:0:0:0:0:
329,192,72749,128,0,72796:0:0:0:0:
256,192,72937,128,0,73124:0:0:0:0:
182,192,72937,128,0,73030:0:0:0:0:
475,192,72937,128,0,73030:0:0:0:0:
402,192,73030,128,0,73124:0:0:0:0:
109,192,73030,128,0,73124:0:0:0:0:
36,192,73124,128,0,73218:0:0:0:0:
329,192,73124,128,0,73218:0:0:0:0:
256,192,73218,128,0,73312:0:0:0:0:
109,192,73312,128,0,73405:0:0:0:0:
182,192,73312,128,0,73593:0:0:0:0:
475,192,73312,128,0,73405:0:0:0:0:
329,192,73312,128,0,73593:0:0:0:0:
402,192,73312,128,0,73405:0:0:0:0:
109,192,73499,128,0,73593:0:0:0:0:
36,192,73499,128,0,73593:0:0:0:0:
402,192,73499,128,0,73593:0:0:0:0:
36,192,73687,128,0,73921:0:0:0:0:
475,192,73687,128,0,74296:0:0:0:0:
256,192,73687,128,0,73921:0:0:0:0:
182,192,73874,128,0,73921:0:0:0:0:
109,192,73874,128,0,73921:0:0:0:0:
402,192,73874,128,0,74108:0:0:0:0:
329,192,74062,128,0,74108:0:0:0:0:
256,192,74062,128,0,74108:0:0:0:0:
109,192,74062,128,0,74296:0:0:0:0:
36,192,74062,128,0,74671:0:0:0:0:
182,192,74249,128,0,74296:0:0:0:0:
256,192,74249,128,0,74296:0:0:0:0:
329,192,74249,128,0,74483:0:0:0:0:
402,192,74437,128,0,74483:0:0:0:0:
475,192,74437,128,0,74483:0:0:0:0:
256,192,74437,128,0,74671:0:0:0:0:
182,192,74437,128,0,75046:0:0:0:0:
329,192,74624,128,0,74671:0:0:0:0:
402,192,74624,128,0,74671:0:0:0:0:
109,192,74624,128,0,74858:0:0:0:0:
36,192,74812,128,0,74858:0:0:0:0:
256,192,74812,128,0,74858:0:0:0:0:
475,192,74812,128,0,75046:0:0:0:0:
329,192,74812,128,0,75421:0:0:0:0:
402,192,74999,128,0,75046:0:0:0:0:
109,192,74999,128,0,75046:0:0:0:0:
256,192,74999,128,0,75233:0:0:0:0:
36,192,74999,128,0,75421:0:0:0:0:
475,192,75187,128,0,75843:0:0:0:0:
182,192,75187,128,0,75233:0:0:0:0:
402,192,75187,128,0,75233:0:0:0:0:
402,192,75374,128,0,75749:0:0:0:0:
256,192,75374,128,0,75421:0:0:0:0:
109,192,75374,128,0,75421:0:0:0:0:
182,192,75374,128,0,75655:0:0:0:0:
329,192,75562,128,0,75655:0:0:0:0:
256,192,75562,128,0,75749:0:0:0:0:
36,192,75562,128,0,76030:0:0:0:0:
109,192,75655,128,0,75937:0:0:0:0:
182,192,75749,128,0,75843:0:0:0:0:
329,192,75749,128,0,76124:0:0:0:0:
402,192,75843,128,0,76218:0:0:0:0:
256,192,75843,128,0,76030:0:0:0:0:
475,192,75937,128,0,76218:0:0:0:0:
182,192,75937,128,0,76218:0:0:0:0:
109,192,76030,128,0,76218:0:0:0:0:
36,192,76124,128,0,76358:0:0:0:0:
256,192,76124,128,0,76358:0:0:0:0:
329,192,76218,128,0,76358:0:0:0:0:
402,192,76312,128,0,76358:0:0:0:0:
182,192,76312,128,0,76358:0:0:0:0:
109,192,76312,128,0,76358:0:0:0:0:
475,192,76312,128,0,76358:0:0:0:0:
329,192,76499,128,0,76546:0:0:0:0:
256,192,76499,128,0,76546:0:0:0:0:
109,192,76499,128,0,76546:0:0:0:0:
36,192,76499,128,0,76546:0:0:0:0:
402,192,76499,128,0,76546:0:0:0:0:
36,192,76687,128,0,76921:0:0:0:0:
329,192,76687,128,0,76780:0:0:0:0:
182,192,76687,128,0,76780:0:0:0:0:
109,192,76687,128,0,76921:0:0:0:0:
475,192,76687,128,0,76780:0:0:0:0:
402,192,76780,128,0,76874:0:0:0:0:
256,192,76874,128,0,76968:0:0:0:0:
329,192,76874,128,0,76968:0:0:0:0:
182,192,76874,128,0,76921:0:0:0:0:
182,192,77062,128,0,77155:0:0:0:0:
402,192,77062,128,0,77296:0:0:0:0:
329,192,77062,128,0,77155:0:0:0:0:
475,192,77062,128,0,77296:0:0:0:0:
36,192,77062,128,0,77155:0:0:0:0:
109,192,77155,128,0,77249:0:0:0:0:
256,192,77249,128,0,77343:0:0:0:0:
182,192,77249,128,0,77343:0:0:0:0:
329,192,77249,128,0,77296:0:0:0:0:
256,192,77437,128,0,77624:0:0:0:0:
182,192,77437,128,0,77530:0:0:0:0:
475,192,77437,128,0,77530:0:0:0:0:
402,192,77530,128,0,77624:0:0:0:0:
109,192,77530,128,0,77624:0:0:0:0:
329,192,77624,128,0,77718:0:0:0:0:
36,192,77624,128,0,77718:0:0:0:0:
256,192,77718,128,0,77812:0:0:0:0:
402,192,77812,128,0,77905:0:0:0:0:
182,192,77812,128,0,78093:0:0:0:0:
109,192,77812,128,0,77905:0:0:0:0:
475,192,77812,128,0,77905:0:0:0:0:
329,192,77812,128,0,78093:0:0:0:0:
402,192,77999,128,0,78093:0:0:0:0:
36,192,77999,128,0,78093:0:0:0:0:
109,192,77999,128,0,78093:0:0:0:0:
402,192,78187,128,0,78421:0:0:0:0:
475,192,78187,128,0,78421:0:0:0:0:
36,192,78187,128,0,78280:0:0:0:0:
329,192,78187,128,0,78280:0:0:0:0:
182,192,78187,128,0,78280:0:0:0:0:
109,192,78187,128,0,78280:0:0:0:0:
256,192,78374,128,0,78468:0:0:0:0:
182,192,78374,128,0,78468:0:0:0:0:
329,192,78374,128,0,78421:0:0:0:0:
329,192,78562,128,0,78655:0:0:0:0:
109,192,78562,128,0,78796:0:0:0:0:
36,192,78562,128,0,78796:0:0:0:0:
182,192,78562,128,0,78655:0:0:0:0:
475,192,78562,128,0,78655:0:0:0:0:
402,192,78655,128,0,78749:0:0:0:0:
182,192,78749,128,0,78796:0:0:0:0:
329,192,78749,128,0,78843:0:0:0:0:
256,192,78749,128,0,78843:0:0:0:0:
256,192,78937,128,0,79124:0:0:0:0:
329,192,78937,128,0,79030:0:0:0:0:
36,192,78937,128,0,79030:0:0:0:0:
109,192,79030,128,0,79124:0:0:0:0:
402,192,79030,128,0,79124:0:0:0:0:
475,192,79124,128,0,79218:0:0:0:0:
182,192,79124,128,0,79218:0:0:0:0:
256,192,79218,128,0,79312:0:0:0:0:
182,192,79312,128,0,79593:0:0:0:0:
36,192,79312,128,0,79405:0:0:0:0:
109,192,79312,128,0,79405:0:0:0:0:
402,192,79312,128,0,79405:0:0:0:0:
329,192,79312,128,0,79593:0:0:0:0:
402,192,79499,128,0,79593:0:0:0:0:
475,192,79499,128,0,79593:0:0:0:0:
109,192,79499,128,0,79593:0:0:0:0:
256,192,79687,128,0,79921:0:0:0:0:
36,192,79687,128,0,80296:0:0:0:0:
475,192,79687,128,0,79921:0:0:0:0:
329,192,79874,128,0,79921:0:0:0:0:
402,192,79874,128,0,79921:0:0:0:0:
109,192,79874,128,0,80108:0:0:0:0:
256,192,80062,128,0,80108:0:0:0:0:
182,192,80062,128,0,80108:0:0:0:0:
402,192,80062,128,0,80296:0:0:0:0:
475,192,80062,128,0,80671:0:0:0:0:
329,192,80249,128,0,80296:0:0:0:0:
256,192,80249,128,0,80296:0:0:0:0:
182,192,80249,128,0,80483:0:0:0:0:
36,192,80437,128,0,80483:0:0:0:0:
109,192,80437,128,0,80483:0:0:0:0:
256,192,80437,128,0,80671:0:0:0:0:
329,192,80437,128,0,81046:0:0:0:0:
109,192,80624,128,0,80671:0:0:0:0:
402,192,80624,128,0,80858:0:0:0:0:
182,192,80624,128,0,80671:0:0:0:0:
182,192,80812,128,0,81421:0:0:0:0:
256,192,80812,128,0,80858:0:0:0:0:
36,192,80812,128,0,81046:0:0:0:0:
475,192,80812,128,0,80858:0:0:0:0:
109,192,80999,128,0,81046:0:0:0:0:
402,192,80999,128,0,81046:0:0:0:0:
256,192,80999,128,0,81233:0:0:0:0:
475,192,80999,128,0,81421:0:0:0:0:
329,192,81187,128,0,81233:0:0:0:0:
36,192,81187,128,0,81843:0:0:0:0:
109,192,81187,128,0,81233:0:0:0:0:
402,192,81374,128,0,81421:0:0:0:0:
329,192,81374,128,0,81655:0:0:0:0:
109,192,81374,128,0,81749:0:0:0:0:
256,192,81374,128,0,81421:0:0:0:0:
256,192,81562,128,0,81749:0:0:0:0:
475,192,81562,128,0,82030:0:0:0:0:
182,192,81562,128,0,81655:0:0:0:0:
402,192,81655,128,0,81937:0:0:0:0:
182,192,81749,128,0,82124:0:0:0:0:
329,192,81749,128,0,81843:0:0:0:0:
256,192,81843,128,0,82030:0:0:0:0:
109,192,81843,128,0,82218:0:0:0:0:
329,192,81937,128,0,82218:0:0:0:0:
36,192,81937,128,0,82218:0:0:0:0:
402,192,82030,128,0,82218:0:0:0:0:
475,192,82124,128,0,82358:0:0:0:0:
256,192,82124,1,0,0:0:0:0:
182,192,82218,1,0,0:0:0:0:
402,192,82312,128,0,82358:0:0:0:0:
329,192,82312,128,0,82358:0:0:0:0:
109,192,82312,1,0,0:0:0:0:
36,192,82312,1,0,0:0:0:0:
256,192,82405,1,0,0:0:0:0:
36,192,82499,1,0,0:0:0:0:
109,192,82499,1,0,0:0:0:0:
475,192,82499,128,0,82546:0:0:0:0:
402,192,82499,128,0,82546:0:0:0:0:
329,192,82499,128,0,82546:0:0:0:0:
182,192,82593,1,0,0:0:0:0:
256,192,82687,1,0,0:0:0:0:
329,192,82687,1,0,0:0:0:0:
402,192,82687,1,0,0:0:0:0:
475,192,82687,1,0,0:0:0:0:
182,192,82874,128,0,82921:0:0:0:0:
402,192,82874,1,0,0:0:0:0:
329,192,82874,1,0,0:0:0:0:
36,192,82874,1,0,0:0:0:0:
329,192,83062,128,0,83108:0:0:0:0:
36,192,83062,1,0,0:0:0:0:
109,192,83062,1,0,0:0:0:0:
475,192,83062,1,0,0:0:0:0:
402,192,83249,128,0,83296:0:0:0:0:
256,192,83249,1,0,0:0:0:0:
182,192,83249,1,0,0:0:0:0:
109,192,83343,1,0,0:0:0:0:
475,192,83437,128,0,83483:0:0:0:0:
36,192,83437,1,0,0:0:0:0:
256,192,83437,1,0,0:0:0:0:
329,192,83437,1,0,0:0:0:0:
256,192,83624,128,0,83671:0:0:0:0:
402,192,83624,1,0,0:0:0:0:
475,192,83624,1,0,0:0:0:0:
109,192,83624,1,0,0:0:0:0:
36,192,83624,1,0,0:0:0:0:
182,192,83812,128,0,83858:0:0:0:0:
329,192,83812,1,0,0:0:0:0:
402,192,83812,1,0,0:0:0:0:
109,192,83999,128,0,84046:0:0:0:0:
475,192,83999,1,0,0:0:0:0:
256,192,83999,1,0,0:0:0:0:
36,192,83999,1,0,0:0:0:0:
329,192,84187,1,0,0:0:0:0:
475,192,84187,1,0,0:0:0:0:
256,192,84187,128,0,84280:0:0:0:0:
36,192,84187,128,0,84374:0:0:0:0:
109,192,84187,128,0,84280:0:0:0:0:
182,192,84374,128,0,85030:0:0:0:0:
402,192,84374,128,0,84562:0:0:0:0:
475,192,84374,128,0,84655:0:0:0:0:
329,192,84374,128,0,84468:0:0:0:0:
109,192,84468,128,0,84937:0:0:0:0:
256,192,84562,128,0,85124:0:0:0:0:
36,192,84562,128,0,84843:0:0:0:0:
329,192,84655,128,0,85405:0:0:0:0:
402,192,84749,128,0,85312:0:0:0:0:
475,192,84843,128,0,85218:0:0:0:0:
36,192,84937,128,0,85687:0:0:0:0:
109,192,85030,128,0,85312:0:0:0:0:
182,192,85124,128,0,85218:0:0:0:0:
256,192,85218,128,0,85405:0:0:0:0:
182,192,85312,128,0,85499:0:0:0:0:
475,192,85312,128,0,85593:0:0:0:0:
109,192,85405,128,0,85593:0:0:0:0:
402,192,85405,128,0,85499:0:0:0:0:
329,192,85499,128,0,85780:0:0:0:0:
402,192,85593,128,0,85874:0:0:0:0:
256,192,85593,128,0,85687:0:0:0:0:
475,192,85687,128,0,85968:0:0:0:0:
182,192,85687,1,0,0:0:0:0:
109,192,85687,1,0,0:0:0:0:
36,192,85874,1,0,0:0:0:0:
182,192,85874,128,0,85921:0:0:0:0:
329,192,85874,1,0,0:0:0:0:
36,192,86062,1,0,0:0:0:0:
109,192,86062,1,0,0:0:0:0:
329,192,86062,128,0,86108:0:0:0:0:
475,192,86062,1,0,0:0:0:0:
256,192,86249,1,0,0:0:0:0:
402,192,86249,128,0,86296:0:0:0:0:
182,192,86249,1,0,0:0:0:0:
109,192,86343,1,0,0:0:0:0:
256,192,86437,1,0,0:0:0:0:
36,192,86437,1,0,0:0:0:0:
475,192,86437,128,0,86483:0:0:0:0:
329,192,86437,1,0,0:0:0:0:
36,192,86624,1,0,0:0:0:0:
402,192,86624,1,0,0:0:0:0:
109,192,86624,1,0,0:0:0:0:
256,192,86624,128,0,86671:0:0:0:0:
475,192,86624,1,0,0:0:0:0:
329,192,86812,1,0,0:0:0:0:
182,192,86812,128,0,86858:0:0:0:0:
402,192,86812,1,0,0:0:0:0:
36,192,86999,1,0,0:0:0:0:
475,192,86999,1,0,0:0:0:0:
109,192,86999,128,0,87046:0:0:0:0:
256,192,86999,1,0,0:0:0:0:
109,192,87187,1,0,0:0:0:0:
36,192,87187,1,0,0:0:0:0:
329,192,87187,1,0,0:0:0:0:
475,192,87187,128,0,87233:0:0:0:0:
256,192,87374,1,0,0:0:0:0:
402,192,87374,1,0,0:0:0:0:
182,192,87374,128,0,87421:0:0:0:0:
329,192,87562,1,0,0:0:0:0:
109,192,87562,1,0,0:0:0:0:
36,192,87562,1,0,0:0:0:0:
475,192,87562,128,0,87608:0:0:0:0:
256,192,87749,1,0,0:0:0:0:
182,192,87749,128,0,87796:0:0:0:0:
402,192,87749,1,0,0:0:0:0:
182,192,87937,1,0,0:0:0:0:
36,192,87937,1,0,0:0:0:0:
475,192,87937,1,0,0:0:0:0:
329,192,87937,128,0,87983:0:0:0:0:
402,192,87937,1,0,0:0:0:0:
256,192,88124,1,0,0:0:0:0:
329,192,88218,1,0,0:0:0:0:
402,192,88312,1,0,0:0:0:0:
182,192,88312,1,0,0:0:0:0:
36,192,88312,1,0,0:0:0:0:
109,192,88312,1,0,0:0:0:0:
475,192,88312,128,0,88358:0:0:0:0:
256,192,88405,1,0,0:0:0:0:
329,192,88499,1,0,0:0:0:0:
402,192,88499,1,0,0:0:0:0:
109,192,88499,1,0,0:0:0:0:
329,192,88687,128,0,88780:0:0:0:0:
402,192,88687,128,0,88780:0:0:0:0:
475,192,88687,128,0,88968:0:0:0:0:
256,192,88687,128,0,88968:0:0:0:0:
182,192,88687,1,0,0:0:0:0:
36,192,88687,1,0,0:0:0:0:
329,192,88874,128,0,88968:0:0:0:0:
402,192,88874,128,0,88968:0:0:0:0:
109,192,88874,1,0,0:0:0:0:
109,192,89062,128,0,89437:0:0:0:0:
36,192,89062,128,0,89437:0:0:0:0:
182,192,89062,1,0,0:0:0:0:
256,192,89062,1,0,0:0:0:0:
329,192,89155,1,0,0:0:0:0:
402,192,89249,1,0,0:0:0:0:
475,192,89249,1,0,0:0:0:0:
329,192,89343,1,0,0:0:0:0:
256,192,89437,1,0,0:0:0:0:
182,192,89437,1,0,0:0:0:0:
475,192,89437,1,0,0:0:0:0:
402,192,89530,1,0,0:0:0:0:
109,192,89530,1,0,0:0:0:0:
329,192,89624,1,0,0:0:0:0:
36,192,89624,1,0,0:0:0:0:
402,192,89718,1,0,0:0:0:0:
109,192,89718,1,0,0:0:0:0:
475,192,89812,1,0,0:0:0:0:
182,192,89812,1,0,0:0:0:0:
256,192,89812,1,0,0:0:0:0:
329,192,89812,1,0,0:0:0:0:
402,192,89999,1,0,0:0:0:0:
109,192,89999,1,0,0:0:0:0:
475,192,90187,1,0,0:0:0:0:
256,192,90187,128,0,90468:0:0:0:0:
109,192,90187,128,0,90280:0:0:0:0:
182,192,90187,128,0,90280:0:0:0:0:
36,192,90187,128,0,90468:0:0:0:0:
329,192,90187,1,0,0:0:0:0:
182,192,90374,128,0,90468:0:0:0:0:
109,192,90374,128,0,90468:0:0:0:0:
402,192,90374,1,0,0:0:0:0:
329,192,90562,1,0,0:0:0:0:
475,192,90562,128,0,90937:0:0:0:0:
402,192,90562,128,0,90937:0:0:0:0:
256,192,90562,1,0,0:0:0:0:
182,192,90655,1,0,0:0:0:0:
109,192,90749,1,0,0:0:0:0:
36,192,90749,1,0,0:0:0:0:
182,192,90843,1,0,0:0:0:0:
329,192,90937,1,0,0:0:0:0:
256,192,90937,1,0,0:0:0:0:
36,192,90937,1,0,0:0:0:0:
109,192,91030,1,0,0:0:0:0:
402,192,91030,1,0,0:0:0:0:
182,192,91124,1,0,0:0:0:0:
475,192,91124,1,0,0:0:0:0:
109,192,91218,1,0,0:0:0:0:
402,192,91218,1,0,0:0:0:0:
36,192,91312,1,0,0:0:0:0:
329,192,91312,1,0,0:0:0:0:
256,192,91312,1,0,0:0:0:0:
402,192,91405,1,0,0:0:0:0:
182,192,91405,1,0,0:0:0:0:
475,192,91499,1,0,0:0:0:0:
109,192,91499,1,0,0:0:0:0:
402,192,91593,1,0,0:0:0:0:
36,192,91593,1,0,0:0:0:0:
329,192,91687,1,0,0:0:0:0:
256,192,91687,1,0,0:0:0:0:
182,192,91687,1,0,0:0:0:0:
475,192,91687,128,0,92905:0:0:0:0:
109,192,91874,128,0,92718:0:0:0:0:
182,192,92062,128,0,93280:0:0:0:0:
256,192,92249,128,0,93280:0:0:0:0:
329,192,92437,128,0,92905:0:0:0:0:
36,192,92437,128,0,92718:0:0:0:0:
402,192,92624,128,0,92905:0:0:0:0:
109,192,92812,128,0,93468:0:0:0:0:
36,192,92812,128,0,93468:0:0:0:0:
329,192,92999,128,0,93280:0:0:0:0:
402,192,92999,128,0,93655:0:0:0:0:
475,192,92999,128,0,93655:0:0:0:0:
329,192,93374,128,0,93655:0:0:0:0:
256,192,93374,128,0,94030:0:0:0:0:
182,192,93374,128,0,94030:0:0:0:0:
109,192,93562,128,0,94218:0:0:0:0:
36,192,93562,128,0,94218:0:0:0:0:
329,192,93749,128,0,94030:0:0:0:0:
402,192,93749,128,0,94405:0:0:0:0:
475,192,93749,128,0,94593:0:0:0:0:
329,192,94124,128,0,94405:0:0:0:0:
256,192,94124,128,0,94593:0:0:0:0:
182,192,94124,128,0,94593:0:0:0:0:
109,192,94312,128,0,94593:0:0:0:0:
36,192,94312,128,0,94593:0:0:0:0:
329,192,94499,128,0,94593:0:0:0:0:
402,192,94499,128,0,94593:0:0:0:0:
256,192,94687,5,0,0:0:0:0:
182,192,94687,1,0,0:0:0:0:
36,192,94687,1,0,0:0:0:0:
475,192,94687,1,0,0:0:0:0:
329,192,94874,1,0,0:0:0:0:
109,192,94874,1,0,0:0:0:0:
182,192,94874,1,0,0:0:0:0:
402,192,94968,1,0,0:0:0:0:
475,192,95062,1,0,0:0:0:0:
182,192,95062,1,0,0:0:0:0:
36,192,95062,1,0,0:0:0:0:
256,192,95062,1,0,0:0:0:0:
329,192,95249,1,0,0:0:0:0:
109,192,95249,1,0,0:0:0:0:
182,192,95249,1,0,0:0:0:0:
402,192,95343,1,0,0:0:0:0:
475,192,95437,1,0,0:0:0:0:
182,192,95437,1,0,0:0:0:0:
36,192,95437,1,0,0:0:0:0:
256,192,95437,128,0,95624:0:0:0:0:
36,192,95624,1,0,0:0:0:0:
329,192,95624,128,0,95812:0:0:0:0:
402,192,95624,1,0,0:0:0:0:
182,192,95624,1,0,0:0:0:0:
475,192,95812,1,0,0:0:0:0:
182,192,95812,128,0,95999:0:0:0:0:
109,192,95812,1,0,0:0:0:0:
402,192,95812,1,0,0:0:0:0:
256,192,95999,1,0,0:0:0:0:
329,192,95999,1,0,0:0:0:0:
109,192,95999,128,0,96187:0:0:0:0:
36,192,96187,1,0,0:0:0:0:
329,192,96187,1,0,0:0:0:0:
475,192,96187,1,0,0:0:0:0:
256,192,96187,1,0,0:0:0:0:
109,192,96280,1,0,0:0:0:0:
182,192,96374,1,0,0:0:0:0:
402,192,96374,1,0,0:0:0:0:
256,192,96374,1,0,0:0:0:0:
329,192,96562,1,0,0:0:0:0:
402,192,96562,1,0,0:0:0:0:
109,192,96562,1,0,0:0:0:0:
36,192,96562,1,0,0:0:0:0:
182,192,96749,1,0,0:0:0:0:
256,192,96749,1,0,0:0:0:0:
475,192,96749,1,0,0:0:0:0:
109,192,96937,1,0,0:0:0:0:
329,192,96937,1,0,0:0:0:0:
402,192,96937,1,0,0:0:0:0:
36,192,96937,1,0,0:0:0:0:
182,192,97030,1,0,0:0:0:0:
256,192,97124,1,0,0:0:0:0:
329,192,97124,1,0,0:0:0:0:
475,192,97124,1,0,0:0:0:0:
329,192,97312,1,0,0:0:0:0:
402,192,97312,1,0,0:0:0:0:
36,192,97312,1,0,0:0:0:0:
109,192,97312,1,0,0:0:0:0:
182,192,97499,1,0,0:0:0:0:
109,192,97499,1,0,0:0:0:0:
475,192,97499,1,0,0:0:0:0:
256,192,97593,1,0,0:0:0:0:
329,192,97687,1,0,0:0:0:0:
36,192,97687,1,0,0:0:0:0:
475,192,97687,1,0,0:0:0:0:
109,192,97687,1,0,0:0:0:0:
182,192,97874,1,0,0:0:0:0:
402,192,97874,1,0,0:0:0:0:
109,192,97874,1,0,0:0:0:0:
256,192,97968,1,0,0:0:0:0:
329,192,98062,1,0,0:0:0:0:
475,192,98062,1,0,0:0:0:0:
36,192,98062,1,0,0:0:0:0:
109,192,98062,1,0,0:0:0:0:
182,192,98249,1,0,0:0:0:0:
402,192,98249,1,0,0:0:0:0:
256,192,98343,1,0,0:0:0:0:
329,192,98437,1,0,0:0:0:0:
475,192,98437,1,0,0:0:0:0:
36,192,98437,1,0,0:0:0:0:
182,192,98437,128,0,98530:0:0:0:0:
402,192,98624,1,0,0:0:0:0:
329,192,98624,1,0,0:0:0:0:
109,192,98624,128,0,98718:0:0:0:0:
329,192,98812,1,0,0:0:0:0:
256,192,98812,1,0,0:0:0:0:
36,192,98812,1,0,0:0:0:0:
475,192,98812,128,0,98905:0:0:0:0:
256,192,98999,1,0,0:0:0:0:
182,192,98999,1,0,0:0:0:0:
402,192,98999,128,0,99093:0:0:0:0:
36,192,99187,1,0,0:0:0:0:
329,192,99187,1,0,0:0:0:0:
402,192,99187,1,0,0:0:0:0:
256,192,99187,1,0,0:0:0:0:
109,192,99280,1,0,0:0:0:0:
182,192,99374,1,0,0:0:0:0:
475,192,99374,1,0,0:0:0:0:
402,192,99374,1,0,0:0:0:0:
256,192,99562,1,0,0:0:0:0:
329,192,99562,1,0,0:0:0:0:
36,192,99562,1,0,0:0:0:0:
475,192,99562,1,0,0:0:0:0:
182,192,99749,1,0,0:0:0:0:
256,192,99749,1,0,0:0:0:0:
109,192,99937,1,0,0:0:0:0:
475,192,99937,1,0,0:0:0:0:
402,192,99937,1,0,0:0:0:0:
36,192,99937,1,0,0:0:0:0:
182,192,100030,1,0,0:0:0:0:
256,192,100124,1,0,0:0:0:0:
36,192,100124,1,0,0:0:0:0:
475,192,100124,1,0,0:0:0:0:
329,192,100312,1,0,0:0:0:0:
402,192,100312,1,0,0:0:0:0:
36,192,100312,1,0,0:0:0:0:
109,192,100312,1,0,0:0:0:0:
182,192,100312,1,0,0:0:0:0:
329,192,100499,1,0,0:0:0:0:
36,192,100499,1,0,0:0:0:0:
256,192,100499,1,0,0:0:0:0:
402,192,100593,1,0,0:0:0:0:
109,192,100593,1,0,0:0:0:0:
475,192,100687,1,0,0:0:0:0:
182,192,100687,1,0,0:0:0:0:
256,192,100687,1,0,0:0:0:0:
36,192,100687,1,0,0:0:0:0:
182,192,100874,1,0,0:0:0:0:
329,192,100874,1,0,0:0:0:0:
109,192,100968,1,0,0:0:0:0:
402,192,100968,1,0,0:0:0:0:
36,192,101062,1,0,0:0:0:0:
475,192,101062,1,0,0:0:0:0:
256,192,101062,1,0,0:0:0:0:
329,192,101062,1,0,0:0:0:0:
329,192,101249,1,0,0:0:0:0:
182,192,101249,1,0,0:0:0:0:
109,192,101249,1,0,0:0:0:0:
402,192,101343,1,0,0:0:0:0:
475,192,101437,1,0,0:0:0:0:
256,192,101437,1,0,0:0:0:0:
36,192,101437,1,0,0:0:0:0:
402,192,101624,1,0,0:0:0:0:
182,192,101624,1,0,0:0:0:0:
109,192,101624,1,0,0:0:0:0:
402,192,101812,1,0,0:0:0:0:
182,192,101812,1,0,0:0:0:0:
36,192,101812,1,0,0:0:0:0:
256,192,101812,1,0,0:0:0:0:
256,192,101999,1,0,0:0:0:0:
402,192,101999,1,0,0:0:0:0:
109,192,101999,1,0,0:0:0:0:
475,192,102093,1,0,0:0:0:0:
402,192,102187,1,0,0:0:0:0:
182,192,102187,1,0,0:0:0:0:
36,192,102187,1,0,0:0:0:0:
329,192,102280,1,0,0:0:0:0:
256,192,102374,1,0,0:0:0:0:
109,192,102374,1,0,0:0:0:0:
475,192,102374,1,0,0:0:0:0:
256,192,102562,1,0,0:0:0:0:
109,192,102562,1,0,0:0:0:0:
402,192,102562,1,0,0:0:0:0:
475,192,102562,1,0,0:0:0:0:
256,192,102749,1,0,0:0:0:0:
36,192,102749,1,0,0:0:0:0:
402,192,102749,1,0,0:0:0:0:
329,192,102843,1,0,0:0:0:0:
256,192,102937,1,0,0:0:0:0:
475,192,102937,1,0,0:0:0:0:
36,192,102937,1,0,0:0:0:0:
182,192,103030,1,0,0:0:0:0:
109,192,103124,1,0,0:0:0:0:
402,192,103124,1,0,0:0:0:0:
329,192,103124,1,0,0:0:0:0:
109,192,103312,1,0,0:0:0:0:
256,192,103312,1,0,0:0:0:0:
402,192,103312,1,0,0:0:0:0:
475,192,103312,1,0,0:0:0:0:
36,192,103312,1,0,0:0:0:0:
182,192,103499,1,0,0:0:0:0:
329,192,103499,1,0,0:0:0:0:
475,192,103499,1,0,0:0:0:0:
109,192,103593,1,0,0:0:0:0:
36,192,103687,1,0,0:0:0:0:
256,192,103687,1,0,0:0:0:0:
329,192,103687,1,0,0:0:0:0:
402,192,103780,1,0,0:0:0:0:
329,192,103874,1,0,0:0:0:0:
109,192,103874,1,0,0:0:0:0:
475,192,103874,1,0,0:0:0:0:
256,192,103968,1,0,0:0:0:0:
182,192,104062,1,0,0:0:0:0:
475,192,104062,1,0,0:0:0:0:
402,192,104062,1,0,0:0:0:0:
109,192,104155,1,0,0:0:0:0:
36,192,104249,1,0,0:0:0:0:
256,192,104249,1,0,0:0:0:0:
475,192,104249,1,0,0:0:0:0:
182,192,104343,1,0,0:0:0:0:
402,192,104343,1,0,0:0:0:0:
329,192,104437,1,0,0:0:0:0:
36,192,104437,1,0,0:0:0:0:
256,192,104437,1,0,0:0:0:0:
402,192,104624,1,0,0:0:0:0:
109,192,104624,1,0,0:0:0:0:
182,192,104624,1,0,0:0:0:0:
256,192,104718,1,0,0:0:0:0:
109,192,104812,1,0,0:0:0:0:
402,192,104812,1,0,0:0:0:0:
329,192,104812,1,0,0:0:0:0:
36,192,104812,1,0,0:0:0:0:
182,192,104905,1,0,0:0:0:0:
256,192,104999,1,0,0:0:0:0:
475,192,104999,1,0,0:0:0:0:
329,192,105093,1,0,0:0:0:0:
109,192,105187,1,0,0:0:0:0:
475,192,105187,1,0,0:0:0:0:
402,192,105187,1,0,0:0:0:0:
182,192,105187,1,0,0:0:0:0:
329,192,105374,1,0,0:0:0:0:
36,192,105374,1,0,0:0:0:0:
109,192,105374,1,0,0:0:0:0:
256,192,105374,1,0,0:0:0:0:
475,192,105468,1,0,0:0:0:0:
402,192,105562,1,0,0:0:0:0:
109,192,105562,1,0,0:0:0:0:
182,192,105562,1,0,0:0:0:0:
329,192,105749,1,0,0:0:0:0:
36,192,105749,1,0,0:0:0:0:
109,192,105749,1,0,0:0:0:0:
256,192,105749,1,0,0:0:0:0:
475,192,105843,1,0,0:0:0:0:
402,192,105937,1,0,0:0:0:0:
109,192,105937,1,0,0:0:0:0:
182,192,105937,1,0,0:0:0:0:
329,192,106124,1,0,0:0:0:0:
36,192,106124,1,0,0:0:0:0:
256,192,106124,1,0,0:0:0:0:
475,192,106218,1,0,0:0:0:0:
182,192,106218,1,0,0:0:0:0:
402,192,106312,1,0,0:0:0:0:
109,192,106312,1,0,0:0:0:0:
329,192,106405,1,0,0:0:0:0:
36,192,106405,1,0,0:0:0:0:
256,192,106499,1,0,0:0:0:0:
475,192,106499,1,0,0:0:0:0:
182,192,106593,1,0,0:0:0:0:
402,192,106593,1,0,0:0:0:0:
109,192,106687,128,0,106968:0:0:0:0:
256,192,106687,128,0,106968:0:0:0:0:
475,192,106687,128,0,106968:0:0:0:0:
329,192,106687,128,0,106733:0:0:0:0:
36,192,106687,128,0,106733:0:0:0:0:
402,192,106874,128,0,106968:0:0:0:0:
182,192,106874,128,0,106968:0:0:0:0:
36,192,106874,128,0,106968:0:0:0:0:
402,192,107062,128,0,107343:0:0:0:0:
182,192,107062,128,0,107343:0:0:0:0:
36,192,107062,128,0,107343:0:0:0:0:
109,192,107062,128,0,107108:0:0:0:0:
329,192,107062,128,0,107108:0:0:0:0:
475,192,107062,128,0,107108:0:0:0:0:
475,192,107249,128,0,107343:0:0:0:0:
256,192,107249,128,0,107343:0:0:0:0:
109,192,107249,128,0,107343:0:0:0:0:
475,192,107437,128,0,107718:0:0:0:0:
256,192,107437,128,0,107718:0:0:0:0:
109,192,107437,128,0,107718:0:0:0:0:
329,192,107437,128,0,107483:0:0:0:0:
36,192,107437,128,0,107483:0:0:0:0:
402,192,107624,128,0,107718:0:0:0:0:
182,192,107624,128,0,107718:0:0:0:0:
36,192,107624,128,0,107718:0:0:0:0:
402,192,107812,128,0,108093:0:0:0:0:
182,192,107812,128,0,108093:0:0:0:0:
36,192,107812,128,0,108093:0:0:0:0:
109,192,107812,128,0,107858:0:0:0:0:
329,192,107812,128,0,107858:0:0:0:0:
475,192,107812,128,0,107858:0:0:0:0:
475,192,107999,128,0,108093:0:0:0:0:
256,192,107999,128,0,108093:0:0:0:0:
109,192,107999,128,0,108093:0:0:0:0:
475,192,108187,128,0,108468:0:0:0:0:
329,192,108187,128,0,108468:0:0:0:0:
182,192,108187,128,0,108468:0:0:0:0:
109,192,108187,128,0,108233:0:0:0:0:
36,192,108187,128,0,108233:0:0:0:0:
402,192,108187,128,0,108233:0:0:0:0:
402,192,108374,128,0,108468:0:0:0:0:
256,192,108374,128,0,108468:0:0:0:0:
109,192,108374,128,0,108468:0:0:0:0:
402,192,108562,128,0,108843:0:0:0:0:
256,192,108562,128,0,108843:0:0:0:0:
109,192,108562,128,0,108843:0:0:0:0:
182,192,108562,128,0,108608:0:0:0:0:
329,192,108562,128,0,108608:0:0:0:0:
475,192,108562,128,0,108608:0:0:0:0:
329,192,108749,128,0,108843:0:0:0:0:
182,192,108749,128,0,108843:0:0:0:0:
36,192,108749,128,0,108843:0:0:0:0:
329,192,108937,128,0,109218:0:0:0:0:
182,192,108937,128,0,109218:0:0:0:0:
36,192,108937,128,0,109218:0:0:0:0:
109,192,108937,128,0,108983:0:0:0:0:
256,192,108937,128,0,108983:0:0:0:0:
402,192,108937,128,0,108983:0:0:0:0:
475,192,109124,128,0,109546:0:0:0:0:
402,192,109124,128,0,109218:0:0:0:0:
256,192,109124,128,0,109218:0:0:0:0:
109,192,109124,128,0,109218:0:0:0:0:
329,192,109312,128,0,109358:0:0:0:0:
182,192,109312,128,0,109358:0:0:0:0:
36,192,109312,128,0,109358:0:0:0:0:
256,192,109499,128,0,109546:0:0:0:0:
109,192,109499,128,0,109546:0:0:0:0:
402,192,109499,128,0,109546:0:0:0:0:
329,192,109687,128,0,109874:0:0:0:0:
182,192,109687,128,0,109874:0:0:0:0:
475,192,109687,128,0,110249:0:0:0:0:
36,192,109687,1,0,0:0:0:0:
402,192,109687,1,0,0:0:0:0:
109,192,109874,1,0,0:0:0:0:
256,192,109874,1,0,0:0:0:0:
109,192,110062,128,0,110249:0:0:0:0:
256,192,110062,128,0,110249:0:0:0:0:
36,192,110062,128,0,110624:0:0:0:0:
402,192,110062,1,0,0:0:0:0:
182,192,110062,1,0,0:0:0:0:
329,192,110249,1,0,0:0:0:0:
182,192,110249,1,0,0:0:0:0:
182,192,110437,128,0,110624:0:0:0:0:
329,192,110437,128,0,110624:0:0:0:0:
402,192,110437,128,0,110999:0:0:0:0:
109,192,110437,1,0,0:0:0:0:
256,192,110437,1,0,0:0:0:0:
256,192,110624,1,0,0:0:0:0:
109,192,110624,1,0,0:0:0:0:
256,192,110812,128,0,110999:0:0:0:0:
109,192,110812,128,0,110999:0:0:0:0:
182,192,110812,128,0,111374:0:0:0:0:
329,192,110812,1,0,0:0:0:0:
475,192,110812,1,0,0:0:0:0:
36,192,110999,1,0,0:0:0:0:
475,192,110999,1,0,0:0:0:0:
329,192,111187,128,0,111562:0:0:0:0:
475,192,111187,128,0,111374:0:0:0:0:
109,192,111187,1,0,0:0:0:0:
256,192,111187,1,0,0:0:0:0:
256,192,111374,128,0,111562:0:0:0:0:
402,192,111374,1,0,0:0:0:0:
36,192,111374,1,0,0:0:0:0:
182,192,111562,128,0,111937:0:0:0:0:
36,192,111562,128,0,111749:0:0:0:0:
475,192,111562,1,0,0:0:0:0:
402,192,111562,1,0,0:0:0:0:
256,192,111749,128,0,111937:0:0:0:0:
329,192,111749,1,0,0:0:0:0:
109,192,111749,1,0,0:0:0:0:
329,192,111937,128,0,112312:0:0:0:0:
475,192,111937,128,0,112124:0:0:0:0:
402,192,111937,1,0,0:0:0:0:
109,192,111937,1,0,0:0:0:0:
402,192,112124,1,0,0:0:0:0:
182,192,112124,1,0,0:0:0:0:
109,192,112124,1,0,0:0:0:0:
36,192,112124,1,0,0:0:0:0:
256,192,112312,5,0,0:0:0:0:
182,192,112312,1,0,0:0:0:0:
402,192,112312,1,0,0:0:0:0:
475,192,112312,1,0,0:0:0:0:
36,192,112499,1,0,0:0:0:0:
109,192,112499,1,0,0:0:0:0:
182,192,112499,1,0,0:0:0:0:
402,192,112499,1,0,0:0:0:0:
256,192,112687,1,0,0:0:0:0:
329,192,112687,128,0,113062:0:0:0:0:
182,192,112687,128,0,113437:0:0:0:0:
475,192,112687,1,0,0:0:0:0:
36,192,112687,128,0,112874:0:0:0:0:
402,192,112874,1,0,0:0:0:0:
256,192,112874,1,0,0:0:0:0:
402,192,113062,128,0,113249:0:0:0:0:
256,192,113062,128,0,113249:0:0:0:0:
36,192,113062,1,0,0:0:0:0:
109,192,113062,1,0,0:0:0:0:
475,192,113249,128,0,113437:0:0:0:0:
109,192,113249,128,0,113437:0:0:0:0:
329,192,113249,1,0,0:0:0:0:
36,192,113437,128,0,113624:0:0:0:0:
256,192,113437,128,0,113999:0:0:0:0:
402,192,113437,1,0,0:0:0:0:
329,192,113437,1,0,0:0:0:0:
109,192,113624,1,0,0:0:0:0:
475,192,113624,1,0,0:0:0:0:
402,192,113624,1,0,0:0:0:0:
402,192,113812,128,0,113999:0:0:0:0:
182,192,113812,128,0,114374:0:0:0:0:
36,192,113812,128,0,114749:0:0:0:0:
475,192,113812,1,0,0:0:0:0:
329,192,113812,1,0,0:0:0:0:
475,192,113999,128,0,114187:0:0:0:0:
109,192,113999,1,0,0:0:0:0:
402,192,114187,128,0,114374:0:0:0:0:
256,192,114187,1,0,0:0:0:0:
109,192,114187,1,0,0:0:0:0:
329,192,114374,128,0,114562:0:0:0:0:
475,192,114374,128,0,114937:0:0:0:0:
109,192,114374,1,0,0:0:0:0:
256,192,114562,128,0,114749:0:0:0:0:
182,192,114562,1,0,0:0:0:0:
402,192,114562,1,0,0:0:0:0:
109,192,114749,128,0,114937:0:0:0:0:
329,192,114749,128,0,114937:0:0:0:0:
182,192,114749,1,0,0:0:0:0:
182,192,114937,128,0,115312:0:0:0:0:
36,192,114937,128,0,115312:0:0:0:0:
402,192,114937,1,0,0:0:0:0:
256,192,114937,1,0,0:0:0:0:
109,192,115124,1,0,0:0:0:0:
329,192,115124,1,0,0:0:0:0:
475,192,115124,1,0,0:0:0:0:
402,192,115312,1,0,0:0:0:0:
256,192,115312,1,0,0:0:0:0:
475,192,115499,1,0,0:0:0:0:
329,192,115499,1,0,0:0:0:0:
109,192,115499,1,0,0:0:0:0:
402,192,115687,1,0,0:0:0:0:
36,192,115687,1,0,0:0:0:0:
182,192,115687,128,0,116062:0:0:0:0:
329,192,115687,128,0,116437:0:0:0:0:
475,192,115687,128,0,115874:0:0:0:0:
256,192,115874,1,0,0:0:0:0:
109,192,115874,1,0,0:0:0:0:
109,192,116062,128,0,116249:0:0:0:0:
402,192,116062,1,0,0:0:0:0:
256,192,116062,128,0,116249:0:0:0:0:
475,192,116062,1,0,0:0:0:0:
402,192,116249,128,0,116437:0:0:0:0:
182,192,116249,1,0,0:0:0:0:
36,192,116249,128,0,116437:0:0:0:0:
109,192,116437,1,0,0:0:0:0:
256,192,116437,128,0,116999:0:0:0:0:
182,192,116437,1,0,0:0:0:0:
475,192,116437,128,0,116624:0:0:0:0:
36,192,116624,1,0,0:0:0:0:
402,192,116624,1,0,0:0:0:0:
109,192,116624,1,0,0:0:0:0:
182,192,116812,1,0,0:0:0:0:
329,192,116812,128,0,117374:0:0:0:0:
109,192,116812,128,0,116999:0:0:0:0:
475,192,116812,128,0,117749:0:0:0:0:
36,192,116812,1,0,0:0:0:0:
36,192,116999,128,0,117187:0:0:0:0:
402,192,116999,1,0,0:0:0:0:
109,192,117187,128,0,117374:0:0:0:0:
402,192,117187,1,0,0:0:0:0:
256,192,117187,1,0,0:0:0:0:
402,192,117374,1,0,0:0:0:0:
182,192,117374,128,0,117562:0:0:0:0:
36,192,117374,128,0,117937:0:0:0:0:
329,192,117562,1,0,0:0:0:0:
109,192,117562,1,0,0:0:0:0:
256,192,117562,128,0,117749:0:0:0:0:
329,192,117749,1,0,0:0:0:0:
182,192,117749,128,0,117937:0:0:0:0:
402,192,117749,128,0,117937:0:0:0:0:
109,192,117937,1,0,0:0:0:0:
256,192,117937,1,0,0:0:0:0:
475,192,117937,128,0,118312:0:0:0:0:
329,192,117937,128,0,118124:0:0:0:0:
36,192,118077,1,0,0:0:0:0:
402,192,118124,1,0,0:0:0:0:
109,192,118124,1,0,0:0:0:0:
182,192,118171,1,0,0:0:0:0:
256,192,118218,1,0,0:0:0:0:
329,192,118265,1,0,0:0:0:0:
402,192,118312,1,0,0:0:0:0:
109,192,118312,1,0,0:0:0:0:
36,192,118312,1,0,0:0:0:0:
109,192,118499,1,0,0:0:0:0:
36,192,118499,1,0,0:0:0:0:
256,192,118499,1,0,0:0:0:0:
329,192,118499,1,0,0:0:0:0:
36,192,118687,1,0,0:0:0:0:
109,192,118687,1,0,0:0:0:0:
475,192,118687,1,0,0:0:0:0:
402,192,118687,1,0,0:0:0:0:
182,192,118780,1,0,0:0:0:0:
109,192,118874,1,0,0:0:0:0:
256,192,118874,1,0,0:0:0:0:
402,192,118874,1,0,0:0:0:0:
36,192,118968,1,0,0:0:0:0:
475,192,119062,1,0,0:0:0:0:
329,192,119062,1,0,0:0:0:0:
182,192,119062,1,0,0:0:0:0:
109,192,119155,1,0,0:0:0:0:
36,192,119249,1,0,0:0:0:0:
256,192,119249,1,0,0:0:0:0:
402,192,119249,1,0,0:0:0:0:
182,192,119343,1,0,0:0:0:0:
109,192,119437,1,0,0:0:0:0:
36,192,119437,1,0,0:0:0:0:
329,192,119437,1,0,0:0:0:0:
256,192,119530,1,0,0:0:0:0:
182,192,119624,1,0,0:0:0:0:
402,192,119624,1,0,0:0:0:0:
475,192,119624,1,0,0:0:0:0:
109,192,119718,1,0,0:0:0:0:
402,192,119812,1,0,0:0:0:0:
256,192,119812,1,0,0:0:0:0:
36,192,119812,1,0,0:0:0:0:
475,192,119812,1,0,0:0:0:0:
329,192,119812,1,0,0:0:0:0:
182,192,119905,1,0,0:0:0:0:
329,192,119999,1,0,0:0:0:0:
109,192,119999,1,0,0:0:0:0:
402,192,119999,1,0,0:0:0:0:
36,192,120093,1,0,0:0:0:0:
256,192,120187,1,0,0:0:0:0:
475,192,120187,1,0,0:0:0:0:
109,192,120187,1,0,0:0:0:0:
182,192,120280,1,0,0:0:0:0:
329,192,120374,1,0,0:0:0:0:
402,192,120374,1,0,0:0:0:0:
109,192,120374,1,0,0:0:0:0:
182,192,120468,1,0,0:0:0:0:
256,192,120562,1,0,0:0:0:0:
475,192,120562,1,0,0:0:0:0:
36,192,120562,1,0,0:0:0:0:
182,192,120655,1,0,0:0:0:0:
109,192,120749,1,0,0:0:0:0:
402,192,120749,1,0,0:0:0:0:
329,192,120749,1,0,0:0:0:0:
256,192,120843,1,0,0:0:0:0:
109,192,120937,1,0,0:0:0:0:
36,192,120937,1,0,0:0:0:0:
402,192,120937,1,0,0:0:0:0:
182,192,120937,1,0,0:0:0:0:
475,192,120937,128,0,121499:0:0:0:0:
256,192,121030,1,0,0:0:0:0:
109,192,121124,1,0,0:0:0:0:
329,192,121124,1,0,0:0:0:0:
256,192,121218,1,0,0:0:0:0:
182,192,121312,1,0,0:0:0:0:
36,192,121312,1,0,0:0:0:0:
402,192,121312,1,0,0:0:0:0:
256,192,121405,1,0,0:0:0:0:
109,192,121499,1,0,0:0:0:0:
329,192,121499,1,0,0:0:0:0:
402,192,121593,1,0,0:0:0:0:
36,192,121687,1,0,0:0:0:0:
256,192,121687,1,0,0:0:0:0:
329,192,121687,1,0,0:0:0:0:
475,192,121687,1,0,0:0:0:0:
109,192,121780,1,0,0:0:0:0:
329,192,121874,1,0,0:0:0:0:
182,192,121874,1,0,0:0:0:0:
402,192,121874,1,0,0:0:0:0:
256,192,121968,1,0,0:0:0:0:
402,192,122062,1,0,0:0:0:0:
109,192,122062,1,0,0:0:0:0:
475,192,122062,1,0,0:0:0:0:
256,192,122155,1,0,0:0:0:0:
329,192,122249,1,0,0:0:0:0:
182,192,122249,1,0,0:0:0:0:
36,192,122249,1,0,0:0:0:0:
402,192,122343,1,0,0:0:0:0:
256,192,122437,1,0,0:0:0:0:
109,192,122437,1,0,0:0:0:0:
475,192,122437,1,0,0:0:0:0:
402,192,122530,1,0,0:0:0:0:
36,192,122624,1,0,0:0:0:0:
182,192,122624,1,0,0:0:0:0:
329,192,122624,1,0,0:0:0:0:
109,192,122718,1,0,0:0:0:0:
402,192,122812,1,0,0:0:0:0:
256,192,122812,1,0,0:0:0:0:
36,192,122812,1,0,0:0:0:0:
182,192,122905,1,0,0:0:0:0:
109,192,122999,1,0,0:0:0:0:
475,192,122999,1,0,0:0:0:0:
329,192,122999,1,0,0:0:0:0:
402,192,123093,1,0,0:0:0:0:
256,192,123093,1,0,0:0:0:0:
329,192,123187,1,0,0:0:0:0:
36,192,123187,1,0,0:0:0:0:
475,192,123187,1,0,0:0:0:0:
182,192,123187,1,0,0:0:0:0:
256,192,123280,1,0,0:0:0:0:
329,192,123374,1,0,0:0:0:0:
475,192,123374,1,0,0:0:0:0:
109,192,123374,1,0,0:0:0:0:
182,192,123468,1,0,0:0:0:0:
402,192,123562,1,0,0:0:0:0:
256,192,123562,1,0,0:0:0:0:
475,192,123562,1,0,0:0:0:0:
36,192,123562,1,0,0:0:0:0:
109,192,123655,1,0,0:0:0:0:
475,192,123749,1,0,0:0:0:0:
182,192,123749,1,0,0:0:0:0:
329,192,123749,1,0,0:0:0:0:
36,192,123843,1,0,0:0:0:0:
475,192,123937,128,0,124499:0:0:0:0:
109,192,123937,1,0,0:0:0:0:
402,192,123937,1,0,0:0:0:0:
256,192,123937,1,0,0:0:0:0:
329,192,123937,1,0,0:0:0:0:
182,192,124124,1,0,0:0:0:0:
329,192,124124,1,0,0:0:0:0:
36,192,124124,1,0,0:0:0:0:
329,192,124312,1,0,0:0:0:0:
256,192,124312,1,0,0:0:0:0:
109,192,124312,1,0,0:0:0:0:
402,192,124312,1,0,0:0:0:0:
182,192,124499,1,0,0:0:0:0:
256,192,124499,1,0,0:0:0:0:
402,192,124499,1,0,0:0:0:0:
36,192,124499,1,0,0:0:0:0:
329,192,124687,128,0,125530:0:0:0:0:
109,192,124687,128,0,124968:0:0:0:0:
402,192,124687,1,0,0:0:0:0:
256,192,124687,128,0,124780:0:0:0:0:
36,192,124687,128,0,125343:0:0:0:0:
475,192,124687,1,0,0:0:0:0:
402,192,124874,1,0,0:0:0:0:
182,192,124874,128,0,124968:0:0:0:0:
475,192,124874,1,0,0:0:0:0:
402,192,125062,1,0,0:0:0:0:
256,192,125062,128,0,125155:0:0:0:0:
109,192,125062,1,0,0:0:0:0:
475,192,125062,1,0,0:0:0:0:
402,192,125249,1,0,0:0:0:0:
182,192,125249,128,0,125343:0:0:0:0:
109,192,125249,1,0,0:0:0:0:
475,192,125437,128,0,126187:0:0:0:0:
36,192,125437,1,0,0:0:0:0:
256,192,125437,128,0,125530:0:0:0:0:
402,192,125437,128,0,126093:0:0:0:0:
109,192,125437,128,0,125718:0:0:0:0:
182,192,125437,1,0,0:0:0:0:
36,192,125624,1,0,0:0:0:0:
182,192,125624,128,0,125718:0:0:0:0:
329,192,125624,1,0,0:0:0:0:
36,192,125812,1,0,0:0:0:0:
256,192,125812,128,0,125905:0:0:0:0:
109,192,125812,1,0,0:0:0:0:
182,192,125812,1,0,0:0:0:0:
36,192,125999,1,0,0:0:0:0:
329,192,125999,128,0,126093:0:0:0:0:
109,192,125999,1,0,0:0:0:0:
256,192,126187,128,0,126562:0:0:0:0:
109,192,126187,128,0,126562:0:0:0:0:
182,192,126187,1,0,0:0:0:0:
402,192,126187,1,0,0:0:0:0:
36,192,126187,128,0,126374:0:0:0:0:
329,192,126374,1,0,0:0:0:0:
475,192,126374,1,0,0:0:0:0:
182,192,126562,128,0,126749:0:0:0:0:
36,192,126562,128,0,126749:0:0:0:0:
402,192,126562,1,0,0:0:0:0:
329,192,126749,128,0,126937:0:0:0:0:
475,192,126749,128,0,126937:0:0:0:0:
109,192,126749,1,0,0:0:0:0:
402,192,126749,1,0,0:0:0:0:
256,192,126937,128,0,127312:0:0:0:0:
402,192,126937,128,0,127312:0:0:0:0:
182,192,126937,1,0,0:0:0:0:
36,192,126937,1,0,0:0:0:0:
109,192,126937,128,0,127124:0:0:0:0:
36,192,127124,1,0,0:0:0:0:
475,192,127124,1,0,0:0:0:0:
329,192,127312,128,0,127687:0:0:0:0:
182,192,127312,128,0,127687:0:0:0:0:
36,192,127312,1,0,0:0:0:0:
109,192,127312,128,0,127499:0:0:0:0:
475,192,127312,1,0,0:0:0:0:
256,192,127499,1,0,0:0:0:0:
402,192,127499,1,0,0:0:0:0:
475,192,127499,1,0,0:0:0:0:
36,192,127687,128,0,128437:0:0:0:0:
256,192,127687,1,0,0:0:0:0:
402,192,127687,1,0,0:0:0:0:
109,192,127687,128,0,127874:0:0:0:0:
329,192,127780,1,0,0:0:0:0:
182,192,127780,1,0,0:0:0:0:
256,192,127874,1,0,0:0:0:0:
402,192,127874,128,0,128155:0:0:0:0:
329,192,127968,1,0,0:0:0:0:
475,192,127968,1,0,0:0:0:0:
256,192,128062,1,0,0:0:0:0:
182,192,128062,1,0,0:0:0:0:
109,192,128062,128,0,128249:0:0:0:0:
475,192,128155,1,0,0:0:0:0:
329,192,128155,1,0,0:0:0:0:
402,192,128249,1,0,0:0:0:0:
256,192,128249,1,0,0:0:0:0:
329,192,128343,1,0,0:0:0:0:
182,192,128343,1,0,0:0:0:0:
109,192,128437,1,0,0:0:0:0:
256,192,128437,1,0,0:0:0:0:
402,192,128437,1,0,0:0:0:0:
475,192,128437,128,0,128624:0:0:0:0:
182,192,128530,1,0,0:0:0:0:
256,192,128624,1,0,0:0:0:0:
36,192,128624,128,0,128812:0:0:0:0:
329,192,128718,1,0,0:0:0:0:
402,192,128812,1,0,0:0:0:0:
182,192,128812,128,0,128999:0:0:0:0:
109,192,128812,1,0,0:0:0:0:
329,192,128999,128,0,129187:0:0:0:0:
36,192,128999,1,0,0:0:0:0:
475,192,128999,1,0,0:0:0:0:
36,192,129187,128,0,129655:0:0:0:0:
182,192,129187,128,0,129468:0:0:0:0:
256,192,129187,128,0,129468:0:0:0:0:
402,192,129187,128,0,130124:0:0:0:0:
109,192,129374,128,0,129843:0:0:0:0:
475,192,129374,128,0,129655:0:0:0:0:
329,192,129374,128,0,129655:0:0:0:0:
256,192,129562,128,0,129843:0:0:0:0:
182,192,129562,128,0,129843:0:0:0:0:
36,192,129749,1,0,0:0:0:0:
329,192,129749,128,0,130030:0:0:0:0:
475,192,129749,128,0,130218:0:0:0:0:
256,192,129937,1,0,0:0:0:0:
182,192,129937,1,0,0:0:0:0:
109,192,129937,1,0,0:0:0:0:
329,192,130124,128,0,130405:0:0:0:0:
182,192,130124,1,0,0:0:0:0:
402,192,130218,128,0,130499:0:0:0:0:
109,192,130218,1,0,0:0:0:0:
475,192,130312,128,0,130593:0:0:0:0:
36,192,130312,1,0,0:0:0:0:
256,192,130312,1,0,0:0:0:0:
329,192,130499,128,0,130687:0:0:0:0:
36,192,130499,1,0,0:0:0:0:
182,192,130499,1,0,0:0:0:0:
402,192,130593,128,0,130780:0:0:0:0:
182,192,130687,128,0,131437:0:0:0:0:
475,192,130687,128,0,130874:0:0:0:0:
256,192,130687,1,0,0:0:0:0:
109,192,130687,1,0,0:0:0:0:
109,192,130874,128,0,131108:0:0:0:0:
36,192,130874,1,0,0:0:0:0:
329,192,130874,1,0,0:0:0:0:
402,192,131062,128,0,131108:0:0:0:0:
475,192,131062,128,0,131108:0:0:0:0:
256,192,131062,128,0,131108:0:0:0:0:
475,192,131249,1,0,0:0:0:0:
109,192,131249,1,0,0:0:0:0:
329,192,131249,1,0,0:0:0:0:
402,192,131437,1,0,0:0:0:0:
109,192,131437,1,0,0:0:0:0:
256,192,131437,1,0,0:0:0:0:
329,192,131437,128,0,132187:0:0:0:0:
36,192,131437,1,0,0:0:0:0:
109,192,131624,128,0,131858:0:0:0:0:
36,192,131624,1,0,0:0:0:0:
475,192,131624,1,0,0:0:0:0:
256,192,131624,1,0,0:0:0:0:
256,192,131812,128,0,131858:0:0:0:0:
475,192,131812,128,0,131858:0:0:0:0:
402,192,131812,128,0,131858:0:0:0:0:
182,192,131999,1,0,0:0:0:0:
36,192,131999,1,0,0:0:0:0:
475,192,131999,1,0,0:0:0:0:
402,192,132187,128,0,132937:0:0:0:0:
182,192,132187,1,0,0:0:0:0:
109,192,132187,1,0,0:0:0:0:
256,192,132187,1,0,0:0:0:0:
36,192,132187,1,0,0:0:0:0:
182,192,132374,1,0,0:0:0:0:
475,192,132374,1,0,0:0:0:0:
36,192,132374,128,0,132608:0:0:0:0:
329,192,132374,1,0,0:0:0:0:
182,192,132562,128,0,132608:0:0:0:0:
109,192,132562,128,0,132608:0:0:0:0:
256,192,132562,128,0,132608:0:0:0:0:
182,192,132749,1,0,0:0:0:0:
36,192,132749,1,0,0:0:0:0:
475,192,132749,1,0,0:0:0:0:
329,192,132937,128,0,133687:0:0:0:0:
256,192,132937,1,0,0:0:0:0:
109,192,132937,1,0,0:0:0:0:
475,192,132937,1,0,0:0:0:0:
182,192,132937,1,0,0:0:0:0:
402,192,133124,1,0,0:0:0:0:
182,192,133124,1,0,0:0:0:0:
475,192,133124,1,0,0:0:0:0:
36,192,133124,128,0,133358:0:0:0:0:
109,192,133312,128,0,133358:0:0:0:0:
182,192,133312,128,0,133358:0:0:0:0:
475,192,133312,1,0,0:0:0:0:
402,192,133358,1,0,0:0:0:0:
256,192,133405,1,0,0:0:0:0:
182,192,133452,1,0,0:0:0:0:
109,192,133499,1,0,0:0:0:0:
36,192,133546,1,0,0:0:0:0:
475,192,133593,1,0,0:0:0:0:
402,192,133593,1,0,0:0:0:0:
256,192,133640,1,0,0:0:0:0:
109,192,133687,1,0,0:0:0:0:
182,192,133687,128,0,133968:0:0:0:0:
36,192,133687,1,0,0:0:0:0:
36,192,133874,128,0,133921:0:0:0:0:
475,192,133874,128,0,134062:0:0:0:0:
329,192,133874,128,0,133921:0:0:0:0:
402,192,133874,128,0,133921:0:0:0:0:
36,192,134062,128,0,134812:0:0:0:0:
109,192,134062,1,0,0:0:0:0:
329,192,134062,128,0,134343:0:0:0:0:
256,192,134062,1,0,0:0:0:0:
402,192,134062,1,0,0:0:0:0:
402,192,134249,128,0,134296:0:0:0:0:
475,192,134249,128,0,134296:0:0:0:0:
182,192,134249,128,0,134296:0:0:0:0:
256,192,134249,128,0,134437:0:0:0:0:
329,192,134437,1,0,0:0:0:0:
475,192,134437,1,0,0:0:0:0:
182,192,134437,1,0,0:0:0:0:
402,192,134437,128,0,134718:0:0:0:0:
256,192,134624,128,0,134671:0:0:0:0:
109,192,134624,128,0,134671:0:0:0:0:
329,192,134624,128,0,134671:0:0:0:0:
182,192,134624,128,0,134812:0:0:0:0:
329,192,134812,128,0,135093:0:0:0:0:
109,192,134812,1,0,0:0:0:0:
256,192,134812,1,0,0:0:0:0:
402,192,134812,1,0,0:0:0:0:
475,192,134999,128,0,135046:0:0:0:0:
109,192,134999,128,0,135187:0:0:0:0:
402,192,134999,128,0,135046:0:0:0:0:
36,192,134999,128,0,135046:0:0:0:0:
182,192,134999,1,0,0:0:0:0:
182,192,135187,1,0,0:0:0:0:
329,192,135187,1,0,0:0:0:0:
256,192,135187,128,0,135421:0:0:0:0:
36,192,135187,1,0,0:0:0:0:
402,192,135187,128,0,135374:0:0:0:0:
475,192,135187,128,0,135937:0:0:0:0:
182,192,135374,128,0,135421:0:0:0:0:
109,192,135374,128,0,135421:0:0:0:0:
36,192,135374,128,0,135421:0:0:0:0:
329,192,135374,128,0,135562:0:0:0:0:
256,192,135562,128,0,135749:0:0:0:0:
36,192,135562,1,0,0:0:0:0:
109,192,135562,1,0,0:0:0:0:
402,192,135562,1,0,0:0:0:0:
329,192,135749,128,0,135796:0:0:0:0:
36,192,135749,128,0,135796:0:0:0:0:
402,192,135749,128,0,135796:0:0:0:0:
182,192,135749,128,0,135937:0:0:0:0:
256,192,135937,1,0,0:0:0:0:
109,192,135937,128,0,136687:0:0:0:0:
329,192,135937,1,0,0:0:0:0:
402,192,135937,1,0,0:0:0:0:
36,192,135937,128,0,136124:0:0:0:0:
402,192,136124,128,0,136171:0:0:0:0:
182,192,136124,128,0,136171:0:0:0:0:
256,192,136124,128,0,136171:0:0:0:0:
36,192,136312,1,0,0:0:0:0:
256,192,136312,128,0,137062:0:0:0:0:
402,192,136312,1,0,0:0:0:0:
475,192,136312,1,0,0:0:0:0:
329,192,136312,1,0,0:0:0:0:
182,192,136312,128,0,136499:0:0:0:0:
475,192,136499,128,0,136687:0:0:0:0:
402,192,136499,1,0,0:0:0:0:
402,192,136687,128,0,137437:0:0:0:0:
182,192,136687,1,0,0:0:0:0:
36,192,136687,1,0,0:0:0:0:
329,192,136687,128,0,136874:0:0:0:0:
109,192,136874,1,0,0:0:0:0:
182,192,137062,1,0,0:0:0:0:
475,192,137062,1,0,0:0:0:0:
36,192,137062,128,0,137812:0:0:0:0:
329,192,137062,1,0,0:0:0:0:
256,192,137249,1,0,0:0:0:0:
109,192,137249,1,0,0:0:0:0:
109,192,137437,1,0,0:0:0:0:
329,192,137437,1,0,0:0:0:0:
182,192,137437,128,0,138187:0:0:0:0:
475,192,137437,1,0,0:0:0:0:
256,192,137437,128,0,137624:0:0:0:0:
329,192,137624,1,0,0:0:0:0:
402,192,137624,1,0,0:0:0:0:
109,192,137812,1,0,0:0:0:0:
475,192,137812,1,0,0:0:0:0:
402,192,137812,1,0,0:0:0:0:
329,192,137812,128,0,138562:0:0:0:0:
402,192,137999,1,0,0:0:0:0:
256,192,137999,1,0,0:0:0:0:
109,192,138187,1,0,0:0:0:0:
475,192,138187,1,0,0:0:0:0:
36,192,138187,1,0,0:0:0:0:
256,192,138187,128,0,138374:0:0:0:0:
182,192,138374,1,0,0:0:0:0:
402,192,138374,1,0,0:0:0:0:
36,192,138562,1,0,0:0:0:0:
256,192,138562,1,0,0:0:0:0:
109,192,138562,1,0,0:0:0:0:
475,192,138562,1,0,0:0:0:0:
402,192,138749,1,0,0:0:0:0:
182,192,138749,1,0,0:0:0:0:
109,192,138937,1,0,0:0:0:0:
36,192,138937,128,0,139312:0:0:0:0:
475,192,138937,1,0,0:0:0:0:
329,192,138937,1,0,0:0:0:0:
256,192,138937,128,0,139124:0:0:0:0:
402,192,139124,1,0,0:0:0:0:
182,192,139124,1,0,0:0:0:0:
329,192,139312,1,0,0:0:0:0:
475,192,139312,1,0,0:0:0:0:
109,192,139312,1,0,0:0:0:0:
256,192,139312,128,0,139499:0:0:0:0:
402,192,139499,128,0,139687:0:0:0:0:
36,192,139499,1,0,0:0:0:0:
182,192,139499,1,0,0:0:0:0:
36,192,139687,128,0,139968:0:0:0:0:
475,192,139687,1,0,0:0:0:0:
329,192,139687,1,0,0:0:0:0:
182,192,139687,1,0,0:0:0:0:
256,192,139687,1,0,0:0:0:0:
109,192,139874,1,0,0:0:0:0:
182,192,139921,1,0,0:0:0:0:
256,192,139968,1,0,0:0:0:0:
329,192,140015,1,0,0:0:0:0:
475,192,140062,1,0,0:0:0:0:
109,192,140062,1,0,0:0:0:0:
36,192,140062,1,0,0:0:0:0:
402,192,140062,1,0,0:0:0:0:
475,192,140437,1,0,0:0:0:0:
182,192,140437,1,0,0:0:0:0:
109,192,140530,1,0,0:0:0:0:
402,192,140530,1,0,0:0:0:0:
475,192,140624,1,0,0:0:0:0:
182,192,140624,1,0,0:0:0:0:
256,192,140624,1,0,0:0:0:0:
109,192,140718,1,0,0:0:0:0:
402,192,140718,1,0,0:0:0:0:
182,192,140812,1,0,0:0:0:0:
36,192,140812,1,0,0:0:0:0:
475,192,140812,1,0,0:0:0:0:
256,192,140812,1,0,0:0:0:0:
329,192,140999,1,0,0:0:0:0:
402,192,141187,1,0,0:0:0:0:
109,192,141187,1,0,0:0:0:0:
182,192,141187,1,0,0:0:0:0:
475,192,141187,1,0,0:0:0:0:
329,192,141187,1,0,0:0:0:0:
475,192,141374,1,0,0:0:0:0:
402,192,141421,1,0,0:0:0:0:
329,192,141468,1,0,0:0:0:0:
256,192,141515,1,0,0:0:0:0:
182,192,141562,1,0,0:0:0:0:
36,192,141562,1,0,0:0:0:0:
109,192,141562,1,0,0:0:0:0:
256,192,141749,1,0,0:0:0:0:
109,192,141749,1,0,0:0:0:0:
329,192,141749,1,0,0:0:0:0:
182,192,141749,1,0,0:0:0:0:
475,192,141749,1,0,0:0:0:0:
475,192,141937,1,0,0:0:0:0:
329,192,141937,1,0,0:0:0:0:
402,192,142124,1,0,0:0:0:0:
256,192,142124,1,0,0:0:0:0:
109,192,142124,128,0,142218:0:0:0:0:
182,192,142124,128,0,142218:0:0:0:0:
329,192,142312,1,0,0:0:0:0:
36,192,142312,1,0,0:0:0:0:
402,192,142499,128,0,143062:0:0:0:0:
329,192,142499,128,0,143062:0:0:0:0:
182,192,142499,1,0,0:0:0:0:
109,192,142499,1,0,0:0:0:0:
36,192,142687,1,0,0:0:0:0:
256,192,142687,1,0,0:0:0:0:
182,192,142874,1,0,0:0:0:0:
109,192,142874,1,0,0:0:0:0:
475,192,143062,1,0,0:0:0:0:
36,192,143062,1,0,0:0:0:0:
256,192,143062,1,0,0:0:0:0:
402,192,143249,1,0,0:0:0:0:
109,192,143249,128,0,143343:0:0:0:0:
329,192,143249,1,0,0:0:0:0:
182,192,143249,128,0,143343:0:0:0:0:
36,192,143437,1,0,0:0:0:0:
256,192,143437,1,0,0:0:0:0:
475,192,143437,1,0,0:0:0:0:
182,192,143624,128,0,143718:0:0:0:0:
109,192,143624,128,0,143718:0:0:0:0:
329,192,143624,1,0,0:0:0:0:
329,192,143812,128,0,143905:0:0:0:0:
256,192,143812,128,0,143905:0:0:0:0:
36,192,143812,1,0,0:0:0:0:
109,192,143812,1,0,0:0:0:0:
182,192,143905,1,0,0:0:0:0:
402,192,143999,128,0,144093:0:0:0:0:
256,192,143999,1,0,0:0:0:0:
329,192,143999,1,0,0:0:0:0:
475,192,143999,128,0,144093:0:0:0:0:
182,192,144046,1,0,0:0:0:0:
109,192,144093,1,0,0:0:0:0:
36,192,144140,1,0,0:0:0:0:
475,192,144187,1,0,0:0:0:0:
402,192,144233,1,0,0:0:0:0:
329,192,144280,1,0,0:0:0:0:
256,192,144327,1,0,0:0:0:0:
182,192,144327,1,0,0:0:0:0:
475,192,144374,1,0,0:0:0:0:
109,192,144374,1,0,0:0:0:0:
402,192,144421,1,0,0:0:0:0:
36,192,144421,1,0,0:0:0:0:
329,192,144468,1,0,0:0:0:0:
256,192,144515,1,0,0:0:0:0:
475,192,144562,1,0,0:0:0:0:
109,192,144562,1,0,0:0:0:0:
182,192,144562,1,0,0:0:0:0:
36,192,144608,1,0,0:0:0:0:
402,192,144608,1,0,0:0:0:0:
329,192,144655,1,0,0:0:0:0:
256,192,144702,1,0,0:0:0:0:
182,192,144749,1,0,0:0:0:0:
109,192,144796,1,0,0:0:0:0:
36,192,144796,1,0,0:0:0:0:
475,192,144843,1,0,0:0:0:0:
402,192,144890,1,0,0:0:0:0:
329,192,144890,1,0,0:0:0:0:
256,192,144937,1,0,0:0:0:0:
36,192,144983,1,0,0:0:0:0:
182,192,144983,1,0,0:0:0:0:
109,192,144983,1,0,0:0:0:0:
475,192,145030,1,0,0:0:0:0:
402,192,145077,1,0,0:0:0:0:
329,192,145124,1,0,0:0:0:0:
109,192,145171,1,0,0:0:0:0:
256,192,145171,1,0,0:0:0:0:
182,192,145171,1,0,0:0:0:0:
36,192,145218,1,0,0:0:0:0:
329,192,145312,128,0,145405:0:0:0:0:
109,192,145312,128,0,145499:0:0:0:0:
256,192,145312,128,0,145405:0:0:0:0:
182,192,145312,128,0,145405:0:0:0:0:
475,192,145312,128,0,145499:0:0:0:0:
329,192,145499,1,0,0:0:0:0:
256,192,145499,1,0,0:0:0:0:
402,192,145499,128,0,145687:0:0:0:0:
182,192,145499,1,0,0:0:0:0:
36,192,145499,1,0,0:0:0:0:
475,192,145687,1,0,0:0:0:0:
256,192,145687,1,0,0:0:0:0:
329,192,145687,1,0,0:0:0:0:
36,192,145687,1,0,0:0:0:0:
109,192,145687,128,0,146437:0:0:0:0:
256,192,146062,128,0,146437:0:0:0:0:
402,192,146062,1,0,0:0:0:0:
329,192,146437,1,0,0:0:0:0:
182,192,146437,1,0,0:0:0:0:
36,192,146437,1,0,0:0:0:0:
256,192,146624,1,0,0:0:0:0:
402,192,146624,1,0,0:0:0:0:
109,192,146624,1,0,0:0:0:0:
329,192,146812,1,0,0:0:0:0:
475,192,146812,1,0,0:0:0:0:
36,192,146812,1,0,0:0:0:0:
182,192,146812,1,0,0:0:0:0:
402,192,146999,1,0,0:0:0:0:
109,192,146999,1,0,0:0:0:0:
475,192,147187,128,0,147468:0:0:0:0:
182,192,147187,128,0,147468:0:0:0:0:
329,192,147187,1,0,0:0:0:0:
256,192,147187,1,0,0:0:0:0:
402,192,147280,128,0,147374:0:0:0:0:
109,192,147280,128,0,147374:0:0:0:0:
36,192,147374,128,0,147655:0:0:0:0:
256,192,147374,128,0,147468:0:0:0:0:
329,192,147374,128,0,147655:0:0:0:0:
109,192,147468,128,0,147655:0:0:0:0:
402,192,147468,128,0,147655:0:0:0:0:
182,192,147562,128,0,147843:0:0:0:0:
256,192,147562,128,0,147843:0:0:0:0:
475,192,147562,128,0,147843:0:0:0:0:
402,192,147749,128,0,147937:0:0:0:0:
329,192,147749,128,0,148030:0:0:0:0:
109,192,147749,128,0,147937:0:0:0:0:
36,192,147749,128,0,148030:0:0:0:0:
182,192,147937,128,0,148218:0:0:0:0:
256,192,147937,128,0,148030:0:0:0:0:
475,192,147937,128,0,148218:0:0:0:0:
109,192,148030,128,0,148124:0:0:0:0:
402,192,148030,128,0,148124:0:0:0:0:
256,192,148124,128,0,148312:0:0:0:0:
329,192,148124,128,0,148405:0:0:0:0:
36,192,148124,128,0,148312:0:0:0:0:
402,192,148218,128,0,148499:0:0:0:0:
109,192,148218,128,0,148405:0:0:0:0:
475,192,148312,128,0,148593:0:0:0:0:
182,192,148312,128,0,148593:0:0:0:0:
256,192,148405,128,0,148593:0:0:0:0:
36,192,148405,128,0,148499:0:0:0:0:
329,192,148499,128,0,148593:0:0:0:0:
109,192,148499,128,0,148687:0:0:0:0:
402,192,148593,128,0,148687:0:0:0:0:
36,192,148593,128,0,148780:0:0:0:0:
475,192,148687,128,0,148968:0:0:0:0:
182,192,148687,128,0,148968:0:0:0:0:
256,192,148687,128,0,148780:0:0:0:0:
329,192,148687,128,0,148780:0:0:0:0:
109,192,148780,128,0,148874:0:0:0:0:
402,192,148780,128,0,148874:0:0:0:0:
36,192,148874,128,0,149155:0:0:0:0:
256,192,148874,128,0,149062:0:0:0:0:
329,192,148874,128,0,149062:0:0:0:0:
109,192,148968,128,0,149155:0:0:0:0:
402,192,148968,128,0,149155:0:0:0:0:
182,192,149062,128,0,149343:0:0:0:0:
475,192,149062,128,0,149343:0:0:0:0:
256,192,149155,128,0,149343:0:0:0:0:
329,192,149155,128,0,149530:0:0:0:0:
402,192,149249,128,0,149437:0:0:0:0:
109,192,149249,128,0,149437:0:0:0:0:
36,192,149249,128,0,149530:0:0:0:0:
475,192,149437,128,0,149718:0:0:0:0:
256,192,149437,128,0,149530:0:0:0:0:
182,192,149437,128,0,149718:0:0:0:0:
402,192,149530,128,0,149624:0:0:0:0:
109,192,149530,128,0,149624:0:0:0:0:
329,192,149624,128,0,149905:0:0:0:0:
36,192,149624,128,0,149812:0:0:0:0:
256,192,149624,128,0,149812:0:0:0:0:
402,192,149718,128,0,149999:0:0:0:0:
109,192,149718,128,0,149905:0:0:0:0:
475,192,149812,128,0,150093:0:0:0:0:
182,192,149812,128,0,149999:0:0:0:0:
36,192,149905,128,0,149999:0:0:0:0:
256,192,149905,128,0,150093:0:0:0:0:
329,192,149999,128,0,150093:0:0:0:0:
109,192,149999,128,0,150093:0:0:0:0:
36,192,150093,128,0,150187:0:0:0:0:
402,192,150093,128,0,150187:0:0:0:0:
182,192,150187,128,0,150421:0:0:0:0:
256,192,150187,1,0,0:0:0:0:
475,192,150187,1,0,0:0:0:0:
109,192,150187,1,0,0:0:0:0:
329,192,150187,1,0,0:0:0:0:
329,192,150374,128,0,150608:0:0:0:0:
256,192,150374,128,0,150421:0:0:0:0:
402,192,150374,128,0,150421:0:0:0:0:
109,192,150374,128,0,150421:0:0:0:0:
36,192,150374,128,0,150562:0:0:0:0:
109,192,150562,128,0,150796:0:0:0:0:
256,192,150562,128,0,150608:0:0:0:0:
402,192,150562,128,0,150608:0:0:0:0:
475,192,150562,128,0,150749:0:0:0:0:
402,192,150749,128,0,150983:0:0:0:0:
36,192,150749,128,0,150796:0:0:0:0:
182,192,150749,128,0,150796:0:0:0:0:
329,192,150749,128,0,150937:0:0:0:0:
475,192,150937,128,0,150983:0:0:0:0:
256,192,150937,128,0,150983:0:0:0:0:
109,192,150937,128,0,151124:0:0:0:0:
36,192,150937,128,0,151171:0:0:0:0:
475,192,151124,128,0,151358:0:0:0:0:
182,192,151124,128,0,151171:0:0:0:0:
329,192,151124,128,0,151171:0:0:0:0:
402,192,151124,128,0,151312:0:0:0:0:
256,192,151312,128,0,151546:0:0:0:0:
329,192,151312,128,0,151358:0:0:0:0:
109,192,151312,128,0,151358:0:0:0:0:
36,192,151312,128,0,151499:0:0:0:0:
109,192,151499,128,0,151733:0:0:0:0:
182,192,151499,128,0,151546:0:0:0:0:
402,192,151499,128,0,151546:0:0:0:0:
475,192,151499,128,0,151687:0:0:0:0:
402,192,151687,128,0,151921:0:0:0:0:
329,192,151687,128,0,151733:0:0:0:0:
256,192,151687,128,0,151874:0:0:0:0:
36,192,151687,128,0,151733:0:0:0:0:
182,192,151874,128,0,152108:0:0:0:0:
329,192,151874,128,0,151921:0:0:0:0:
475,192,151874,128,0,151921:0:0:0:0:
36,192,151874,128,0,152108:0:0:0:0:
109,192,152062,128,0,152108:0:0:0:0:
475,192,152062,128,0,152155:0:0:0:0:
329,192,152062,128,0,152155:0:0:0:0:
256,192,152155,128,0,152624:0:0:0:0:
402,192,152155,128,0,152249:0:0:0:0:
475,192,152249,128,0,152343:0:0:0:0:
182,192,152249,128,0,152437:0:0:0:0:
329,192,152249,128,0,152530:0:0:0:0:
109,192,152343,128,0,152530:0:0:0:0:
402,192,152343,128,0,152437:0:0:0:0:
36,192,152437,128,0,152624:0:0:0:0:
475,192,152437,128,0,152905:0:0:0:0:
402,192,152530,128,0,152812:0:0:0:0:
182,192,152530,128,0,152718:0:0:0:0:
329,192,152624,128,0,152718:0:0:0:0:
109,192,152624,128,0,152812:0:0:0:0:
256,192,152718,128,0,152812:0:0:0:0:
36,192,152718,128,0,152905:0:0:0:0:
329,192,152812,1,0,0:0:0:0:
182,192,152812,1,0,0:0:0:0:
475,192,152999,1,0,0:0:0:0:
402,192,152999,1,0,0:0:0:0:
329,192,152999,1,0,0:0:0:0:
109,192,152999,1,0,0:0:0:0:
36,192,152999,1,0,0:0:0:0:
182,192,152999,1,0,0:0:0:0:
256,192,152999,1,0,0:0:0:0:
256,192,153187,1,0,0:0:0:0:
329,192,153187,1,0,0:0:0:0:
475,192,153187,128,0,153468:0:0:0:0:
182,192,153187,128,0,153468:0:0:0:0:
36,192,153187,1,0,0:0:0:0:
402,192,153280,128,0,153374:0:0:0:0:
109,192,153280,128,0,153374:0:0:0:0:
329,192,153374,128,0,153655:0:0:0:0:
36,192,153374,128,0,153655:0:0:0:0:
256,192,153374,128,0,153468:0:0:0:0:
402,192,153468,128,0,153655:0:0:0:0:
109,192,153468,128,0,153655:0:0:0:0:
182,192,153562,128,0,153843:0:0:0:0:
256,192,153562,128,0,153843:0:0:0:0:
475,192,153562,128,0,153843:0:0:0:0:
329,192,153749,128,0,154030:0:0:0:0:
36,192,153749,128,0,154030:0:0:0:0:
402,192,153749,128,0,153937:0:0:0:0:
109,192,153749,128,0,153937:0:0:0:0:
182,192,153937,128,0,154218:0:0:0:0:
256,192,153937,128,0,154030:0:0:0:0:
475,192,153937,128,0,154218:0:0:0:0:
402,192,154030,128,0,154124:0:0:0:0:
109,192,154030,128,0,154124:0:0:0:0:
256,192,154124,128,0,154312:0:0:0:0:
36,192,154124,128,0,154312:0:0:0:0:
329,192,154124,128,0,154405:0:0:0:0:
109,192,154218,128,0,154405:0:0:0:0:
402,192,154218,128,0,154499:0:0:0:0:
475,192,154312,128,0,154593:0:0:0:0:
182,192,154312,128,0,154593:0:0:0:0:
36,192,154405,128,0,154499:0:0:0:0:
256,192,154405,128,0,154593:0:0:0:0:
109,192,154499,128,0,154687:0:0:0:0:
329,192,154499,128,0,154593:0:0:0:0:
36,192,154593,128,0,154780:0:0:0:0:
402,192,154593,128,0,154687:0:0:0:0:
475,192,154687,128,0,154968:0:0:0:0:
329,192,154687,128,0,154780:0:0:0:0:
182,192,154687,128,0,154968:0:0:0:0:
256,192,154687,128,0,154780:0:0:0:0:
109,192,154780,128,0,154874:0:0:0:0:
402,192,154780,128,0,154874:0:0:0:0:
36,192,154874,128,0,155155:0:0:0:0:
256,192,154874,128,0,155062:0:0:0:0:
329,192,154874,128,0,155062:0:0:0:0:
402,192,154968,128,0,155155:0:0:0:0:
109,192,154968,128,0,155155:0:0:0:0:
475,192,155062,128,0,155343:0:0:0:0:
182,192,155062,128,0,155343:0:0:0:0:
329,192,155155,128,0,155530:0:0:0:0:
256,192,155155,128,0,155343:0:0:0:0:
109,192,155249,128,0,155437:0:0:0:0:
402,192,155249,128,0,155437:0:0:0:0:
36,192,155249,128,0,155530:0:0:0:0:
256,192,155437,128,0,155530:0:0:0:0:
182,192,155437,128,0,155718:0:0:0:0:
475,192,155437,128,0,155718:0:0:0:0:
402,192,155530,128,0,155624:0:0:0:0:
109,192,155530,128,0,155624:0:0:0:0:
329,192,155624,128,0,155905:0:0:0:0:
36,192,155624,128,0,155812:0:0:0:0:
256,192,155624,128,0,155812:0:0:0:0:
109,192,155718,128,0,155905:0:0:0:0:
402,192,155718,128,0,155999:0:0:0:0:
475,192,155812,128,0,156093:0:0:0:0:
182,192,155812,128,0,155999:0:0:0:0:
36,192,155905,128,0,155999:0:0:0:0:
256,192,155905,128,0,156093:0:0:0:0:
109,192,155999,128,0,156093:0:0:0:0:
329,192,155999,128,0,156093:0:0:0:0:
36,192,156093,128,0,156187:0:0:0:0:
402,192,156093,128,0,156187:0:0:0:0:
256,192,156187,1,0,0:0:0:0:
109,192,156187,1,0,0:0:0:0:
329,192,156187,1,0,0:0:0:0:
475,192,156187,1,0,0:0:0:0:
182,192,156187,128,0,156421:0:0:0:0:
36,192,156374,128,0,156562:0:0:0:0:
109,192,156374,128,0,156421:0:0:0:0:
402,192,156374,128,0,156421:0:0:0:0:
329,192,156374,128,0,156608:0:0:0:0:
256,192,156374,128,0,156421:0:0:0:0:
475,192,156562,128,0,156749:0:0:0:0:
109,192,156562,128,0,156796:0:0:0:0:
402,192,156562,128,0,156608:0:0:0:0:
256,192,156562,128,0,156608:0:0:0:0:
402,192,156749,128,0,156983:0:0:0:0:
182,192,156749,128,0,156796:0:0:0:0:
329,192,156749,128,0,156937:0:0:0:0:
36,192,156749,128,0,156796:0:0:0:0:
256,192,156937,128,0,156983:0:0:0:0:
36,192,156937,128,0,157171:0:0:0:0:
475,192,156937,128,0,156983:0:0:0:0:
109,192,156937,128,0,157124:0:0:0:0:
475,192,157124,128,0,157358:0:0:0:0:
329,192,157124,128,0,157171:0:0:0:0:
402,192,157124,128,0,157312:0:0:0:0:
182,192,157124,128,0,157171:0:0:0:0:
256,192,157312,128,0,157546:0:0:0:0:
329,192,157312,128,0,157358:0:0:0:0:
109,192,157312,128,0,157358:0:0:0:0:
36,192,157312,128,0,157499:0:0:0:0:
182,192,157499,128,0,157546:0:0:0:0:
109,192,157499,128,0,157733:0:0:0:0:
475,192,157499,128,0,157687:0:0:0:0:
402,192,157499,128,0,157546:0:0:0:0:
402,192,157687,128,0,157921:0:0:0:0:
256,192,157687,128,0,157874:0:0:0:0:
36,192,157687,128,0,157733:0:0:0:0:
329,192,157687,128,0,157733:0:0:0:0:
475,192,157874,128,0,157921:0:0:0:0:
182,192,157874,128,0,158108:0:0:0:0:
36,192,157874,128,0,158108:0:0:0:0:
329,192,157874,128,0,157921:0:0:0:0:
109,192,158062,128,0,158108:0:0:0:0:
475,192,158062,128,0,158155:0:0:0:0:
329,192,158062,128,0,158155:0:0:0:0:
256,192,158155,128,0,158624:0:0:0:0:
402,192,158155,128,0,158249:0:0:0:0:
475,192,158249,128,0,158343:0:0:0:0:
182,192,158249,128,0,158437:0:0:0:0:
329,192,158249,128,0,158530:0:0:0:0:
109,192,158343,128,0,158530:0:0:0:0:
402,192,158343,128,0,158437:0:0:0:0:
475,192,158437,128,0,158905:0:0:0:0:
36,192,158437,128,0,158624:0:0:0:0:
402,192,158530,128,0,158812:0:0:0:0:
182,192,158530,128,0,158718:0:0:0:0:
329,192,158624,128,0,158718:0:0:0:0:
109,192,158624,128,0,158812:0:0:0:0:
256,192,158718,128,0,158812:0:0:0:0:
36,192,158718,128,0,158905:0:0:0:0:
182,192,158812,1,0,0:0:0:0:
329,192,158812,1,0,0:0:0:0:
36,192,158999,1,0,0:0:0:0:
109,192,158999,1,0,0:0:0:0:
475,192,158999,1,0,0:0:0:0:
402,192,158999,1,0,0:0:0:0:
329,192,158999,1,0,0:0:0:0:
329,192,159187,1,0,0:0:0:0:
475,192,159187,1,0,0:0:0:0:
36,192,159187,128,0,159937:0:0:0:0:
256,192,159280,1,0,0:0:0:0:
182,192,159374,128,0,159655:0:0:0:0:
475,192,159374,1,0,0:0:0:0:
329,192,159374,1,0,0:0:0:0:
109,192,159468,1,0,0:0:0:0:
329,192,159562,128,0,159843:0:0:0:0:
402,192,159562,1,0,0:0:0:0:
256,192,159562,1,0,0:0:0:0:
109,192,159655,1,0,0:0:0:0:
475,192,159749,128,0,160030:0:0:0:0:
402,192,159749,1,0,0:0:0:0:
256,192,159749,1,0,0:0:0:0:
182,192,159843,1,0,0:0:0:0:
109,192,159937,128,0,160687:0:0:0:0:
256,192,159937,128,0,160218:0:0:0:0:
329,192,159937,1,0,0:0:0:0:
402,192,159937,1,0,0:0:0:0:
182,192,160030,1,0,0:0:0:0:
402,192,160124,128,0,160405:0:0:0:0:
329,192,160124,1,0,0:0:0:0:
475,192,160124,1,0,0:0:0:0:
182,192,160218,1,0,0:0:0:0:
36,192,160312,128,0,160593:0:0:0:0:
256,192,160312,1,0,0:0:0:0:
475,192,160312,1,0,0:0:0:0:
329,192,160405,1,0,0:0:0:0:
182,192,160499,128,0,160780:0:0:0:0:
256,192,160499,1,0,0:0:0:0:
475,192,160499,1,0,0:0:0:0:
402,192,160593,1,0,0:0:0:0:
329,192,160687,128,0,160968:0:0:0:0:
36,192,160687,1,0,0:0:0:0:
475,192,160687,1,0,0:0:0:0:
256,192,160780,1,0,0:0:0:0:
475,192,160874,128,0,161155:0:0:0:0:
36,192,160874,1,0,0:0:0:0:
402,192,160874,1,0,0:0:0:0:
109,192,160968,1,0,0:0:0:0:
182,192,161062,128,0,161530:0:0:0:0:
402,192,161062,1,0,0:0:0:0:
109,192,161155,128,0,161624:0:0:0:0:
256,192,161155,128,0,161437:0:0:0:0:
36,192,161249,128,0,161718:0:0:0:0:
329,192,161249,128,0,161343:0:0:0:0:
475,192,161249,1,0,0:0:0:0:
402,192,161343,128,0,161812:0:0:0:0:
475,192,161437,128,0,161905:0:0:0:0:
329,192,161437,128,0,161718:0:0:0:0:
256,192,161530,128,0,161999:0:0:0:0:
182,192,161624,128,0,162093:0:0:0:0:
109,192,161718,128,0,161999:0:0:0:0:
36,192,161812,128,0,161905:0:0:0:0:
329,192,161812,128,0,161905:0:0:0:0:
402,192,161905,128,0,161999:0:0:0:0:
329,192,161999,128,0,162093:0:0:0:0:
256,192,162093,128,0,162187:0:0:0:0:
36,192,162187,128,0,162937:0:0:0:0:
475,192,162187,1,0,0:0:0:0:
109,192,162187,1,0,0:0:0:0:
402,192,162280,1,0,0:0:0:0:
182,192,162374,128,0,162655:0:0:0:0:
256,192,162374,1,0,0:0:0:0:
329,192,162374,1,0,0:0:0:0:
109,192,162468,1,0,0:0:0:0:
256,192,162562,1,0,0:0:0:0:
402,192,162562,1,0,0:0:0:0:
329,192,162562,128,0,162843:0:0:0:0:
109,192,162655,1,0,0:0:0:0:
475,192,162749,128,0,163030:0:0:0:0:
256,192,162749,1,0,0:0:0:0:
402,192,162749,1,0,0:0:0:0:
182,192,162843,1,0,0:0:0:0:
329,192,162937,1,0,0:0:0:0:
109,192,162937,128,0,163687:0:0:0:0:
402,192,162937,1,0,0:0:0:0:
256,192,162937,128,0,163218:0:0:0:0:
182,192,163030,1,0,0:0:0:0:
475,192,163124,1,0,0:0:0:0:
402,192,163124,128,0,163405:0:0:0:0:
36,192,163124,1,0,0:0:0:0:
182,192,163218,1,0,0:0:0:0:
475,192,163312,1,0,0:0:0:0:
256,192,163312,1,0,0:0:0:0:
36,192,163312,128,0,163593:0:0:0:0:
329,192,163405,1,0,0:0:0:0:
182,192,163499,128,0,163780:0:0:0:0:
256,192,163499,1,0,0:0:0:0:
475,192,163499,1,0,0:0:0:0:
402,192,163593,1,0,0:0:0:0:
329,192,163687,128,0,163968:0:0:0:0:
475,192,163687,1,0,0:0:0:0:
36,192,163687,1,0,0:0:0:0:
256,192,163780,1,0,0:0:0:0:
36,192,163874,1,0,0:0:0:0:
475,192,163874,128,0,164155:0:0:0:0:
402,192,163874,1,0,0:0:0:0:
109,192,163968,1,0,0:0:0:0:
402,192,164062,1,0,0:0:0:0:
329,192,164062,128,0,164343:0:0:0:0:
182,192,164062,1,0,0:0:0:0:
256,192,164062,1,0,0:0:0:0:
109,192,164155,1,0,0:0:0:0:
475,192,164249,128,0,164530:0:0:0:0:
36,192,164249,1,0,0:0:0:0:
109,192,164343,1,0,0:0:0:0:
256,192,164437,128,0,164483:0:0:0:0:
182,192,164437,128,0,164483:0:0:0:0:
329,192,164437,128,0,164671:0:0:0:0:
36,192,164437,1,0,0:0:0:0:
402,192,164530,1,0,0:0:0:0:
256,192,164624,128,0,164671:0:0:0:0:
182,192,164624,128,0,164671:0:0:0:0:
36,192,164624,1,0,0:0:0:0:
475,192,164624,1,0,0:0:0:0:
109,192,164812,128,0,164858:0:0:0:0:
36,192,164812,128,0,164858:0:0:0:0:
182,192,164812,128,0,165046:0:0:0:0:
402,192,164812,1,0,0:0:0:0:
256,192,164905,1,0,0:0:0:0:
109,192,164999,128,0,165046:0:0:0:0:
36,192,164999,128,0,165046:0:0:0:0:
329,192,164999,1,0,0:0:0:0:
402,192,165093,1,0,0:0:0:0:
329,192,165187,128,0,165280:0:0:0:0:
475,192,165187,128,0,165280:0:0:0:0:
256,192,165187,128,0,165468:0:0:0:0:
36,192,165187,1,0,0:0:0:0:
109,192,165280,1,0,0:0:0:0:
475,192,165374,128,0,165468:0:0:0:0:
329,192,165374,128,0,165468:0:0:0:0:
182,192,165374,1,0,0:0:0:0:
182,192,165562,128,0,165655:0:0:0:0:
109,192,165562,128,0,165749:0:0:0:0:
36,192,165562,128,0,165843:0:0:0:0:
402,192,165562,128,0,165749:0:0:0:0:
256,192,165562,1,0,0:0:0:0:
329,192,165562,1,0,0:0:0:0:
182,192,165749,128,0,165843:0:0:0:0:
329,192,165749,1,0,0:0:0:0:
109,192,165843,128,0,165937:0:0:0:0:
402,192,165843,1,0,0:0:0:0:
182,192,165937,1,0,0:0:0:0:
36,192,165937,128,0,166030:0:0:0:0:
475,192,165937,1,0,0:0:0:0:
256,192,165937,128,0,166124:0:0:0:0:
109,192,166030,1,0,0:0:0:0:
402,192,166030,1,0,0:0:0:0:
36,192,166124,1,0,0:0:0:0:
329,192,166124,1,0,0:0:0:0:
109,192,166218,1,0,0:0:0:0:
402,192,166218,1,0,0:0:0:0:
182,192,166312,1,0,0:0:0:0:
256,192,166312,1,0,0:0:0:0:
329,192,166312,1,0,0:0:0:0:
475,192,166312,1,0,0:0:0:0:
109,192,166405,1,0,0:0:0:0:
402,192,166405,1,0,0:0:0:0:
36,192,166499,1,0,0:0:0:0:
329,192,166499,128,0,166687:0:0:0:0:
256,192,166499,1,0,0:0:0:0:
475,192,166687,1,0,0:0:0:0:
36,192,166687,128,0,166780:0:0:0:0:
182,192,166687,128,0,166780:0:0:0:0:
256,192,166687,128,0,166968:0:0:0:0:
402,192,166780,1,0,0:0:0:0:
182,192,166874,128,0,166968:0:0:0:0:
329,192,166874,1,0,0:0:0:0:
36,192,166874,128,0,166968:0:0:0:0:
256,192,167062,1,0,0:0:0:0:
329,192,167062,128,0,167155:0:0:0:0:
475,192,167062,128,0,167343:0:0:0:0:
182,192,167062,1,0,0:0:0:0:
402,192,167062,128,0,167249:0:0:0:0:
109,192,167062,128,0,167249:0:0:0:0:
329,192,167249,128,0,167343:0:0:0:0:
182,192,167249,1,0,0:0:0:0:
109,192,167343,1,0,0:0:0:0:
402,192,167343,128,0,167437:0:0:0:0:
475,192,167437,128,0,167530:0:0:0:0:
256,192,167437,128,0,167624:0:0:0:0:
36,192,167437,1,0,0:0:0:0:
329,192,167437,1,0,0:0:0:0:
402,192,167530,1,0,0:0:0:0:
109,192,167530,1,0,0:0:0:0:
182,192,167624,1,0,0:0:0:0:
475,192,167624,1,0,0:0:0:0:
109,192,167718,1,0,0:0:0:0:
402,192,167718,1,0,0:0:0:0:
329,192,167812,1,0,0:0:0:0:
36,192,167812,1,0,0:0:0:0:
256,192,167812,1,0,0:0:0:0:
475,192,167905,1,0,0:0:0:0:
182,192,167905,1,0,0:0:0:0:
402,192,167999,1,0,0:0:0:0:
109,192,167999,1,0,0:0:0:0:
329,192,168093,1,0,0:0:0:0:
36,192,168093,1,0,0:0:0:0:
256,192,168187,1,0,0:0:0:0:
475,192,168187,1,0,0:0:0:0:
329,192,168374,128,0,168655:0:0:0:0:
182,192,168374,128,0,168655:0:0:0:0:
475,192,168374,128,0,169874:0:0:0:0:
256,192,168562,128,0,168843:0:0:0:0:
109,192,168562,128,0,168843:0:0:0:0:
36,192,168562,128,0,169218:0:0:0:0:
182,192,168749,128,0,168843:0:0:0:0:
329,192,168749,128,0,169030:0:0:0:0:
402,192,168749,128,0,169030:0:0:0:0:
256,192,168937,1,0,0:0:0:0:
182,192,168937,1,0,0:0:0:0:
109,192,168937,1,0,0:0:0:0:
329,192,169124,1,0,0:0:0:0:
402,192,169124,1,0,0:0:0:0:
36,192,169312,1,0,0:0:0:0:
182,192,169312,1,0,0:0:0:0:
256,192,169499,1,0,0:0:0:0:
329,192,169499,1,0,0:0:0:0:
402,192,169499,1,0,0:0:0:0:
109,192,169499,1,0,0:0:0:0:
36,192,169499,128,0,169874:0:0:0:0:
182,192,169874,1,0,0:0:0:0:
329,192,169874,1,0,0:0:0:0:
402,192,169874,1,0,0:0:0:0:
36,192,170062,1,0,0:0:0:0:
256,192,170062,1,0,0:0:0:0:
402,192,170249,1,0,0:0:0:0:
109,192,170249,1,0,0:0:0:0:
329,192,170249,1,0,0:0:0:0:
256,192,170249,128,0,170624:0:0:0:0:
475,192,170249,128,0,170437:0:0:0:0:
182,192,170624,1,0,0:0:0:0:
475,192,170624,1,0,0:0:0:0:
329,192,170624,1,0,0:0:0:0:
109,192,170718,1,0,0:0:0:0:
402,192,170812,1,0,0:0:0:0:
475,192,170812,1,0,0:0:0:0:
36,192,170812,1,0,0:0:0:0:
329,192,170858,1,0,0:0:0:0:
256,192,170905,1,0,0:0:0:0:
182,192,170952,1,0,0:0:0:0:
109,192,170999,1,0,0:0:0:0:
475,192,170999,1,0,0:0:0:0:
36,192,171046,1,0,0:0:0:0:
402,192,171046,1,0,0:0:0:0:
329,192,171093,1,0,0:0:0:0:
256,192,171140,1,0,0:0:0:0:
182,192,171187,1,0,0:0:0:0:
109,192,171187,128,0,171468:0:0:0:0:
36,192,171187,128,0,171468:0:0:0:0:
475,192,171187,1,0,0:0:0:0:
402,192,171187,1,0,0:0:0:0:
256,192,171374,1,0,0:0:0:0:
402,192,171374,1,0,0:0:0:0:
182,192,171562,1,0,0:0:0:0:
256,192,171562,1,0,0:0:0:0:
329,192,171562,1,0,0:0:0:0:
109,192,171749,1,0,0:0:0:0:
36,192,171749,1,0,0:0:0:0:
402,192,171749,1,0,0:0:0:0:
475,192,171749,1,0,0:0:0:0:
329,192,171843,1,0,0:0:0:0:
109,192,171937,128,0,172218:0:0:0:0:
36,192,171937,128,0,172218:0:0:0:0:
182,192,171937,1,0,0:0:0:0:
475,192,171937,1,0,0:0:0:0:
256,192,171937,1,0,0:0:0:0:
256,192,172124,1,0,0:0:0:0:
402,192,172124,1,0,0:0:0:0:
256,192,172312,1,0,0:0:0:0:
182,192,172312,1,0,0:0:0:0:
109,192,172312,1,0,0:0:0:0:
329,192,172405,1,0,0:0:0:0:
109,192,172499,1,0,0:0:0:0:
36,192,172499,1,0,0:0:0:0:
402,192,172499,1,0,0:0:0:0:
475,192,172499,1,0,0:0:0:0:
329,192,172593,1,0,0:0:0:0:
109,192,172687,128,0,172968:0:0:0:0:
36,192,172687,128,0,172968:0:0:0:0:
256,192,172687,1,0,0:0:0:0:
182,192,172687,1,0,0:0:0:0:
475,192,172687,1,0,0:0:0:0:
256,192,172874,1,0,0:0:0:0:
402,192,172874,1,0,0:0:0:0:
256,192,173062,1,0,0:0:0:0:
182,192,173062,1,0,0:0:0:0:
329,192,173062,1,0,0:0:0:0:
109,192,173249,1,0,0:0:0:0:
36,192,173249,1,0,0:0:0:0:
402,192,173249,1,0,0:0:0:0:
475,192,173249,1,0,0:0:0:0:
329,192,173343,1,0,0:0:0:0:
109,192,173437,128,0,173718:0:0:0:0:
36,192,173437,128,0,173718:0:0:0:0:
256,192,173437,1,0,0:0:0:0:
182,192,173437,1,0,0:0:0:0:
475,192,173437,1,0,0:0:0:0:
329,192,173624,1,0,0:0:0:0:
402,192,173624,1,0,0:0:0:0:
475,192,173812,1,0,0:0:0:0:
402,192,173812,1,0,0:0:0:0:
256,192,173812,1,0,0:0:0:0:
182,192,173999,1,0,0:0:0:0:
109,192,173999,1,0,0:0:0:0:
36,192,173999,1,0,0:0:0:0:
329,192,173999,1,0,0:0:0:0:
256,192,174187,128,0,174468:0:0:0:0:
329,192,174187,128,0,174468:0:0:0:0:
475,192,174187,1,0,0:0:0:0:
402,192,174187,1,0,0:0:0:0:
36,192,174187,1,0,0:0:0:0:
109,192,174374,1,0,0:0:0:0:
182,192,174374,1,0,0:0:0:0:
36,192,174562,1,0,0:0:0:0:
329,192,174562,1,0,0:0:0:0:
402,192,174562,1,0,0:0:0:0:
109,192,174655,1,0,0:0:0:0:
182,192,174749,1,0,0:0:0:0:
475,192,174749,1,0,0:0:0:0:
109,192,174843,1,0,0:0:0:0:
329,192,174937,128,0,175218:0:0:0:0:
256,192,174937,128,0,175218:0:0:0:0:
36,192,174937,1,0,0:0:0:0:
402,192,174937,1,0,0:0:0:0:
475,192,174937,1,0,0:0:0:0:
182,192,175124,1,0,0:0:0:0:
109,192,175124,1,0,0:0:0:0:
36,192,175312,1,0,0:0:0:0:
329,192,175312,1,0,0:0:0:0:
402,192,175312,1,0,0:0:0:0:
109,192,175405,1,0,0:0:0:0:
182,192,175499,1,0,0:0:0:0:
402,192,175499,1,0,0:0:0:0:
109,192,175593,1,0,0:0:0:0:
329,192,175687,128,0,175968:0:0:0:0:
256,192,175687,128,0,175968:0:0:0:0:
402,192,175687,1,0,0:0:0:0:
475,192,175687,1,0,0:0:0:0:
36,192,175687,1,0,0:0:0:0:
109,192,175874,1,0,0:0:0:0:
402,192,175874,1,0,0:0:0:0:
36,192,176062,1,0,0:0:0:0:
182,192,176062,1,0,0:0:0:0:
329,192,176062,1,0,0:0:0:0:
475,192,176062,1,0,0:0:0:0:
182,192,176249,1,0,0:0:0:0:
402,192,176249,1,0,0:0:0:0:
329,192,176249,1,0,0:0:0:0:
109,192,176343,1,0,0:0:0:0:
256,192,176437,128,0,176718:0:0:0:0:
329,192,176437,128,0,176718:0:0:0:0:
36,192,176437,1,0,0:0:0:0:
475,192,176437,1,0,0:0:0:0:
402,192,176437,1,0,0:0:0:0:
182,192,176624,1,0,0:0:0:0:
109,192,176624,1,0,0:0:0:0:
182,192,176812,1,0,0:0:0:0:
36,192,176812,1,0,0:0:0:0:
329,192,176812,1,0,0:0:0:0:
402,192,176905,1,0,0:0:0:0:
475,192,176999,1,0,0:0:0:0:
109,192,176999,1,0,0:0:0:0:
402,192,177093,1,0,0:0:0:0:
182,192,177187,128,0,177468:0:0:0:0:
109,192,177187,128,0,177468:0:0:0:0:
329,192,177187,1,0,0:0:0:0:
36,192,177187,1,0,0:0:0:0:
402,192,177374,1,0,0:0:0:0:
256,192,177374,1,0,0:0:0:0:
475,192,177562,1,0,0:0:0:0:
109,192,177562,1,0,0:0:0:0:
256,192,177562,1,0,0:0:0:0:
329,192,177655,1,0,0:0:0:0:
402,192,177749,1,0,0:0:0:0:
36,192,177749,1,0,0:0:0:0:
329,192,177843,1,0,0:0:0:0:
182,192,177937,128,0,178218:0:0:0:0:
109,192,177937,128,0,178218:0:0:0:0:
256,192,177937,1,0,0:0:0:0:
475,192,177937,1,0,0:0:0:0:
36,192,177937,1,0,0:0:0:0:
256,192,178124,1,0,0:0:0:0:
402,192,178124,1,0,0:0:0:0:
109,192,178312,1,0,0:0:0:0:
329,192,178312,1,0,0:0:0:0:
475,192,178312,1,0,0:0:0:0:
402,192,178499,1,0,0:0:0:0:
36,192,178499,1,0,0:0:0:0:
329,192,178593,1,0,0:0:0:0:
182,192,178687,128,0,178968:0:0:0:0:
109,192,178687,128,0,178968:0:0:0:0:
256,192,178687,1,0,0:0:0:0:
36,192,178687,1,0,0:0:0:0:
475,192,178687,1,0,0:0:0:0:
329,192,178874,1,0,0:0:0:0:
402,192,178874,1,0,0:0:0:0:
256,192,179062,1,0,0:0:0:0:
109,192,179062,1,0,0:0:0:0:
36,192,179062,1,0,0:0:0:0:
402,192,179249,1,0,0:0:0:0:
182,192,179249,1,0,0:0:0:0:
329,192,179343,1,0,0:0:0:0:
182,192,179437,128,0,179718:0:0:0:0:
109,192,179437,128,0,179718:0:0:0:0:
256,192,179437,1,0,0:0:0:0:
329,192,179624,1,0,0:0:0:0:
475,192,179624,1,0,0:0:0:0:
402,192,179812,1,0,0:0:0:0:
256,192,179812,1,0,0:0:0:0:
109,192,179812,1,0,0:0:0:0:
36,192,179812,1,0,0:0:0:0:
329,192,179999,1,0,0:0:0:0:
182,192,179999,1,0,0:0:0:0:
402,192,180187,128,0,180468:0:0:0:0:
475,192,180187,128,0,180468:0:0:0:0:
256,192,180187,1,0,0:0:0:0:
109,192,180187,1,0,0:0:0:0:
36,192,180187,1,0,0:0:0:0:
329,192,180374,1,0,0:0:0:0:
182,192,180374,1,0,0:0:0:0:
256,192,180562,1,0,0:0:0:0:
402,192,180562,1,0,0:0:0:0:
36,192,180562,1,0,0:0:0:0:
182,192,180655,1,0,0:0:0:0:
109,192,180749,1,0,0:0:0:0:
475,192,180749,1,0,0:0:0:0:
182,192,180843,1,0,0:0:0:0:
402,192,180937,128,0,181218:0:0:0:0:
475,192,180937,128,0,181218:0:0:0:0:
256,192,180937,1,0,0:0:0:0:
329,192,180937,1,0,0:0:0:0:
36,192,180937,1,0,0:0:0:0:
182,192,181124,1,0,0:0:0:0:
109,192,181124,1,0,0:0:0:0:
402,192,181312,1,0,0:0:0:0:
182,192,181312,1,0,0:0:0:0:
36,192,181312,1,0,0:0:0:0:
182,192,181499,1,0,0:0:0:0:
329,192,181499,1,0,0:0:0:0:
256,192,181593,1,0,0:0:0:0:
402,192,181687,128,0,181968:0:0:0:0:
475,192,181687,128,0,181968:0:0:0:0:
329,192,181687,1,0,0:0:0:0:
36,192,181687,1,0,0:0:0:0:
109,192,181687,1,0,0:0:0:0:
182,192,181874,1,0,0:0:0:0:
256,192,181874,1,0,0:0:0:0:
329,192,182062,1,0,0:0:0:0:
36,192,182062,1,0,0:0:0:0:
109,192,182062,1,0,0:0:0:0:
256,192,182155,1,0,0:0:0:0:
182,192,182249,1,0,0:0:0:0:
402,192,182249,1,0,0:0:0:0:
256,192,182343,1,0,0:0:0:0:
402,192,182437,128,0,182718:0:0:0:0:
475,192,182437,128,0,182718:0:0:0:0:
329,192,182437,1,0,0:0:0:0:
109,192,182437,1,0,0:0:0:0:
36,192,182437,1,0,0:0:0:0:
36,192,182624,1,0,0:0:0:0:
109,192,182671,1,0,0:0:0:0:
182,192,182718,1,0,0:0:0:0:
256,192,182765,1,0,0:0:0:0:
329,192,182812,1,0,0:0:0:0:
402,192,182812,1,0,0:0:0:0:
475,192,182812,1,0,0:0:0:0:
475,192,182999,1,0,0:0:0:0:
182,192,182999,1,0,0:0:0:0:
36,192,182999,1,0,0:0:0:0:
402,192,183046,1,0,0:0:0:0:
329,192,183093,1,0,0:0:0:0:
256,192,183140,1,0,0:0:0:0:
182,192,183187,1,0,0:0:0:0:
109,192,183187,1,0,0:0:0:0:
36,192,183187,1,0,0:0:0:0:
475,192,183187,128,0,184687:0:0:0:0:
402,192,183187,128,0,183421:0:0:0:0:
182,192,183374,128,0,183421:0:0:0:0:
36,192,183374,128,0,183421:0:0:0:0:
256,192,183374,1,0,0:0:0:0:
329,192,183562,128,0,183796:0:0:0:0:
109,192,183562,1,0,0:0:0:0:
182,192,183749,128,0,183796:0:0:0:0:
36,192,183749,128,0,183796:0:0:0:0:
256,192,183749,1,0,0:0:0:0:
182,192,183937,128,0,185437:0:0:0:0:
329,192,183937,128,0,184171:0:0:0:0:
109,192,183937,1,0,0:0:0:0:
256,192,184124,128,0,184171:0:0:0:0:
36,192,184124,128,0,184171:0:0:0:0:
402,192,184124,1,0,0:0:0:0:
402,192,184312,128,0,184546:0:0:0:0:
329,192,184312,1,0,0:0:0:0:
256,192,184499,128,0,184546:0:0:0:0:
109,192,184499,128,0,184546:0:0:0:0:
36,192,184499,1,0,0:0:0:0:
36,192,184687,128,0,186187:0:0:0:0:
329,192,184687,128,0,184921:0:0:0:0:
256,192,184687,1,0,0:0:0:0:
402,192,184874,128,0,184921:0:0:0:0:
109,192,184874,128,0,184921:0:0:0:0:
475,192,184874,1,0,0:0:0:0:
256,192,185062,128,0,185296:0:0:0:0:
402,192,185062,1,0,0:0:0:0:
329,192,185249,128,0,185296:0:0:0:0:
475,192,185249,128,0,185296:0:0:0:0:
109,192,185249,1,0,0:0:0:0:
329,192,185437,128,0,186937:0:0:0:0:
109,192,185437,128,0,185671:0:0:0:0:
402,192,185437,1,0,0:0:0:0:
182,192,185624,128,0,185671:0:0:0:0:
402,192,185624,128,0,185671:0:0:0:0:
256,192,185624,1,0,0:0:0:0:
475,192,185812,128,0,186046:0:0:0:0:
182,192,185812,1,0,0:0:0:0:
402,192,185999,128,0,186046:0:0:0:0:
256,192,185999,128,0,186046:0:0:0:0:
109,192,185999,1,0,0:0:0:0:
182,192,186187,128,0,187687:0:0:0:0:
402,192,186187,128,0,186421:0:0:0:0:
256,192,186187,1,0,0:0:0:0:
256,192,186374,128,0,186421:0:0:0:0:
109,192,186374,128,0,186421:0:0:0:0:
36,192,186374,1,0,0:0:0:0:
256,192,186562,128,0,186796:0:0:0:0:
475,192,186562,1,0,0:0:0:0:
109,192,186749,128,0,186796:0:0:0:0:
402,192,186749,128,0,186796:0:0:0:0:
36,192,186749,1,0,0:0:0:0:
475,192,186937,128,0,188437:0:0:0:0:
109,192,186937,128,0,187171:0:0:0:0:
256,192,186937,1,0,0:0:0:0:
36,192,187124,128,0,187171:0:0:0:0:
329,192,187124,128,0,187171:0:0:0:0:
402,192,187124,1,0,0:0:0:0:
36,192,187312,128,0,187546:0:0:0:0:
329,192,187312,1,0,0:0:0:0:
256,192,187499,128,0,187546:0:0:0:0:
402,192,187499,128,0,187546:0:0:0:0:
109,192,187499,1,0,0:0:0:0:
329,192,187687,128,0,189187:0:0:0:0:
109,192,187687,128,0,187921:0:0:0:0:
256,192,187687,1,0,0:0:0:0:
182,192,187874,128,0,187921:0:0:0:0:
402,192,187874,128,0,187921:0:0:0:0:
36,192,187874,1,0,0:0:0:0:
182,192,188062,128,0,188296:0:0:0:0:
109,192,188062,1,0,0:0:0:0:
256,192,188249,128,0,188296:0:0:0:0:
402,192,188249,128,0,188296:0:0:0:0:
36,192,188249,1,0,0:0:0:0:
36,192,188437,128,0,188671:0:0:0:0:
182,192,188437,1,0,0:0:0:0:
109,192,188624,128,0,188671:0:0:0:0:
256,192,188624,128,0,188671:0:0:0:0:
402,192,188624,1,0,0:0:0:0:
109,192,188812,128,0,189046:0:0:0:0:
475,192,188812,1,0,0:0:0:0:
182,192,188999,128,0,189046:0:0:0:0:
402,192,188999,128,0,189046:0:0:0:0:
36,192,188999,1,0,0:0:0:0:
475,192,188999,128,0,189937:0:0:0:0:
109,192,189187,1,0,0:0:0:0:
256,192,189187,1,0,0:0:0:0:
109,192,189374,1,0,0:0:0:0:
329,192,189374,1,0,0:0:0:0:
109,192,189562,1,0,0:0:0:0:
256,192,189562,1,0,0:0:0:0:
109,192,189749,1,0,0:0:0:0:
329,192,189749,1,0,0:0:0:0:
109,192,189937,1,0,0:0:0:0:
256,192,189937,1,0,0:0:0:0:
329,192,190124,1,0,0:0:0:0:
182,192,190124,1,0,0:0:0:0:
36,192,190124,1,0,0:0:0:0:
402,192,190124,1,0,0:0:0:0:
256,192,190312,1,0,0:0:0:0:
109,192,190312,1,0,0:0:0:0:
475,192,190312,1,0,0:0:0:0:
402,192,190499,128,0,191437:0:0:0:0:
182,192,190499,1,0,0:0:0:0:
182,192,190687,1,0,0:0:0:0:
256,192,190687,1,0,0:0:0:0:
182,192,190874,1,0,0:0:0:0:
36,192,190874,1,0,0:0:0:0:
182,192,191062,1,0,0:0:0:0:
256,192,191062,1,0,0:0:0:0:
182,192,191249,1,0,0:0:0:0:
36,192,191249,1,0,0:0:0:0:
182,192,191437,1,0,0:0:0:0:
256,192,191437,1,0,0:0:0:0:
329,192,191624,1,0,0:0:0:0:
182,192,191624,1,0,0:0:0:0:
36,192,191624,1,0,0:0:0:0:
256,192,191812,1,0,0:0:0:0:
109,192,191812,1,0,0:0:0:0:
402,192,191999,128,0,192374:0:0:0:0:
329,192,191999,128,0,192046:0:0:0:0:
256,192,191999,128,0,192046:0:0:0:0:
182,192,191999,128,0,192046:0:0:0:0:
109,192,191999,128,0,192046:0:0:0:0:
36,192,191999,128,0,192562:0:0:0:0:
256,192,192374,128,0,192562:0:0:0:0:
475,192,192562,128,0,193546:0:0:0:0:
109,192,192749,128,0,193124:0:0:0:0:
182,192,192749,128,0,192796:0:0:0:0:
256,192,192749,128,0,192796:0:0:0:0:
329,192,192749,128,0,192796:0:0:0:0:
402,192,192749,128,0,192796:0:0:0:0:
256,192,193124,128,0,193312:0:0:0:0:
36,192,193312,128,0,193546:0:0:0:0:
402,192,193499,128,0,193874:0:0:0:0:
329,192,193499,128,0,193546:0:0:0:0:
256,192,193499,128,0,193546:0:0:0:0:
182,192,193499,128,0,193546:0:0:0:0:
109,192,193499,128,0,193546:0:0:0:0:
329,192,193874,128,0,194062:0:0:0:0:
182,192,194062,128,0,194249:0:0:0:0:
256,192,194249,5,0,0:0:0:0:
402,192,194249,1,0,0:0:0:0:
475,192,194249,1,0,0:0:0:0:
109,192,194249,1,0,0:0:0:0:
36,192,194249,1,0,0:0:0:0:
329,192,194624,5,0,0:0:0:0:
182,192,194624,1,0,0:0:0:0:
109,192,194624,1,0,0:0:0:0:
36,192,194812,128,0,195374:0:0:0:0:
182,192,194999,128,0,195562:0:0:0:0:
256,192,194999,1,0,0:0:0:0:
402,192,194999,1,0,0:0:0:0:
475,192,194999,1,0,0:0:0:0:
329,192,195187,128,0,195749:0:0:0:0:
109,192,195374,128,0,195843:0:0:0:0:
256,192,195562,128,0,196030:0:0:0:0:
402,192,195749,128,0,196218:0:0:0:0:
109,192,195937,128,0,195983:0:0:0:0:
256,192,196124,128,0,196171:0:0:0:0:
402,192,196312,128,0,196358:0:0:0:0:
36,192,196499,128,0,196546:0:0:0:0:
109,192,196499,128,0,196546:0:0:0:0:
182,192,196499,128,0,196546:0:0:0:0:
256,192,196499,128,0,196546:0:0:0:0:
329,192,196499,128,0,196546:0:0:0:0:
329,192,197062,1,0,0:0:0:0:
475,192,197062,1,0,0:0:0:0:
182,192,197249,1,0,0:0:0:0:
36,192,197249,1,0,0:0:0:0:
256,192,197437,1,0,0:0:0:0:
36,192,197437,1,0,0:0:0:0:
402,192,197437,128,0,197624:0:0:0:0:
475,192,197437,128,0,197624:0:0:0:0:
182,192,197624,1,0,0:0:0:0:
109,192,197624,1,0,0:0:0:0:
402,192,197812,1,0,0:0:0:0:
475,192,197812,1,0,0:0:0:0:
256,192,197812,128,0,197999:0:0:0:0:
36,192,197812,128,0,197999:0:0:0:0:
182,192,197999,1,0,0:0:0:0:
109,192,197999,1,0,0:0:0:0:
329,192,198187,1,0,0:0:0:0:
109,192,198187,1,0,0:0:0:0:
402,192,198187,1,0,0:0:0:0:
256,192,198187,1,0,0:0:0:0:
36,192,198187,128,0,199499:0:0:0:0:
182,192,198374,1,0,0:0:0:0:
475,192,198562,1,0,0:0:0:0:
256,192,198562,1,0,0:0:0:0:
182,192,198749,1,0,0:0:0:0:
329,192,198937,1,0,0:0:0:0:
402,192,198937,1,0,0:0:0:0:
182,192,199124,1,0,0:0:0:0:
402,192,199312,1,0,0:0:0:0:
329,192,199312,1,0,0:0:0:0:
256,192,199499,1,0,0:0:0:0:
109,192,199499,1,0,0:0:0:0:
36,192,199687,1,0,0:0:0:0:
402,192,199687,1,0,0:0:0:0:
329,192,199687,1,0,0:0:0:0:
475,192,199687,128,0,200999:0:0:0:0:
182,192,199687,1,0,0:0:0:0:
329,192,199874,1,0,0:0:0:0:
36,192,200062,1,0,0:0:0:0:
256,192,200062,1,0,0:0:0:0:
329,192,200249,1,0,0:0:0:0:
109,192,200437,1,0,0:0:0:0:
182,192,200437,1,0,0:0:0:0:
329,192,200624,1,0,0:0:0:0:
109,192,200812,1,0,0:0:0:0:
182,192,200812,1,0,0:0:0:0:
256,192,200999,1,0,0:0:0:0:
109,192,201187,1,0,0:0:0:0:
475,192,201187,128,0,201233:0:0:0:0:
329,192,201187,128,0,201608:0:0:0:0:
36,192,201187,1,0,0:0:0:0:
402,192,201187,128,0,201421:0:0:0:0:
182,192,201187,1,0,0:0:0:0:
36,192,201374,128,0,201421:0:0:0:0:
109,192,201374,128,0,201608:0:0:0:0:
256,192,201562,128,0,201983:0:0:0:0:
402,192,201562,128,0,201608:0:0:0:0:
475,192,201562,128,0,201796:0:0:0:0:
109,192,201749,128,0,201796:0:0:0:0:
36,192,201749,128,0,201983:0:0:0:0:
475,192,201937,128,0,201983:0:0:0:0:
402,192,201937,128,0,202171:0:0:0:0:
182,192,201937,128,0,202358:0:0:0:0:
36,192,202124,128,0,202358:0:0:0:0:
109,192,202124,128,0,202171:0:0:0:0:
402,192,202312,128,0,202546:0:0:0:0:
256,192,202312,128,0,202733:0:0:0:0:
329,192,202312,128,0,202358:0:0:0:0:
109,192,202499,128,0,202733:0:0:0:0:
182,192,202499,128,0,202546:0:0:0:0:
36,192,202687,128,0,202733:0:0:0:0:
402,192,202687,128,0,203108:0:0:0:0:
329,192,202687,128,0,202921:0:0:0:0:
475,192,202687,128,0,202733:0:0:0:0:
109,192,202874,128,0,202921:0:0:0:0:
182,192,202874,128,0,203108:0:0:0:0:
256,192,203062,128,0,203624:0:0:0:0:
329,192,203062,128,0,203108:0:0:0:0:
36,192,203062,1,0,0:0:0:0:
475,192,203062,128,0,203999:0:0:0:0:
109,192,203249,1,0,0:0:0:0:
329,192,203249,1,0,0:0:0:0:
36,192,203437,1,0,0:0:0:0:
402,192,203437,1,0,0:0:0:0:
109,192,203624,1,0,0:0:0:0:
36,192,203812,1,0,0:0:0:0:
256,192,203812,1,0,0:0:0:0:
329,192,203812,128,0,203999:0:0:0:0:
182,192,203812,1,0,0:0:0:0:
109,192,203999,1,0,0:0:0:0:
109,192,204187,1,0,0:0:0:0:
475,192,204187,1,0,0:0:0:0:
182,192,204187,1,0,0:0:0:0:
256,192,204187,1,0,0:0:0:0:
402,192,204187,128,0,204468:0:0:0:0:
36,192,204187,128,0,205499:0:0:0:0:
182,192,204374,1,0,0:0:0:0:
256,192,204562,1,0,0:0:0:0:
475,192,204562,1,0,0:0:0:0:
329,192,204562,128,0,204843:0:0:0:0:
182,192,204749,1,0,0:0:0:0:
329,192,204937,1,0,0:0:0:0:
256,192,204937,128,0,205218:0:0:0:0:
402,192,204937,1,0,0:0:0:0:
182,192,205124,1,0,0:0:0:0:
256,192,205312,1,0,0:0:0:0:
329,192,205312,1,0,0:0:0:0:
475,192,205312,128,0,205499:0:0:0:0:
109,192,205499,1,0,0:0:0:0:
256,192,205499,1,0,0:0:0:0:
182,192,205499,128,0,205687:0:0:0:0:
329,192,205687,1,0,0:0:0:0:
402,192,205687,1,0,0:0:0:0:
36,192,205687,1,0,0:0:0:0:
475,192,205687,128,0,206999:0:0:0:0:
256,192,205687,128,0,205874:0:0:0:0:
329,192,205874,1,0,0:0:0:0:
109,192,205874,128,0,206062:0:0:0:0:
182,192,206062,128,0,206249:0:0:0:0:
36,192,206062,1,0,0:0:0:0:
256,192,206062,1,0,0:0:0:0:
256,192,206249,128,0,206437:0:0:0:0:
329,192,206249,1,0,0:0:0:0:
109,192,206437,1,0,0:0:0:0:
182,192,206437,1,0,0:0:0:0:
402,192,206437,128,0,206718:0:0:0:0:
329,192,206624,1,0,0:0:0:0:
182,192,206812,1,0,0:0:0:0:
36,192,206812,128,0,206999:0:0:0:0:
109,192,206812,1,0,0:0:0:0:
256,192,206999,1,0,0:0:0:0:
109,192,206999,128,0,207187:0:0:0:0:
402,192,207187,128,0,207421:0:0:0:0:
182,192,207187,1,0,0:0:0:0:
36,192,207187,1,0,0:0:0:0:
329,192,207187,128,0,207233:0:0:0:0:
256,192,207187,128,0,207608:0:0:0:0:
109,192,207374,128,0,207608:0:0:0:0:
182,192,207374,128,0,207421:0:0:0:0:
182,192,207562,128,0,207983:0:0:0:0:
475,192,207562,128,0,207796:0:0:0:0:
402,192,207562,128,0,207608:0:0:0:0:
36,192,207749,128,0,207983:0:0:0:0:
109,192,207749,128,0,207796:0:0:0:0:
475,192,207937,128,0,208358:0:0:0:0:
402,192,207937,128,0,207983:0:0:0:0:
329,192,207937,128,0,208171:0:0:0:0:
109,192,208124,128,0,208171:0:0:0:0:
182,192,208124,128,0,208358:0:0:0:0:
109,192,208312,128,0,208733:0:0:0:0:
329,192,208312,128,0,208358:0:0:0:0:
402,192,208312,128,0,208546:0:0:0:0:
256,192,208499,128,0,208546:0:0:0:0:
329,192,208499,128,0,208733:0:0:0:0:
475,192,208687,128,0,208733:0:0:0:0:
256,192,208687,128,0,208921:0:0:0:0:
36,192,208687,128,0,209108:0:0:0:0:
182,192,208687,128,0,208733:0:0:0:0:
402,192,208874,128,0,208921:0:0:0:0:
182,192,208874,128,0,209062:0:0:0:0:
256,192,209062,128,0,209624:0:0:0:0:
475,192,209062,128,0,210046:0:0:0:0:
329,192,209062,1,0,0:0:0:0:
182,192,209155,1,0,0:0:0:0:
402,192,209155,1,0,0:0:0:0:
109,192,209249,1,0,0:0:0:0:
329,192,209249,1,0,0:0:0:0:
36,192,209343,1,0,0:0:0:0:
402,192,209343,1,0,0:0:0:0:
182,192,209437,1,0,0:0:0:0:
109,192,209437,1,0,0:0:0:0:
329,192,209437,1,0,0:0:0:0:
36,192,209624,1,0,0:0:0:0:
109,192,209671,1,0,0:0:0:0:
182,192,209718,1,0,0:0:0:0:
256,192,209765,1,0,0:0:0:0:
329,192,209812,1,0,0:0:0:0:
402,192,209812,1,0,0:0:0:0:
36,192,209812,1,0,0:0:0:0:
109,192,209858,1,0,0:0:0:0:
182,192,209905,1,0,0:0:0:0:
256,192,209952,1,0,0:0:0:0:
329,192,209999,1,0,0:0:0:0:
36,192,209999,1,0,0:0:0:0:
402,192,210046,1,0,0:0:0:0:
109,192,210046,1,0,0:0:0:0:
182,192,210093,1,0,0:0:0:0:
256,192,210140,1,0,0:0:0:0:
475,192,210187,128,0,210608:0:0:0:0:
109,192,210187,1,0,0:0:0:0:
402,192,210280,128,0,210327:0:0:0:0:
36,192,210280,1,0,0:0:0:0:
329,192,210374,128,0,210421:0:0:0:0:
182,192,210374,1,0,0:0:0:0:
256,192,210468,128,0,210702:0:0:0:0:
109,192,210468,1,0,0:0:0:0:
402,192,210562,128,0,210608:0:0:0:0:
36,192,210562,1,0,0:0:0:0:
329,192,210655,128,0,210702:0:0:0:0:
109,192,210655,1,0,0:0:0:0:
36,192,210749,128,0,211171:0:0:0:0:
182,192,210749,1,0,0:0:0:0:
109,192,210843,128,0,210890:0:0:0:0:
329,192,210843,1,0,0:0:0:0:
475,192,210843,1,0,0:0:0:0:
182,192,210937,128,0,210983:0:0:0:0:
402,192,210937,128,0,211312:0:0:0:0:
256,192,211030,128,0,211265:0:0:0:0:
329,192,211030,128,0,211077:0:0:0:0:
109,192,211124,128,0,211171:0:0:0:0:
475,192,211124,128,0,211452:0:0:0:0:
182,192,211218,128,0,211265:0:0:0:0:
329,192,211218,128,0,211265:0:0:0:0:
109,192,211312,128,0,211358:0:0:0:0:
36,192,211312,128,0,211546:0:0:0:0:
182,192,211405,128,0,211640:0:0:0:0:
256,192,211405,128,0,211452:0:0:0:0:
329,192,211499,128,0,211733:0:0:0:0:
109,192,211499,128,0,211546:0:0:0:0:
402,192,211499,128,0,211546:0:0:0:0:
256,192,211593,128,0,211640:0:0:0:0:
475,192,211593,128,0,211827:0:0:0:0:
402,192,211687,128,0,211733:0:0:0:0:
109,192,211687,128,0,211921:0:0:0:0:
36,192,211687,128,0,211733:0:0:0:0:
256,192,211780,128,0,212015:0:0:0:0:
182,192,211780,128,0,211827:0:0:0:0:
402,192,211874,128,0,212108:0:0:0:0:
36,192,211874,128,0,211921:0:0:0:0:
329,192,211874,128,0,211921:0:0:0:0:
182,192,211968,128,0,212015:0:0:0:0:
475,192,212062,128,0,212108:0:0:0:0:
329,192,212062,128,0,212108:0:0:0:0:
109,192,212062,128,0,212343:0:0:0:0:
182,192,212155,128,0,212249:0:0:0:0:
36,192,212155,128,0,212437:0:0:0:0:
256,192,212249,128,0,212437:0:0:0:0:
329,192,212249,128,0,212343:0:0:0:0:
402,192,212249,128,0,212343:0:0:0:0:
475,192,212249,128,0,212343:0:0:0:0:
182,192,212343,128,0,212530:0:0:0:0:
109,192,212437,128,0,212624:0:0:0:0:
402,192,212437,128,0,212530:0:0:0:0:
475,192,212437,128,0,212530:0:0:0:0:
329,192,212437,128,0,212624:0:0:0:0:
36,192,212530,128,0,212624:0:0:0:0:
256,192,212530,128,0,212718:0:0:0:0:
182,192,212624,128,0,212812:0:0:0:0:
475,192,212624,128,0,212718:0:0:0:0:
402,192,212624,128,0,212812:0:0:0:0:
36,192,212718,128,0,212812:0:0:0:0:
109,192,212718,128,0,212812:0:0:0:0:
329,192,212718,128,0,212905:0:0:0:0:
256,192,212812,128,0,212999:0:0:0:0:
475,192,212812,128,0,213468:0:0:0:0:
182,192,212905,128,0,212999:0:0:0:0:
109,192,212905,128,0,212999:0:0:0:0:
36,192,212905,128,0,212999:0:0:0:0:
402,192,212905,128,0,213187:0:0:0:0:
329,192,212999,128,0,213093:0:0:0:0:
256,192,213093,128,0,213187:0:0:0:0:
182,192,213093,128,0,213280:0:0:0:0:
109,192,213093,128,0,213280:0:0:0:0:
36,192,213093,128,0,213187:0:0:0:0:
402,192,213280,128,0,213374:0:0:0:0:
256,192,213280,128,0,213468:0:0:0:0:
329,192,213374,128,0,213608:0:0:0:0:
182,192,213374,128,0,213608:0:0:0:0:
109,192,213374,128,0,213468:0:0:0:0:
36,192,213374,128,0,213796:0:0:0:0:
109,192,213562,128,0,213796:0:0:0:0:
256,192,213562,128,0,213608:0:0:0:0:
402,192,213562,128,0,213655:0:0:0:0:
475,192,213562,128,0,213655:0:0:0:0:
182,192,213749,128,0,213796:0:0:0:0:
329,192,213749,128,0,214030:0:0:0:0:
402,192,213749,128,0,213843:0:0:0:0:
475,192,213749,128,0,214030:0:0:0:0:
109,192,213937,128,0,213983:0:0:0:0:
256,192,213937,128,0,214171:0:0:0:0:
36,192,213937,128,0,214218:0:0:0:0:
402,192,213937,128,0,214218:0:0:0:0:
182,192,213937,128,0,213983:0:0:0:0:
182,192,214124,128,0,214171:0:0:0:0:
329,192,214124,128,0,214358:0:0:0:0:
475,192,214124,128,0,214405:0:0:0:0:
109,192,214124,128,0,214218:0:0:0:0:
256,192,214312,128,0,214358:0:0:0:0:
402,192,214312,128,0,214546:0:0:0:0:
109,192,214312,128,0,214593:0:0:0:0:
36,192,214312,128,0,214593:0:0:0:0:
182,192,214312,128,0,214358:0:0:0:0:
329,192,214499,128,0,214546:0:0:0:0:
256,192,214499,128,0,214780:0:0:0:0:
475,192,214499,128,0,214733:0:0:0:0:
182,192,214499,128,0,214874:0:0:0:0:
402,192,214687,128,0,214733:0:0:0:0:
329,192,214687,128,0,214780:0:0:0:0:
36,192,214687,128,0,215155:0:0:0:0:
109,192,214687,128,0,214780:0:0:0:0:
329,192,214874,128,0,214921:0:0:0:0:
256,192,214874,128,0,214968:0:0:0:0:
475,192,214874,128,0,214968:0:0:0:0:
109,192,214874,128,0,215155:0:0:0:0:
402,192,214874,128,0,214921:0:0:0:0:
256,192,215062,128,0,215108:0:0:0:0:
182,192,215062,128,0,215155:0:0:0:0:
402,192,215062,128,0,215343:0:0:0:0:
475,192,215062,128,0,215343:0:0:0:0:
329,192,215062,128,0,215108:0:0:0:0:
182,192,215249,128,0,215296:0:0:0:0:
329,192,215249,128,0,215483:0:0:0:0:
109,192,215249,128,0,215718:0:0:0:0:
36,192,215249,128,0,215530:0:0:0:0:
256,192,215249,128,0,215296:0:0:0:0:
256,192,215437,128,0,215483:0:0:0:0:
182,192,215437,128,0,215530:0:0:0:0:
402,192,215437,128,0,215671:0:0:0:0:
475,192,215437,128,0,215530:0:0:0:0:
329,192,215624,128,0,215671:0:0:0:0:
182,192,215624,128,0,215812:0:0:0:0:
36,192,215624,128,0,215812:0:0:0:0:
475,192,215624,128,0,215718:0:0:0:0:
256,192,215624,128,0,215718:0:0:0:0:
329,192,215812,128,0,216187:0:0:0:0:
475,192,215812,1,0,0:0:0:0:
402,192,215812,1,0,0:0:0:0:
109,192,215812,128,0,215905:0:0:0:0:
256,192,215905,128,0,216374:0:0:0:0:
36,192,215905,128,0,215999:0:0:0:0:
182,192,215999,128,0,216280:0:0:0:0:
402,192,215999,1,0,0:0:0:0:
109,192,216093,128,0,216187:0:0:0:0:
475,192,216093,1,0,0:0:0:0:
36,192,216187,128,0,216562:0:0:0:0:
402,192,216187,1,0,0:0:0:0:
109,192,216280,128,0,216655:0:0:0:0:
329,192,216280,1,0,0:0:0:0:
182,192,216374,128,0,216468:0:0:0:0:
402,192,216374,1,0,0:0:0:0:
256,192,216468,128,0,216562:0:0:0:0:
475,192,216468,1,0,0:0:0:0:
182,192,216562,128,0,216749:0:0:0:0:
329,192,216562,1,0,0:0:0:0:
256,192,216655,128,0,217124:0:0:0:0:
402,192,216655,1,0,0:0:0:0:
329,192,216749,128,0,217030:0:0:0:0:
475,192,216749,1,0,0:0:0:0:
36,192,216749,1,0,0:0:0:0:
402,192,216843,128,0,216937:0:0:0:0:
109,192,216843,1,0,0:0:0:0:
475,192,216937,128,0,217312:0:0:0:0:
182,192,216937,1,0,0:0:0:0:
402,192,217030,128,0,217405:0:0:0:0:
109,192,217030,1,0,0:0:0:0:
329,192,217124,128,0,217218:0:0:0:0:
36,192,217124,1,0,0:0:0:0:
256,192,217218,128,0,217312:0:0:0:0:
109,192,217218,1,0,0:0:0:0:
329,192,217312,128,0,217499:0:0:0:0:
182,192,217312,1,0,0:0:0:0:
256,192,217405,128,0,217874:0:0:0:0:
109,192,217405,1,0,0:0:0:0:
182,192,217499,128,0,217780:0:0:0:0:
36,192,217499,1,0,0:0:0:0:
475,192,217499,1,0,0:0:0:0:
109,192,217593,128,0,217687:0:0:0:0:
402,192,217593,1,0,0:0:0:0:
36,192,217687,128,0,218062:0:0:0:0:
329,192,217687,1,0,0:0:0:0:
109,192,217780,128,0,218155:0:0:0:0:
402,192,217780,1,0,0:0:0:0:
182,192,217874,128,0,217968:0:0:0:0:
475,192,217874,1,0,0:0:0:0:
256,192,217968,128,0,218062:0:0:0:0:
402,192,217968,1,0,0:0:0:0:
182,192,218062,128,0,218249:0:0:0:0:
329,192,218062,1,0,0:0:0:0:
256,192,218155,128,0,218624:0:0:0:0:
402,192,218155,1,0,0:0:0:0:
329,192,218249,128,0,218530:0:0:0:0:
475,192,218249,1,0,0:0:0:0:
36,192,218249,1,0,0:0:0:0:
402,192,218343,128,0,218437:0:0:0:0:
109,192,218343,1,0,0:0:0:0:
475,192,218437,128,0,218812:0:0:0:0:
182,192,218437,1,0,0:0:0:0:
402,192,218530,128,0,218905:0:0:0:0:
109,192,218530,1,0,0:0:0:0:
329,192,218624,128,0,218718:0:0:0:0:
36,192,218624,1,0,0:0:0:0:
256,192,218718,128,0,218812:0:0:0:0:
109,192,218718,1,0,0:0:0:0:
329,192,218812,128,0,218999:0:0:0:0:
182,192,218812,1,0,0:0:0:0:
256,192,218905,128,0,219374:0:0:0:0:
109,192,218905,1,0,0:0:0:0:
182,192,218999,128,0,219280:0:0:0:0:
36,192,218999,1,0,0:0:0:0:
475,192,218999,1,0,0:0:0:0:
109,192,219093,128,0,219187:0:0:0:0:
402,192,219093,1,0,0:0:0:0:
475,192,219187,1,0,0:0:0:0:
329,192,219280,128,0,219468:0:0:0:0:
36,192,219374,128,0,219562:0:0:0:0:
402,192,219374,128,0,219562:0:0:0:0:
109,192,219374,1,0,0:0:0:0:
475,192,219468,128,0,219655:0:0:0:0:
109,192,219562,128,0,219749:0:0:0:0:
182,192,219562,128,0,219608:0:0:0:0:
256,192,219655,128,0,219843:0:0:0:0:
329,192,219655,128,0,219702:0:0:0:0:
402,192,219749,128,0,219937:0:0:0:0:
475,192,219749,128,0,219796:0:0:0:0:
109,192,219843,128,0,219890:0:0:0:0:
36,192,219843,128,0,220030:0:0:0:0:
256,192,219937,128,0,219983:0:0:0:0:
182,192,219937,128,0,220124:0:0:0:0:
402,192,220030,128,0,220077:0:0:0:0:
329,192,220030,128,0,220218:0:0:0:0:
36,192,220124,128,0,220171:0:0:0:0:
475,192,220124,128,0,220312:0:0:0:0:
182,192,220218,128,0,220265:0:0:0:0:
329,192,220312,128,0,220358:0:0:0:0:
109,192,220312,1,0,0:0:0:0:
475,192,220405,128,0,220452:0:0:0:0:
182,192,220405,1,0,0:0:0:0:
256,192,220499,128,0,221062:0:0:0:0:
109,192,220499,128,0,220968:0:0:0:0:
36,192,220499,128,0,221155:0:0:0:0:
329,192,220593,1,0,0:0:0:0:
182,192,220687,128,0,220968:0:0:0:0:
475,192,220687,128,0,221155:0:0:0:0:
402,192,220687,1,0,0:0:0:0:
329,192,220874,128,0,221155:0:0:0:0:
402,192,220874,128,0,221530:0:0:0:0:
182,192,221062,128,0,221343:0:0:0:0:
109,192,221062,128,0,221530:0:0:0:0:
256,192,221155,128,0,221718:0:0:0:0:
475,192,221249,128,0,221343:0:0:0:0:
329,192,221249,128,0,221343:0:0:0:0:
36,192,221249,128,0,221343:0:0:0:0:
475,192,221437,1,0,0:0:0:0:
36,192,221437,128,0,221999:0:0:0:0:
182,192,221437,128,0,221530:0:0:0:0:
329,192,221437,128,0,221624:0:0:0:0:
402,192,221624,1,0,0:0:0:0:
182,192,221624,128,0,221812:0:0:0:0:
109,192,221624,128,0,221905:0:0:0:0:
329,192,221718,1,0,0:0:0:0:
256,192,221812,1,0,0:0:0:0:
475,192,221812,1,0,0:0:0:0:
182,192,221905,1,0,0:0:0:0:
402,192,221905,1,0,0:0:0:0:
109,192,221999,1,0,0:0:0:0:
329,192,221999,1,0,0:0:0:0:
36,192,222093,1,0,0:0:0:0:
256,192,222093,1,0,0:0:0:0:
182,192,222187,1,0,0:0:0:0:
475,192,222187,128,0,222374:0:0:0:0:
109,192,222280,1,0,0:0:0:0:
402,192,222280,128,0,222468:0:0:0:0:
36,192,222374,1,0,0:0:0:0:
329,192,222374,128,0,222562:0:0:0:0:
109,192,222468,1,0,0:0:0:0:
182,192,222562,1,0,0:0:0:0:
475,192,222562,128,0,222749:0:0:0:0:
256,192,222562,1,0,0:0:0:0:
36,192,222562,1,0,0:0:0:0:
402,192,222655,128,0,222843:0:0:0:0:
329,192,222749,128,0,222937:0:0:0:0:
182,192,222749,1,0,0:0:0:0:
109,192,222749,1,0,0:0:0:0:
36,192,222937,1,0,0:0:0:0:
256,192,222937,128,0,223218:0:0:0:0:
109,192,222937,1,0,0:0:0:0:
475,192,222937,1,0,0:0:0:0:
329,192,223030,1,0,0:0:0:0:
182,192,223030,128,0,223124:0:0:0:0:
402,192,223124,1,0,0:0:0:0:
109,192,223124,128,0,223218:0:0:0:0:
475,192,223218,1,0,0:0:0:0:
36,192,223218,128,0,223687:0:0:0:0:
329,192,223218,128,0,223499:0:0:0:0:
256,192,223312,128,0,223405:0:0:0:0:
402,192,223312,1,0,0:0:0:0:
109,192,223312,1,0,0:0:0:0:
182,192,223405,128,0,223499:0:0:0:0:
109,192,223499,128,0,223968:0:0:0:0:
402,192,223499,128,0,223780:0:0:0:0:
329,192,223593,128,0,223687:0:0:0:0:
475,192,223593,1,0,0:0:0:0:
182,192,223593,1,0,0:0:0:0:
256,192,223687,128,0,223780:0:0:0:0:
182,192,223780,128,0,224249:0:0:0:0:
475,192,223780,128,0,224062:0:0:0:0:
36,192,223780,1,0,0:0:0:0:
402,192,223874,128,0,223968:0:0:0:0:
256,192,223874,1,0,0:0:0:0:
36,192,223968,128,0,224062:0:0:0:0:
329,192,223968,128,0,224062:0:0:0:0:
256,192,224062,128,0,224530:0:0:0:0:
109,192,224062,1,0,0:0:0:0:
475,192,224155,128,0,224249:0:0:0:0:
329,192,224155,1,0,0:0:0:0:
402,192,224249,128,0,224343:0:0:0:0:
109,192,224249,128,0,224343:0:0:0:0:
329,192,224343,128,0,224437:0:0:0:0:
36,192,224343,128,0,224437:0:0:0:0:
182,192,224343,1,0,0:0:0:0:
475,192,224437,1,0,0:0:0:0:
182,192,224530,128,0,224624:0:0:0:0:
402,192,224530,1,0,0:0:0:0:
109,192,224624,128,0,224718:0:0:0:0:
329,192,224624,1,0,0:0:0:0:
256,192,224624,1,0,0:0:0:0:
36,192,224718,128,0,224812:0:0:0:0:
402,192,224718,1,0,0:0:0:0:
475,192,224812,1,0,0:0:0:0:
182,192,224812,1,0,0:0:0:0:
256,192,224812,1,0,0:0:0:0:
329,192,224812,1,0,0:0:0:0:
402,192,224905,1,0,0:0:0:0:
109,192,224905,1,0,0:0:0:0:
329,192,224999,1,0,0:0:0:0:
36,192,224999,1,0,0:0:0:0:
256,192,225093,1,0,0:0:0:0:
182,192,225093,1,0,0:0:0:0:
475,192,225093,1,0,0:0:0:0:
109,192,225187,128,0,225374:0:0:0:0:
329,192,225187,1,0,0:0:0:0:
402,192,225187,1,0,0:0:0:0:
256,192,225280,128,0,225468:0:0:0:0:
402,192,225374,128,0,225562:0:0:0:0:
36,192,225374,128,0,225749:0:0:0:0:
109,192,225468,128,0,225515:0:0:0:0:
182,192,225468,128,0,225843:0:0:0:0:
256,192,225562,128,0,225608:0:0:0:0:
329,192,225562,128,0,225937:0:0:0:0:
402,192,225655,128,0,225702:0:0:0:0:
475,192,225655,128,0,226030:0:0:0:0:
109,192,225655,128,0,225749:0:0:0:0:
256,192,225749,128,0,225843:0:0:0:0:
36,192,225843,128,0,225937:0:0:0:0:
402,192,225843,128,0,225937:0:0:0:0:
109,192,225937,128,0,226124:0:0:0:0:
182,192,225937,128,0,226030:0:0:0:0:
256,192,226030,128,0,226218:0:0:0:0:
329,192,226030,128,0,226124:0:0:0:0:
402,192,226124,128,0,226312:0:0:0:0:
36,192,226124,128,0,226499:0:0:0:0:
475,192,226124,128,0,226218:0:0:0:0:
109,192,226218,128,0,226265:0:0:0:0:
182,192,226218,128,0,226593:0:0:0:0:
256,192,226312,128,0,226358:0:0:0:0:
329,192,226312,128,0,226687:0:0:0:0:
402,192,226405,128,0,226452:0:0:0:0:
109,192,226405,128,0,226499:0:0:0:0:
256,192,226499,128,0,226593:0:0:0:0:
402,192,226593,128,0,226687:0:0:0:0:
36,192,226593,128,0,227062:0:0:0:0:
475,192,226687,128,0,226968:0:0:0:0:
256,192,226687,128,0,226968:0:0:0:0:
109,192,226687,128,0,226968:0:0:0:0:
182,192,226687,128,0,226780:0:0:0:0:
402,192,226780,128,0,226874:0:0:0:0:
329,192,226874,128,0,226968:0:0:0:0:
182,192,226968,128,0,227155:0:0:0:0:
402,192,226968,128,0,227249:0:0:0:0:
329,192,227062,128,0,227155:0:0:0:0:
109,192,227062,128,0,227249:0:0:0:0:
256,192,227155,128,0,227249:0:0:0:0:
36,192,227155,128,0,227343:0:0:0:0:
329,192,227249,128,0,227530:0:0:0:0:
182,192,227249,128,0,227624:0:0:0:0:
475,192,227249,128,0,227530:0:0:0:0:
256,192,227343,128,0,227437:0:0:0:0:
109,192,227343,128,0,227437:0:0:0:0:
36,192,227437,128,0,227530:0:0:0:0:
402,192,227437,128,0,227624:0:0:0:0:
256,192,227530,128,0,227718:0:0:0:0:
109,192,227624,128,0,227812:0:0:0:0:
329,192,227624,128,0,227812:0:0:0:0:
182,192,227718,128,0,227905:0:0:0:0:
475,192,227718,128,0,227812:0:0:0:0:
36,192,227812,128,0,227999:0:0:0:0:
256,192,227812,128,0,227999:0:0:0:0:
402,192,227812,128,0,228093:0:0:0:0:
109,192,227905,128,0,228093:0:0:0:0:
182,192,227999,128,0,228187:0:0:0:0:
329,192,227999,128,0,228280:0:0:0:0:
475,192,227999,128,0,228093:0:0:0:0:
36,192,228093,128,0,228280:0:0:0:0:
109,192,228187,128,0,228374:0:0:0:0:
256,192,228187,128,0,228468:0:0:0:0:
402,192,228187,128,0,228280:0:0:0:0:
475,192,228280,128,0,228374:0:0:0:0:
36,192,228374,128,0,228562:0:0:0:0:
182,192,228374,128,0,228655:0:0:0:0:
329,192,228374,128,0,228468:0:0:0:0:
402,192,228468,128,0,228562:0:0:0:0:
475,192,228562,128,0,228655:0:0:0:0:
256,192,228562,128,0,228655:0:0:0:0:
109,192,228562,128,0,228655:0:0:0:0:
329,192,228655,128,0,228749:0:0:0:0:
36,192,228655,128,0,228749:0:0:0:0:
402,192,228749,128,0,228843:0:0:0:0:
182,192,228749,128,0,228937:0:0:0:0:
256,192,228749,128,0,229030:0:0:0:0:
475,192,228843,128,0,228937:0:0:0:0:
109,192,228843,128,0,229030:0:0:0:0:
36,192,228937,128,0,229124:0:0:0:0:
329,192,228937,128,0,228983:0:0:0:0:
402,192,229030,128,0,229077:0:0:0:0:
182,192,229030,128,0,229077:0:0:0:0:
475,192,229124,128,0,229171:0:0:0:0:
256,192,229124,128,0,229171:0:0:0:0:
109,192,229124,128,0,229171:0:0:0:0:
36,192,229218,128,0,229265:0:0:0:0:
329,192,229218,128,0,229265:0:0:0:0:
402,192,229218,128,0,229265:0:0:0:0:
182,192,229312,128,0,229687:0:0:0:0:
256,192,229312,128,0,229687:0:0:0:0:
475,192,229312,128,0,229358:0:0:0:0:
402,192,229405,128,0,229452:0:0:0:0:
109,192,229405,128,0,229452:0:0:0:0:
36,192,229499,128,0,229546:0:0:0:0:
475,192,229499,128,0,229546:0:0:0:0:
329,192,229499,128,0,229546:0:0:0:0:
109,192,229593,128,0,229640:0:0:0:0:
475,192,229687,128,0,230015:0:0:0:0:
402,192,229687,128,0,229733:0:0:0:0:
36,192,229687,128,0,229733:0:0:0:0:
256,192,229780,128,0,229827:0:0:0:0:
329,192,229780,128,0,229827:0:0:0:0:
402,192,229874,128,0,229921:0:0:0:0:
182,192,229874,128,0,229921:0:0:0:0:
36,192,229874,128,0,229921:0:0:0:0:
329,192,229968,128,0,230015:0:0:0:0:
109,192,229968,128,0,230015:0:0:0:0:
36,192,230062,128,0,230108:0:0:0:0:
256,192,230062,128,0,230108:0:0:0:0:
402,192,230062,128,0,230108:0:0:0:0:
182,192,230062,128,0,230437:0:0:0:0:
329,192,230155,128,0,230343:0:0:0:0:
475,192,230155,128,0,230437:0:0:0:0:
109,192,230249,128,0,230624:0:0:0:0:
402,192,230249,128,0,230437:0:0:0:0:
256,192,230343,128,0,230437:0:0:0:0:
329,192,230437,128,0,230530:0:0:0:0:
36,192,230437,128,0,230905:0:0:0:0:
402,192,230530,128,0,230624:0:0:0:0:
182,192,230530,128,0,230624:0:0:0:0:
475,192,230530,128,0,230624:0:0:0:0:
256,192,230624,128,0,230718:0:0:0:0:
329,192,230718,128,0,230812:0:0:0:0:
109,192,230718,128,0,231093:0:0:0:0:
402,192,230718,128,0,230812:0:0:0:0:
475,192,230718,128,0,230812:0:0:0:0:
182,192,230812,128,0,231093:0:0:0:0:
256,192,230905,128,0,230999:0:0:0:0:
329,192,230905,128,0,230999:0:0:0:0:
402,192,230905,128,0,230999:0:0:0:0:
475,192,230999,128,0,231093:0:0:0:0:
36,192,230999,128,0,231093:0:0:0:0:
182,192,231187,128,0,231562:0:0:0:0:
256,192,231187,128,0,231468:0:0:0:0:
329,192,231187,128,0,231374:0:0:0:0:
402,192,231187,128,0,231280:0:0:0:0:
475,192,231187,128,0,231937:0:0:0:0:
109,192,231187,128,0,231655:0:0:0:0:
36,192,231187,128,0,231749:0:0:0:0:
402,192,231374,128,0,231421:0:0:0:0:
329,192,231468,128,0,231515:0:0:0:0:
256,192,231562,128,0,231608:0:0:0:0:
402,192,231562,128,0,231749:0:0:0:0:
182,192,231655,128,0,231702:0:0:0:0:
329,192,231655,128,0,231843:0:0:0:0:
256,192,231749,128,0,231937:0:0:0:0:
109,192,231749,128,0,231796:0:0:0:0:
182,192,231843,128,0,232030:0:0:0:0:
36,192,231843,128,0,231890:0:0:0:0:
402,192,231937,1,0,0:0:0:0:
109,192,231937,128,0,232124:0:0:0:0:
329,192,232030,1,0,0:0:0:0:
36,192,232030,128,0,232499:0:0:0:0:
256,192,232124,1,0,0:0:0:0:
402,192,232124,1,0,0:0:0:0:
182,192,232218,1,0,0:0:0:0:
475,192,232218,1,0,0:0:0:0:
109,192,232312,1,0,0:0:0:0:
402,192,232312,1,0,0:0:0:0:
329,192,232312,1,0,0:0:0:0:
256,192,232405,1,0,0:0:0:0:
402,192,232499,128,0,232780:0:0:0:0:
475,192,232499,128,0,232780:0:0:0:0:
182,192,232499,128,0,232780:0:0:0:0:
109,192,232499,128,0,232780:0:0:0:0:
329,192,232499,128,0,233062:0:0:0:0:
256,192,232874,128,0,233437:0:0:0:0:
109,192,232874,128,0,233062:0:0:0:0:
36,192,233062,128,0,233718:0:0:0:0:
182,192,233062,128,0,233624:0:0:0:0:
329,192,233249,128,0,233437:0:0:0:0:
402,192,233249,128,0,233437:0:0:0:0:
475,192,233249,128,0,233812:0:0:0:0:
109,192,233624,128,0,233812:0:0:0:0:
256,192,233624,128,0,233812:0:0:0:0:
402,192,233624,128,0,233812:0:0:0:0:
36,192,233812,128,0,233999:0:0:0:0:
182,192,233812,128,0,233999:0:0:0:0:
329,192,233812,128,0,233999:0:0:0:0:
256,192,233999,5,0,0:0:0:0:
402,192,233999,1,0,0:0:0:0:
475,192,233999,1,0,0:0:0:0:
109,192,233999,1,0,0:0:0:0:
