osu file format v12

[General]
AudioFilename: invader.mp3
AudioLeadIn: 0
PreviewTime: 72176
Countdown: 0
SampleSet: Normal
StackLeniency: 0.7
Mode: 1
LetterboxInBreaks: 0
WidescreenStoryboard: 1

[Editor]
DistanceSpacing: 1.2
BeatDivisor: 4
GridSize: 16
TimelineZoom: 1

[Metadata]
Title:Invader Invader
TitleUnicode:インベーダーインベーダー
Artist:Kyary Pamyu Pamyu
ArtistUnicode:きゃりーぱみゅぱみゅ
Creator:TaMul
Version:Muzukashii
Source:
Tags:TKSalt
BeatmapID:338663
BeatmapSetID:135017

[Difficulty]
HPDrainRate:5
CircleSize:3
OverallDifficulty:5
ApproachRate:5
SliderMultiplier:1.7
SliderTickRate:1

[Events]
//Background and Video events
0,0,"bgbg.png",0,0
//Break Periods
//Storyboard Layer 0 (Background)
//Storyboard Layer 1 (Fail)
//Storyboard Layer 2 (Pass)
//Storyboard Layer 3 (Foreground)
//Storyboard Sound Samples
//Background Colour Transformations
3,100,163,162,255

[TimingPoints]
176,375,4,1,0,100,1,0
72176,-100,4,1,0,100,0,1
93176,-100,4,1,0,100,0,0
96176,-100,4,1,0,100,0,1
117176,-100,4,1,0,100,0,0

[HitObjects]
256,192,2613,1,0,0:0:0:0:
256,192,2801,1,8,0:0:0:0:
256,192,3176,1,0,0:0:0:0:
256,192,3738,1,0,0:0:0:0:
256,192,4113,1,0,0:0:0:0:
256,192,4301,1,8,0:0:0:0:
256,192,4676,1,0,0:0:0:0:
256,192,5238,1,0,0:0:0:0:
256,192,5613,1,0,0:0:0:0:
256,192,5801,1,8,0:0:0:0:
256,192,6176,1,0,0:0:0:0:
256,192,6738,1,0,0:0:0:0:
256,192,7301,1,0,0:0:0:0:
256,192,7489,1,8,0:0:0:0:
256,192,7676,1,0,0:0:0:0:
256,192,8051,1,0,0:0:0:0:
256,192,8238,1,8,0:0:0:0:
256,192,8613,1,0,0:0:0:0:
256,192,8801,1,0,0:0:0:0:
256,192,8988,1,8,0:0:0:0:
256,192,9176,1,4,0:0:0:0:
256,192,9551,1,0,0:0:0:0:
256,192,9738,1,8,0:0:0:0:
256,192,10113,1,0,0:0:0:0:
256,192,10301,1,8,0:0:0:0:
256,192,10488,1,0,0:0:0:0:
256,192,10676,1,0,0:0:0:0:
256,192,11051,1,0,0:0:0:0:
256,192,11238,1,8,0:0:0:0:
256,192,11613,1,0,0:0:0:0:
256,192,11801,1,8,0:0:0:0:
256,192,11988,1,8,0:0:0:0:
256,192,12176,1,0,0:0:0:0:
256,192,12551,1,0,0:0:0:0:
256,192,12738,1,8,0:0:0:0:
256,192,13113,1,0,0:0:0:0:
256,192,13301,1,8,0:0:0:0:
256,192,13488,1,0,0:0:0:0:
256,192,13676,1,0,0:0:0:0:
256,192,14051,1,0,0:0:0:0:
256,192,14238,1,8,0:0:0:0:
256,192,14613,1,8,0:0:0:0:
256,192,14801,1,8,0:0:0:0:
256,192,15176,1,0,0:0:0:0:
256,192,15363,1,8,0:0:0:0:
256,192,15551,1,0,0:0:0:0:
256,192,15738,1,0,0:0:0:0:
256,192,15926,1,0,0:0:0:0:
256,192,16113,1,8,0:0:0:0:
256,192,16301,1,0,0:0:0:0:
256,192,16488,1,8,0:0:0:0:
256,192,16676,1,0,0:0:0:0:
256,192,16863,1,8,0:0:0:0:
256,192,17051,1,0,0:0:0:0:
256,192,17238,1,0,0:0:0:0:
256,192,17426,1,0,0:0:0:0:
256,192,17613,1,8,0:0:0:0:
256,192,17801,1,0,0:0:0:0:
256,192,17988,1,8,0:0:0:0:
256,192,18176,1,0,0:0:0:0:
256,192,18363,1,8,0:0:0:0:
256,192,18551,1,0,0:0:0:0:
256,192,18738,1,0,0:0:0:0:
256,192,18926,1,0,0:0:0:0:
256,192,19113,1,8,0:0:0:0:
256,192,19301,1,0,0:0:0:0:
256,192,19488,1,8,0:0:0:0:
256,192,19676,1,4,0:0:0:0:
256,192,20051,1,4,0:0:0:0:
256,192,20426,1,8,0:0:0:0:
256,192,20613,1,8,0:0:0:0:
256,192,20801,1,8,0:0:0:0:
256,192,20988,1,8,0:0:0:0:
256,192,21176,1,0,0:0:0:0:
256,192,21551,1,8,0:0:0:0:
256,192,21738,1,0,0:0:0:0:
256,192,22113,1,0,0:0:0:0:
256,192,22301,1,8,0:0:0:0:
256,192,22488,1,0,0:0:0:0:
256,192,22676,1,0,0:0:0:0:
256,192,23051,1,8,0:0:0:0:
256,192,23238,1,0,0:0:0:0:
256,192,23613,1,0,0:0:0:0:
256,192,23801,1,8,0:0:0:0:
256,192,23988,1,8,0:0:0:0:
256,192,24176,1,0,0:0:0:0:
256,192,24551,1,8,0:0:0:0:
256,192,24738,1,0,0:0:0:0:
256,192,25113,1,0,0:0:0:0:
256,192,25301,1,8,0:0:0:0:
256,192,25488,1,0,0:0:0:0:
256,192,25676,1,0,0:0:0:0:
256,192,26051,1,8,0:0:0:0:
256,192,26238,1,12,0:0:0:0:
256,192,26613,1,0,0:0:0:0:
256,192,26801,1,0,0:0:0:0:
256,192,26988,1,8,0:0:0:0:
256,192,27176,1,4,0:0:0:0:
256,192,27551,1,12,0:0:0:0:
256,192,27926,1,4,0:0:0:0:
256,192,28488,1,4,0:0:0:0:
256,192,28863,1,12,0:0:0:0:
256,192,29238,1,4,0:0:0:0:
256,192,29613,1,8,0:0:0:0:
256,192,29801,1,8,0:0:0:0:
256,192,29988,1,8,0:0:0:0:
256,192,30176,1,4,0:0:0:0:
256,192,30551,1,12,0:0:0:0:
256,192,30926,1,4,0:0:0:0:
256,192,31488,1,4,0:0:0:0:
256,192,31863,1,12,0:0:0:0:
256,192,32238,1,4,0:0:0:0:
256,192,33176,1,0,0:0:0:0:
256,192,33551,1,8,0:0:0:0:
256,192,33738,1,0,0:0:0:0:
256,192,34113,1,0,0:0:0:0:
256,192,34301,1,8,0:0:0:0:
256,192,34488,1,0,0:0:0:0:
256,192,34676,1,0,0:0:0:0:
256,192,35051,1,8,0:0:0:0:
256,192,35238,1,0,0:0:0:0:
256,192,35613,1,0,0:0:0:0:
256,192,35801,1,8,0:0:0:0:
256,192,35988,1,8,0:0:0:0:
256,192,36176,1,0,0:0:0:0:
256,192,36551,1,8,0:0:0:0:
256,192,36738,1,0,0:0:0:0:
256,192,37113,1,0,0:0:0:0:
256,192,37301,1,8,0:0:0:0:
256,192,37488,1,0,0:0:0:0:
256,192,37676,1,0,0:0:0:0:
256,192,38051,1,8,0:0:0:0:
256,192,38238,1,12,0:0:0:0:
256,192,38613,1,0,0:0:0:0:
256,192,38801,1,0,0:0:0:0:
256,192,38988,1,0,0:0:0:0:
256,192,39176,1,4,0:0:0:0:
256,192,39551,1,12,0:0:0:0:
256,192,39926,1,4,0:0:0:0:
256,192,40488,1,4,0:0:0:0:
256,192,40863,1,12,0:0:0:0:
256,192,41238,1,4,0:0:0:0:
256,192,41613,1,0,0:0:0:0:
256,192,41801,1,0,0:0:0:0:
256,192,41988,1,0,0:0:0:0:
256,192,42176,1,4,0:0:0:0:
256,192,42551,1,12,0:0:0:0:
256,192,42926,1,4,0:0:0:0:
256,192,43488,1,4,0:0:0:0:
256,192,43863,1,12,0:0:0:0:
256,192,44238,1,4,0:0:0:0:
256,192,44613,1,0,0:0:0:0:
256,192,44801,1,0,0:0:0:0:
256,192,44988,1,0,0:0:0:0:
256,192,45176,1,0,0:0:0:0:
256,192,45738,1,0,0:0:0:0:
256,192,45926,1,8,0:0:0:0:
256,192,46301,1,0,0:0:0:0:
256,192,46676,1,0,0:0:0:0:
256,192,46863,1,0,0:0:0:0:
256,192,46957,1,0,0:0:0:0:
256,192,47051,1,0,0:0:0:0:
256,192,47238,1,0,0:0:0:0:
256,192,47332,1,0,0:0:0:0:
256,192,47426,1,8,0:0:0:0:
256,192,47801,1,8,0:0:0:0:
256,192,48176,1,0,0:0:0:0:
256,192,48363,1,0,0:0:0:0:
256,192,48551,1,8,0:0:0:0:
256,192,48738,1,0,0:0:0:0:
256,192,49301,1,8,0:0:0:0:
160,192,49676,2,0,P|176:128|80:192,2,255
208,288,51176,1,0,0:0:0:0:
208,288,51363,1,0,0:0:0:0:
208,288,51551,1,8,0:0:0:0:
208,288,51738,1,0,0:0:0:0:
208,288,51926,1,0,0:0:0:0:
208,288,52113,1,8,0:0:0:0:
208,288,52301,1,0,0:0:0:0:
256,192,52488,12,0,53801,0:0:0:0:
256,192,54176,5,0,0:0:0:0:
256,192,54363,1,8,0:0:0:0:
256,192,54551,1,0,0:0:0:0:
256,192,54738,1,8,0:0:0:0:
256,192,54926,1,8,0:0:0:0:
256,192,55113,1,8,0:0:0:0:
352,192,55301,2,0,P|336:128|432:208,2,340
256,192,57176,1,0,0:0:0:0:
256,192,57363,1,8,0:0:0:0:
256,192,57551,1,0,0:0:0:0:
256,192,57738,1,0,0:0:0:0:
256,192,57926,1,8,0:0:0:0:
256,192,58301,12,8,59426,0:0:0:0:
256,192,60176,5,0,0:0:0:0:
256,192,60363,1,0,0:0:0:0:
256,192,60457,1,0,0:0:0:0:
256,192,60551,1,0,0:0:0:0:
256,192,60738,1,8,0:0:0:0:
256,192,60926,1,0,0:0:0:0:
256,192,61113,1,8,0:0:0:0:
160,192,61301,2,0,P|176:256|80:176,2,340
256,192,63176,1,0,0:0:0:0:
256,192,63363,1,0,0:0:0:0:
256,192,63457,1,0,0:0:0:0:
256,192,63551,1,0,0:0:0:0:
256,192,63738,1,8,0:0:0:0:
256,192,63926,1,0,0:0:0:0:
256,192,64113,1,8,0:0:0:0:
256,192,64301,12,8,65426,0:0:0:0:
256,192,66176,5,0,0:0:0:0:
256,192,66363,1,0,0:0:0:0:
256,192,66457,1,0,0:0:0:0:
256,192,66551,1,0,0:0:0:0:
256,192,66738,1,0,0:0:0:0:
256,192,66926,1,8,0:0:0:0:
256,192,67019,1,8,0:0:0:0:
256,192,67113,1,8,0:0:0:0:
256,192,67301,1,8,0:0:0:0:
256,192,67488,12,8,68801,0:0:0:0:
256,192,69363,5,0,0:0:0:0:
256,192,69738,1,0,0:0:0:0:
256,192,69926,1,8,0:0:0:0:
256,192,70301,1,0,0:0:0:0:
256,192,70488,1,8,0:0:0:0:
256,192,70676,1,0,0:0:0:0:
256,192,71051,1,0,0:0:0:0:
256,192,71238,1,8,0:0:0:0:
256,192,71613,1,0,0:0:0:0:
256,192,71801,1,0,0:0:0:0:
256,192,71988,1,8,0:0:0:0:
256,192,72176,1,0,0:0:0:0:
256,192,72363,1,0,0:0:0:0:
256,192,72457,1,0,0:0:0:0:
256,192,72551,1,0,0:0:0:0:
256,192,72738,1,0,0:0:0:0:
256,192,72832,1,0,0:0:0:0:
256,192,72926,1,0,0:0:0:0:
256,192,73113,1,0,0:0:0:0:
256,192,73207,1,0,0:0:0:0:
256,192,73301,1,0,0:0:0:0:
256,192,73676,1,4,0:0:0:0:
256,192,74051,1,12,0:0:0:0:
256,192,74426,1,4,0:0:0:0:
256,192,74613,1,8,0:0:0:0:
256,192,74707,1,8,0:0:0:0:
256,192,74801,1,8,0:0:0:0:
256,192,74988,1,8,0:0:0:0:
256,192,75176,1,0,0:0:0:0:
256,192,75363,1,0,0:0:0:0:
256,192,75457,1,0,0:0:0:0:
256,192,75551,1,0,0:0:0:0:
256,192,75738,1,0,0:0:0:0:
256,192,76113,1,0,0:0:0:0:
256,192,76301,1,8,0:0:0:0:
256,192,76676,1,8,0:0:0:0:
256,192,76863,1,8,0:0:0:0:
256,192,76957,1,8,0:0:0:0:
256,192,77051,1,8,0:0:0:0:
256,192,77238,1,8,0:0:0:0:
256,192,77613,1,8,0:0:0:0:
256,192,77801,1,8,0:0:0:0:
256,192,77988,1,8,0:0:0:0:
256,192,78176,1,0,0:0:0:0:
256,192,78363,1,0,0:0:0:0:
256,192,78457,1,0,0:0:0:0:
256,192,78551,1,0,0:0:0:0:
256,192,78738,1,0,0:0:0:0:
256,192,78832,1,0,0:0:0:0:
256,192,78926,1,0,0:0:0:0:
256,192,79113,1,0,0:0:0:0:
256,192,79488,1,4,0:0:0:0:
256,192,80051,1,12,0:0:0:0:
256,192,80426,1,4,0:0:0:0:
256,192,80613,1,8,0:0:0:0:
256,192,80707,1,8,0:0:0:0:
256,192,80801,1,8,0:0:0:0:
256,192,80988,1,8,0:0:0:0:
256,192,81176,1,0,0:0:0:0:
256,192,81363,1,0,0:0:0:0:
256,192,81457,1,0,0:0:0:0:
256,192,81551,1,0,0:0:0:0:
256,192,81738,1,8,0:0:0:0:
256,192,82113,1,0,0:0:0:0:
256,192,82301,1,8,0:0:0:0:
256,192,82488,1,0,0:0:0:0:
256,192,82676,1,8,0:0:0:0:
256,192,82863,1,8,0:0:0:0:
256,192,82957,1,8,0:0:0:0:
256,192,83051,1,8,0:0:0:0:
256,192,83238,1,8,0:0:0:0:
256,192,83614,1,8,0:0:0:0:
256,192,83707,1,8,0:0:0:0:
256,192,83801,1,8,0:0:0:0:
256,192,83988,1,8,0:0:0:0:
256,192,84176,1,0,0:0:0:0:
256,192,84363,1,0,0:0:0:0:
256,192,84457,1,0,0:0:0:0:
256,192,84551,1,0,0:0:0:0:
256,192,84738,1,0,0:0:0:0:
256,192,84832,1,0,0:0:0:0:
256,192,84926,1,0,0:0:0:0:
256,192,85113,1,0,0:0:0:0:
256,192,85207,1,0,0:0:0:0:
256,192,85301,1,0,0:0:0:0:
256,192,85676,1,4,0:0:0:0:
256,192,86051,1,12,0:0:0:0:
256,192,86426,1,4,0:0:0:0:
256,192,87176,1,0,0:0:0:0:
256,192,87363,1,0,0:0:0:0:
256,192,87457,1,0,0:0:0:0:
256,192,87551,1,0,0:0:0:0:
256,192,87738,1,0,0:0:0:0:
256,192,88113,1,0,0:0:0:0:
256,192,88301,1,8,0:0:0:0:
256,192,88676,1,8,0:0:0:0:
256,192,88863,1,8,0:0:0:0:
256,192,88957,1,8,0:0:0:0:
256,192,89051,1,8,0:0:0:0:
256,192,89238,1,8,0:0:0:0:
256,192,89613,1,8,0:0:0:0:
256,192,89801,1,8,0:0:0:0:
256,192,89988,1,8,0:0:0:0:
256,192,90176,1,0,0:0:0:0:
256,192,90363,1,0,0:0:0:0:
256,192,90457,1,0,0:0:0:0:
256,192,90551,1,0,0:0:0:0:
256,192,90738,1,0,0:0:0:0:
256,192,90832,1,0,0:0:0:0:
256,192,90926,1,0,0:0:0:0:
256,192,91113,1,8,0:0:0:0:
256,192,91488,1,4,0:0:0:0:
256,192,92051,1,12,0:0:0:0:
256,192,92426,1,4,0:0:0:0:
256,192,93176,1,0,0:0:0:0:
256,192,93551,1,0,0:0:0:0:
256,192,93738,1,0,0:0:0:0:
256,192,93926,1,8,0:0:0:0:
256,192,94113,1,0,0:0:0:0:
256,192,94301,1,8,0:0:0:0:
256,192,94488,1,8,0:0:0:0:
256,192,94676,1,4,0:0:0:0:
256,192,95051,1,4,0:0:0:0:
256,192,95238,1,4,0:0:0:0:
256,192,95613,1,8,0:0:0:0:
256,192,95801,1,8,0:0:0:0:
256,192,95988,1,8,0:0:0:0:
256,192,96176,1,0,0:0:0:0:
256,192,96363,1,0,0:0:0:0:
256,192,96457,1,0,0:0:0:0:
256,192,96551,1,0,0:0:0:0:
256,192,96738,1,0,0:0:0:0:
256,192,96832,1,0,0:0:0:0:
256,192,96926,1,0,0:0:0:0:
256,192,97113,1,0,0:0:0:0:
256,192,97207,1,0,0:0:0:0:
256,192,97301,1,0,0:0:0:0:
256,192,97676,1,4,0:0:0:0:
256,192,98051,1,12,0:0:0:0:
256,192,98426,1,4,0:0:0:0:
256,192,98613,1,8,0:0:0:0:
256,192,98707,1,8,0:0:0:0:
256,192,98801,1,8,0:0:0:0:
256,192,98988,1,8,0:0:0:0:
256,192,99176,1,0,0:0:0:0:
256,192,99363,1,0,0:0:0:0:
256,192,99457,1,0,0:0:0:0:
256,192,99551,1,0,0:0:0:0:
256,192,99738,1,0,0:0:0:0:
256,192,100113,1,0,0:0:0:0:
256,192,100301,1,8,0:0:0:0:
256,192,100676,1,8,0:0:0:0:
256,192,100863,1,8,0:0:0:0:
256,192,100957,1,8,0:0:0:0:
256,192,101051,1,8,0:0:0:0:
256,192,101238,1,8,0:0:0:0:
256,192,101613,1,8,0:0:0:0:
256,192,101801,1,8,0:0:0:0:
256,192,101988,1,8,0:0:0:0:
256,192,102176,1,0,0:0:0:0:
256,192,102363,1,0,0:0:0:0:
256,192,102457,1,0,0:0:0:0:
256,192,102551,1,0,0:0:0:0:
256,192,102738,1,0,0:0:0:0:
256,192,102832,1,0,0:0:0:0:
256,192,102926,1,0,0:0:0:0:
256,192,103113,1,0,0:0:0:0:
256,192,103488,1,4,0:0:0:0:
256,192,104051,1,12,0:0:0:0:
256,192,104426,1,4,0:0:0:0:
256,192,104613,1,8,0:0:0:0:
256,192,104707,1,8,0:0:0:0:
256,192,104801,1,8,0:0:0:0:
256,192,104988,1,8,0:0:0:0:
256,192,105176,1,0,0:0:0:0:
256,192,105363,1,0,0:0:0:0:
256,192,105457,1,0,0:0:0:0:
256,192,105551,1,0,0:0:0:0:
256,192,105738,1,8,0:0:0:0:
256,192,106113,1,0,0:0:0:0:
256,192,106301,1,8,0:0:0:0:
256,192,106488,1,0,0:0:0:0:
256,192,106676,1,8,0:0:0:0:
256,192,106863,1,8,0:0:0:0:
256,192,106957,1,8,0:0:0:0:
256,192,107051,1,8,0:0:0:0:
256,192,107238,1,8,0:0:0:0:
256,192,107614,1,8,0:0:0:0:
256,192,107707,1,8,0:0:0:0:
256,192,107801,1,8,0:0:0:0:
256,192,107988,1,8,0:0:0:0:
256,192,108176,1,0,0:0:0:0:
256,192,108363,1,0,0:0:0:0:
256,192,108457,1,0,0:0:0:0:
256,192,108551,1,0,0:0:0:0:
256,192,108738,1,0,0:0:0:0:
256,192,108832,1,0,0:0:0:0:
256,192,108926,1,0,0:0:0:0:
256,192,109113,1,0,0:0:0:0:
256,192,109207,1,0,0:0:0:0:
256,192,109301,1,0,0:0:0:0:
256,192,109676,1,4,0:0:0:0:
256,192,110051,1,12,0:0:0:0:
256,192,110426,1,4,0:0:0:0:
256,192,111176,1,0,0:0:0:0:
256,192,111363,1,0,0:0:0:0:
256,192,111457,1,0,0:0:0:0:
256,192,111551,1,0,0:0:0:0:
256,192,111738,1,0,0:0:0:0:
256,192,112113,1,0,0:0:0:0:
256,192,112301,1,8,0:0:0:0:
256,192,112676,1,8,0:0:0:0:
256,192,112863,1,8,0:0:0:0:
256,192,112957,1,8,0:0:0:0:
256,192,113051,1,8,0:0:0:0:
256,192,113238,1,8,0:0:0:0:
256,192,113613,1,8,0:0:0:0:
256,192,113801,1,8,0:0:0:0:
256,192,113988,1,8,0:0:0:0:
256,192,114176,1,0,0:0:0:0:
256,192,114363,1,8,0:0:0:0:
256,192,114457,1,8,0:0:0:0:
256,192,114551,1,0,0:0:0:0:
256,192,114738,1,8,0:0:0:0:
256,192,114832,1,8,0:0:0:0:
256,192,114926,1,0,0:0:0:0:
256,192,115113,1,8,0:0:0:0:
256,192,115488,1,4,0:0:0:0:
256,192,116051,1,12,0:0:0:0:
256,192,116426,1,4,0:0:0:0:
256,192,117363,1,0,0:0:0:0:
256,192,117738,1,0,0:0:0:0:
256,192,117926,1,8,0:0:0:0:
256,192,118301,1,0,0:0:0:0:
256,192,118676,1,0,0:0:0:0:
256,192,119238,1,0,0:0:0:0:
256,192,119426,1,8,0:0:0:0:
256,192,119801,1,0,0:0:0:0:
256,192,120176,1,0,0:0:0:0:
256,192,120738,1,0,0:0:0:0:
256,192,120926,1,8,0:0:0:0:
256,192,121301,1,0,0:0:0:0:
256,192,121488,1,0,0:0:0:0:
256,192,121676,1,4,0:0:0:0:
256,192,122238,1,8,0:0:0:0:
256,192,122801,1,12,0:0:0:0:
256,192,123176,1,4,0:0:0:0:
