osu file format v12

[General]
AudioFilename: invader.mp3
AudioLeadIn: 0
PreviewTime: 72176
Countdown: 0
SampleSet: Normal
StackLeniency: 0.7
Mode: 1
LetterboxInBreaks: 0
WidescreenStoryboard: 1

[Editor]
DistanceSpacing: 1.2
BeatDivisor: 4
GridSize: 8
TimelineZoom: 1

[Metadata]
Title:Invader Invader
TitleUnicode:インベーダーインベーダー
Artist:Kyary Pamyu Pamyu
ArtistUnicode:きゃりーぱみゅぱみゅ
Creator:TaMul
Version:Futsuu
Source:
Tags:TKSalt
BeatmapID:338662
BeatmapSetID:135017

[Difficulty]
HPDrainRate:4
CircleSize:3
OverallDifficulty:4
ApproachRate:5
SliderMultiplier:1.7
SliderTickRate:1

[Events]
//Background and Video events
0,0,"bgbg.png",0,0
//Break Periods
//Storyboard Layer 0 (Background)
//Storyboard Layer 1 (Fail)
//Storyboard Layer 2 (Pass)
//Storyboard Layer 3 (Foreground)
//Storyboard Sound Samples
//Background Colour Transformations
3,100,163,162,255

[TimingPoints]
176,375,4,1,0,100,1,0
72176,-100,4,1,0,100,0,1
93176,-100,4,1,0,100,0,0
96176,-100,4,1,0,100,0,1
117176,-100,4,1,0,100,0,0

[HitObjects]
256,192,3176,1,0,0:0:0:0:
256,192,4113,1,0,0:0:0:0:
256,192,4301,1,0,0:0:0:0:
256,192,4676,1,0,0:0:0:0:
256,192,5613,1,0,0:0:0:0:
256,192,5801,1,0,0:0:0:0:
256,192,6176,1,0,0:0:0:0:
256,192,6738,1,0,0:0:0:0:
256,192,7301,1,0,0:0:0:0:
256,192,7676,1,4,0:0:0:0:
256,192,8238,1,0,0:0:0:0:
256,192,8801,1,0,0:0:0:0:
256,192,9176,1,4,0:0:0:0:
256,192,9738,1,0,0:0:0:0:
256,192,10676,1,0,0:0:0:0:
256,192,11238,1,0,0:0:0:0:
256,192,12176,1,0,0:0:0:0:
256,192,12738,1,0,0:0:0:0:
256,192,13676,1,0,0:0:0:0:
256,192,14238,1,0,0:0:0:0:
256,192,15176,1,0,0:0:0:0:
256,192,15551,1,0,0:0:0:0:
256,192,15926,1,0,0:0:0:0:
256,192,16113,1,0,0:0:0:0:
256,192,16301,1,0,0:0:0:0:
256,192,16676,1,0,0:0:0:0:
256,192,17051,1,0,0:0:0:0:
256,192,17426,1,0,0:0:0:0:
256,192,17613,1,0,0:0:0:0:
256,192,17801,1,0,0:0:0:0:
256,192,18176,1,0,0:0:0:0:
256,192,18551,1,0,0:0:0:0:
256,192,18926,1,0,0:0:0:0:
256,192,19113,1,0,0:0:0:0:
256,192,19301,1,0,0:0:0:0:
256,192,19676,1,4,0:0:0:0:
256,192,20051,1,4,0:0:0:0:
256,192,21176,1,0,0:0:0:0:
256,192,21738,1,0,0:0:0:0:
256,192,22301,1,0,0:0:0:0:
256,192,22676,1,8,0:0:0:0:
256,192,23238,1,8,0:0:0:0:
256,192,23801,1,8,0:0:0:0:
256,192,24176,1,0,0:0:0:0:
256,192,24738,1,0,0:0:0:0:
256,192,25301,1,0,0:0:0:0:
256,192,25676,1,8,0:0:0:0:
256,192,26238,1,12,0:0:0:0:
256,192,27176,1,4,0:0:0:0:
256,192,27551,1,4,0:0:0:0:
256,192,27926,1,4,0:0:0:0:
256,192,28488,1,12,0:0:0:0:
256,192,28863,1,12,0:0:0:0:
256,192,29238,1,12,0:0:0:0:
256,192,30176,1,4,0:0:0:0:
256,192,30551,1,4,0:0:0:0:
256,192,30926,1,4,0:0:0:0:
256,192,31488,1,12,0:0:0:0:
256,192,31863,1,12,0:0:0:0:
256,192,32238,1,12,0:0:0:0:
256,192,33176,1,0,0:0:0:0:
256,192,33738,1,0,0:0:0:0:
256,192,34301,1,0,0:0:0:0:
256,192,34676,1,8,0:0:0:0:
256,192,35238,1,8,0:0:0:0:
256,192,35801,1,8,0:0:0:0:
256,192,36176,1,0,0:0:0:0:
256,192,36738,1,0,0:0:0:0:
256,192,37301,1,0,0:0:0:0:
256,192,37676,1,8,0:0:0:0:
256,192,38238,1,12,0:0:0:0:
256,192,39176,1,4,0:0:0:0:
256,192,39551,1,4,0:0:0:0:
256,192,39926,1,4,0:0:0:0:
256,192,40488,1,12,0:0:0:0:
256,192,40863,1,12,0:0:0:0:
256,192,41238,1,12,0:0:0:0:
256,192,42176,1,4,0:0:0:0:
256,192,42551,1,4,0:0:0:0:
256,192,42926,1,4,0:0:0:0:
256,192,43488,1,12,0:0:0:0:
256,192,43863,1,12,0:0:0:0:
256,192,44238,1,12,0:0:0:0:
256,192,44613,1,0,0:0:0:0:
256,192,44801,1,0,0:0:0:0:
256,192,44988,1,0,0:0:0:0:
256,192,45176,1,0,0:0:0:0:
256,192,45926,1,8,0:0:0:0:
256,192,46676,1,0,0:0:0:0:
256,192,47426,1,8,0:0:0:0:
256,192,48176,1,0,0:0:0:0:
176,144,48926,2,0,P|304:112|296:272,2,340
256,192,51176,1,0,0:0:0:0:
256,192,51551,1,0,0:0:0:0:
256,192,51926,12,0,53426,0:0:0:0:
256,192,54176,5,0,0:0:0:0:
176,144,54926,2,0,P|304:112|296:272,2,340
256,192,57176,1,8,0:0:0:0:
256,192,57551,1,8,0:0:0:0:
256,192,57926,12,8,59426,0:0:0:0:
256,192,60176,5,0,0:0:0:0:
256,104,60926,2,0,P|168:192|320:248,2,340
256,192,63176,1,0,0:0:0:0:
256,192,63551,1,0,0:0:0:0:
256,192,63926,12,0,65426,0:0:0:0:
256,192,66176,5,8,0:0:0:0:
256,192,66551,1,8,0:0:0:0:
272,104,66926,2,8,P|184:136|344:200,2,425
256,192,69363,1,0,0:0:0:0:
256,192,69738,1,0,0:0:0:0:
256,192,69926,1,0,0:0:0:0:
256,192,70676,1,0,0:0:0:0:
256,192,71238,1,0,0:0:0:0:
256,192,71801,1,0,0:0:0:0:
256,192,72176,1,0,0:0:0:0:
256,192,72551,1,0,0:0:0:0:
256,192,72926,1,0,0:0:0:0:
256,192,73301,1,0,0:0:0:0:
256,192,73676,1,4,0:0:0:0:
256,192,74051,1,12,0:0:0:0:
256,192,74426,1,4,0:0:0:0:
256,192,75176,1,0,0:0:0:0:
256,192,75551,1,0,0:0:0:0:
256,192,75738,1,0,0:0:0:0:
256,192,76113,1,0,0:0:0:0:
256,192,76301,1,0,0:0:0:0:
256,192,76676,1,8,0:0:0:0:
256,192,77051,1,8,0:0:0:0:
256,192,77238,1,8,0:0:0:0:
256,192,77613,1,8,0:0:0:0:
256,192,77801,1,8,0:0:0:0:
256,192,78176,1,0,0:0:0:0:
256,192,78551,1,0,0:0:0:0:
256,192,78926,1,0,0:0:0:0:
256,192,79113,1,0,0:0:0:0:
256,192,79488,1,4,0:0:0:0:
256,192,80051,1,12,0:0:0:0:
256,192,80426,1,4,0:0:0:0:
256,192,81176,1,0,0:0:0:0:
256,192,81551,1,0,0:0:0:0:
256,192,81738,1,0,0:0:0:0:
256,192,82113,1,0,0:0:0:0:
256,192,82301,1,0,0:0:0:0:
256,192,82676,1,8,0:0:0:0:
256,192,83051,1,8,0:0:0:0:
256,192,83238,1,8,0:0:0:0:
256,192,83613,1,8,0:0:0:0:
256,192,83801,1,8,0:0:0:0:
256,192,84176,1,0,0:0:0:0:
256,192,84551,1,0,0:0:0:0:
256,192,84926,1,0,0:0:0:0:
256,192,85301,1,0,0:0:0:0:
256,192,85676,1,4,0:0:0:0:
256,192,86051,1,12,0:0:0:0:
256,192,86426,1,4,0:0:0:0:
256,192,87176,1,0,0:0:0:0:
256,192,87551,1,0,0:0:0:0:
256,192,87738,1,0,0:0:0:0:
256,192,88113,1,0,0:0:0:0:
256,192,88301,1,0,0:0:0:0:
256,192,88676,1,8,0:0:0:0:
256,192,89051,1,8,0:0:0:0:
256,192,89238,1,8,0:0:0:0:
256,192,89613,1,8,0:0:0:0:
256,192,89801,1,8,0:0:0:0:
256,192,90176,1,0,0:0:0:0:
256,192,90551,1,0,0:0:0:0:
256,192,90926,1,0,0:0:0:0:
256,192,91113,1,8,0:0:0:0:
256,192,91488,1,4,0:0:0:0:
256,192,92051,1,12,0:0:0:0:
256,192,92426,1,4,0:0:0:0:
256,192,93176,1,0,0:0:0:0:
256,192,94113,1,8,0:0:0:0:
256,192,94301,1,8,0:0:0:0:
256,192,94676,1,4,0:0:0:0:
256,192,95238,1,4,0:0:0:0:
256,192,95613,1,0,0:0:0:0:
256,192,95801,1,0,0:0:0:0:
256,192,95988,1,0,0:0:0:0:
256,192,96176,1,0,0:0:0:0:
256,192,96551,1,8,0:0:0:0:
256,192,96926,1,0,0:0:0:0:
256,192,97301,1,8,0:0:0:0:
256,192,97676,1,4,0:0:0:0:
256,192,98051,1,12,0:0:0:0:
256,192,98426,1,4,0:0:0:0:
256,192,99176,1,0,0:0:0:0:
256,192,99551,1,0,0:0:0:0:
256,192,99738,1,0,0:0:0:0:
256,192,100113,1,0,0:0:0:0:
256,192,100301,1,0,0:0:0:0:
256,192,100676,1,8,0:0:0:0:
256,192,101051,1,8,0:0:0:0:
256,192,101238,1,8,0:0:0:0:
256,192,101613,1,8,0:0:0:0:
256,192,101801,1,8,0:0:0:0:
256,192,102176,1,0,0:0:0:0:
256,192,102551,1,8,0:0:0:0:
256,192,102926,1,0,0:0:0:0:
256,192,103113,1,0,0:0:0:0:
256,192,103488,1,4,0:0:0:0:
256,192,104051,1,12,0:0:0:0:
256,192,104426,1,4,0:0:0:0:
256,192,105176,1,0,0:0:0:0:
256,192,105551,1,0,0:0:0:0:
256,192,105738,1,0,0:0:0:0:
256,192,106113,1,0,0:0:0:0:
256,192,106301,1,0,0:0:0:0:
256,192,106676,1,8,0:0:0:0:
256,192,107051,1,8,0:0:0:0:
256,192,107238,1,8,0:0:0:0:
256,192,107613,1,8,0:0:0:0:
256,192,107801,1,8,0:0:0:0:
256,192,108176,1,0,0:0:0:0:
256,192,108551,1,8,0:0:0:0:
256,192,108926,1,0,0:0:0:0:
256,192,109301,1,8,0:0:0:0:
256,192,109676,1,4,0:0:0:0:
256,192,110051,1,12,0:0:0:0:
256,192,110426,1,4,0:0:0:0:
256,192,111176,1,0,0:0:0:0:
256,192,111551,1,0,0:0:0:0:
256,192,111738,1,0,0:0:0:0:
256,192,112113,1,0,0:0:0:0:
256,192,112301,1,0,0:0:0:0:
256,192,112676,1,8,0:0:0:0:
256,192,113051,1,8,0:0:0:0:
256,192,113238,1,8,0:0:0:0:
256,192,113613,1,8,0:0:0:0:
256,192,113801,1,8,0:0:0:0:
256,192,114176,1,0,0:0:0:0:
256,192,114551,1,0,0:0:0:0:
256,192,114926,1,0,0:0:0:0:
256,192,115113,1,0,0:0:0:0:
256,192,115488,1,4,0:0:0:0:
256,192,116051,1,12,0:0:0:0:
256,192,116426,1,4,0:0:0:0:
256,192,117176,1,4,0:0:0:0:
256,192,118113,1,8,0:0:0:0:
256,192,118301,1,8,0:0:0:0:
256,192,118676,1,4,0:0:0:0:
256,192,119613,1,8,0:0:0:0:
256,192,119801,1,8,0:0:0:0:
256,192,120176,1,4,0:0:0:0:
256,192,121113,1,8,0:0:0:0:
256,192,121301,1,8,0:0:0:0:
256,192,121488,1,8,0:0:0:0:
256,192,121676,1,8,0:0:0:0:
256,192,122238,1,0,0:0:0:0:
256,192,122801,1,0,0:0:0:0:
256,192,123176,1,4,0:0:0:0:
