osu file format v12

[General]
AudioFilename: pl.mp3
AudioLeadIn: 0
PreviewTime: 78734
Countdown: 0
SampleSet: Normal
StackLeniency: 0.6
Mode: 0
LetterboxInBreaks: 1
WidescreenStoryboard: 0

[Editor]
Bookmarks: 21734,29534,51284,52634,55034,60134,71534,78734,85484,97484,122534,128984,131834,136334,136934,137534,138734,146834,151334,155534,165734,193334,209684,212384,216284,217034,217334,234134
DistanceSpacing: 1.3
BeatDivisor: 2
GridSize: 16
TimelineZoom: 1.7

[Metadata]
Title:Furisodeshon
TitleUnicode:ふりそでーしょん
Artist:Kyary Pamyu Pamyu
ArtistUnicode:きゃりーぱみゅぱみゅ
Creator:jaob99
Version:HATACHI
Source:
Tags:kyary pamyu pamyu nakata yasutaka nandacollection 2013 20 hatachi
BeatmapID:365497
BeatmapSetID:147653

[Difficulty]
HPDrainRate:8
CircleSize:5
OverallDifficulty:9
ApproachRate:9
SliderMultiplier:2
SliderTickRate:2

[Events]
//Background and Video events
0,0,"Captura-de-pantalla-2013-01-10-a-las-23.05.07.jpg",0,0
Video,90,"bv.wmv"
//Break Periods
2,58983,60134
2,98584,116834
2,178984,180134
//Storyboard Layer 0 (Background)
//Storyboard Layer 1 (Fail)
//Storyboard Layer 2 (Pass)
//Storyboard Layer 3 (Foreground)
//Storyboard Sound Samples
//Background Colour Transformations
3,100,163,162,255

[TimingPoints]
134.381463803314,300,4,1,0,100,1,0
1934,-133.333333333333,4,1,0,100,0,0
21734,-100,4,1,0,100,0,0
78734,-100,4,1,0,100,0,1
97334,-100,4,1,0,100,0,0
155534,-100,4,1,0,100,0,1
174134,-100,4,1,0,100,0,0
175334,-133.333333333333,4,1,0,100,0,0
192134,-100,4,1,0,100,0,0
193934,-100,4,1,0,100,0,1
212534,-133.333333333333,4,3,0,100,0,1
216134,-100,4,1,0,100,0,0

[Colours]
Combo1 : 255,64,0
Combo2 : 255,0,0
Combo3 : 0,255,0
Combo4 : 0,0,255

[HitObjects]
128,128,1934,5,0,0:0:0:0:
128,320,2234,1,0,0:0:0:0:
320,320,2534,2,0,L|320:160,1,150.000005722046,0|0,0:0|0:0,0:0:0:0:
48,272,3284,5,0,0:0:0:0:
144,272,3434,1,8,0:0:0:0:
240,272,3584,1,8,0:0:0:0:
432,80,3884,5,0,0:0:0:0:
336,80,4034,1,8,0:0:0:0:
240,80,4184,1,8,0:0:0:0:
48,144,4484,5,0,0:0:0:0:
128,192,4634,1,8,0:0:0:0:
208,240,4784,1,12,0:0:0:0:
288,288,4934,6,8,L|416:160,1,150.000005722046
208,128,5534,1,0,0:0:0:0:
112,112,5684,1,8,0:0:0:0:
208,128,5834,1,8,0:0:0:0:
304,144,5984,1,0,0:0:0:0:
176,288,6284,2,8,L|176:192,1,75.0000028610231
256,192,6734,6,8,L|144:80,2,150.000005722046,8|8|12,0:0|0:0|0:0,0:0:0:0:
384,96,8084,5,0,0:0:0:0:
400,192,8234,1,8,0:0:0:0:
336,272,8384,1,12,0:0:0:0:
256,96,8684,5,0,0:0:0:0:
192,176,8834,1,8,0:0:0:0:
128,96,8984,1,8,0:0:0:0:
192,176,9134,2,2,L|192:272,2,75.0000028610231
96,176,9584,1,8,0:0:0:0:
272,256,9884,1,4,0:0:0:0:
272,128,10034,6,8,L|272:272,1,75.0000028610231
272,304,10334,1,0,0:0:0:0:
192,240,10484,6,2,L|192:128,2,75.0000028610231,0|0|0,0:0|0:0|0:0,0:0:0:0:
192,64,11084,1,4,0:0:0:0:
112,304,11534,6,8,L|288:304,1,150.000005722046
464,304,12134,1,12,0:0:0:0:
256,64,12884,5,0,0:0:0:0:
208,160,13034,1,8,0:0:0:0:
256,240,13184,1,8,0:0:0:0:
432,144,13484,6,8,L|384:208,2,75.0000028610231
240,128,14084,2,2,L|336:144,1,75.0000028610231
368,208,14384,1,8,0:0:0:0:
192,288,14684,1,8,0:0:0:0:
80,128,14984,6,8,L|160:64,2,75.0000028610231
112,320,15584,2,2,L|208:240,1,75.0000028610231
240,208,15884,2,2,L|336:128,1,75.0000028610231
256,64,16184,1,2,0:0:0:0:
256,192,16334,5,4,0:0:0:0:
256,192,16634,1,8,0:0:0:0:
64,192,16934,2,0,B|144:112|144:112|272:96,1,225.000008583069
208,288,17684,5,0,0:0:0:0:
304,288,17834,1,8,0:0:0:0:
400,288,17984,1,8,0:0:0:0:
304,96,18284,5,0,0:0:0:0:
208,96,18434,1,8,0:0:0:0:
112,96,18584,1,8,0:0:0:0:
48,176,18734,2,8,L|112:224,2,75.0000028610231
48,80,19184,5,12,0:0:0:0:
112,320,19334,2,0,L|176:256,1,75.0000028610231
400,64,19634,2,0,L|336:128,1,75.0000028610231
224,272,19934,2,0,L|160:208,1,75.0000028610231
288,112,20234,2,0,L|352:176,1,75.0000028610231
256,192,20534,5,0,0:0:0:0:
256,298,20684,5,2,0:0:0:0:
149,191,20834,1,2,0:0:0:0:
256,85,20984,1,2,0:0:0:0:
256,192,21284,1,10,0:0:0:0:
256,192,21584,5,4,0:0:0:0:
112,304,21884,6,8,L|80:192,1,100
160,96,22184,1,0,0:0:0:0:
288,112,22334,1,8,0:0:0:0:
368,208,22484,1,8,0:0:0:0:
368,336,22634,1,8,0:0:0:0:
256,272,22784,5,0,0:0:0:0:
256,272,23084,2,8,L|176:208,1,100
192,80,23384,1,0,0:0:0:0:
320,80,23534,2,8,L|400:144,3,100
144,192,24284,5,0,0:0:0:0:
16,192,24434,2,8,L|144:192,1,100
240,192,24734,1,2,0:0:0:0:
256,336,25034,2,2,L|256:224,1,100
64,48,25484,6,2,L|160:112,1,100
144,240,25784,2,2,L|272:336,1,100
176,176,26084,2,2,L|96:112,1,100
144,240,26384,1,6,0:0:0:0:
400,320,26684,6,0,L|400:192,1,100,0|8,0:0|0:0,0:0:0:0:
272,192,26984,2,0,L|272:64,1,100,0|8,0:0|0:0,0:0:0:0:
400,64,27434,2,8,B|352:64|352:64|336:192,1,100
160,304,27884,6,0,L|240:224,1,100,0|8,0:0|0:0,0:0:0:0:
352,80,28184,2,0,L|272:160,1,100,0|8,0:0|0:0,0:0:0:0:
160,208,28484,2,0,L|272:176,1,100,0|8,0:0|0:0,0:0:0:0:
384,144,28784,1,12,0:0:0:0:
464,240,28934,6,2,L|384:304,1,100
288,208,29234,1,8,0:0:0:0:
192,128,29384,2,2,P|96:272|112:320,1,200
224,288,29834,1,2,0:0:0:0:
224,288,29984,1,6,0:0:0:0:
128,240,30284,5,0,0:0:0:0:
96,112,30434,2,2,L|192:160,1,100
256,272,30734,1,2,0:0:0:0:
336,176,30884,1,2,0:0:0:0:
240,288,31034,1,2,0:0:0:0:
352,160,31184,1,6,0:0:0:0:
256,64,31484,5,0,0:0:0:0:
176,160,31634,2,8,L|256:224,1,100
256,352,31934,2,2,B|224:256|304:256|256:160,1,200
256,32,32384,5,8,0:0:0:0:
144,80,32684,5,0,0:0:0:0:
144,80,32834,1,8,0:0:0:0:
80,192,32984,1,8,0:0:0:0:
80,192,33134,1,2,0:0:0:0:
80,192,33284,1,2,0:0:0:0:
192,256,33434,1,8,0:0:0:0:
192,256,33584,1,4,0:0:0:0:
400,96,33884,5,0,0:0:0:0:
336,208,34034,1,8,0:0:0:0:
240,288,34184,1,8,0:0:0:0:
160,176,34334,2,2,B|192:80|192:80|304:112,1,200
288,240,34784,1,4,0:0:0:0:
256,80,35084,5,0,0:0:0:0:
256,80,35234,1,8,0:0:0:0:
256,80,35384,1,8,0:0:0:0:
256,80,35534,1,2,0:0:0:0:
256,80,35684,1,2,0:0:0:0:
256,80,35834,1,8,0:0:0:0:
256,80,35984,1,4,0:0:0:0:
112,304,36284,5,0,0:0:0:0:
208,208,36434,2,8,L|288:128,1,100
368,224,36734,2,2,B|400:128|400:128|288:32,1,200
176,48,37184,1,4,0:0:0:0:
256,288,37484,5,0,0:0:0:0:
256,256,37634,1,8,0:0:0:0:
256,224,37784,1,8,0:0:0:0:
256,192,37934,1,2,0:0:0:0:
256,160,38084,1,2,0:0:0:0:
256,128,38234,1,8,0:0:0:0:
256,96,38384,1,8,0:0:0:0:
256,192,38684,12,4,40634,0:0:0:0:
256,96,40934,6,0,B|208:192|304:192|256:320,2,200,0|2|2,0:0|0:0|0:0,0:0:0:0:
128,112,41684,2,2,L|192:224,1,100
288,256,41984,1,6,0:0:0:0:
32,256,42284,5,0,0:0:0:0:
288,256,42584,1,8,0:0:0:0:
288,256,42734,1,2,0:0:0:0:
256,64,43034,5,0,0:0:0:0:
256,320,43334,2,0,B|208:208|304:208|256:128,1,200
256,129,43784,1,8,0:0:0:0:
128,192,44084,5,8,0:0:0:0:
384,192,44384,5,8,0:0:0:0:
160,320,44684,5,0,0:0:0:0:
336,128,44984,1,8,0:0:0:0:
336,128,45134,1,2,0:0:0:0:
160,320,45434,1,0,0:0:0:0:
256,304,45734,5,0,0:0:0:0:
256,48,46034,2,0,L|256:160,1,100
448,320,46484,1,8,0:0:0:0:
448,320,46784,1,8,0:0:0:0:
256,144,47084,5,0,0:0:0:0:
64,320,47384,1,8,0:0:0:0:
64,320,47534,1,2,0:0:0:0:
256,192,47834,5,0,0:0:0:0:
48,336,48134,2,0,L|48:224,1,100
144,144,48434,1,8,0:0:0:0:
224,48,48584,2,0,L|336:48,2,100
256,304,49184,5,0,0:0:0:0:
256,48,49484,1,0,0:0:0:0:
256,176,49634,2,0,P|240:240|192:288,2,100,0|2|0,0:0|0:0|0:0,0:0:0:0:
352,96,50084,1,2,0:0:0:0:
48,352,50534,5,0,0:0:0:0:
48,224,50684,1,0,0:0:0:0:
48,96,50834,2,0,L|48:240,1,100,0|2,0:0|0:0,0:0:0:0:
272,336,51284,2,2,L|144:256,1,100
80,208,51584,1,6,0:0:0:0:
320,96,51884,6,0,L|320:208,2,100,0|2|0,0:0|0:0|0:0,0:0:0:0:
192,96,52334,1,2,0:0:0:0:
192,96,52484,1,0,0:0:0:0:
256,248,52634,6,8,L|256:48,1,200,8|10,0:0|0:0,0:0:0:0:
0,192,53234,2,0,L|112:192,1,100,0|2,0:0|0:0,0:0:0:0:
352,192,53684,1,2,0:0:0:0:
352,192,53984,1,6,0:0:0:0:
96,144,54284,6,0,L|224:144,2,100,0|8|8,0:0|0:0|0:0,0:0:0:0:
352,144,54884,1,0,0:0:0:0:
112,320,55034,5,8,0:0:0:0:
128,192,55184,1,0,0:0:0:0:
224,96,55334,2,0,B|278:80|278:80|336:112,1,100
304,224,55634,1,0,0:0:0:0:
176,272,55784,2,8,B|192:144|272:240|304:112,1,200
299,131,56384,1,12,0:0:0:0:
480,320,56684,6,2,L|368:240,1,100
288,192,56984,1,0,0:0:0:0:
176,128,57134,1,2,0:0:0:0:
80,48,57284,1,2,0:0:0:0:
64,336,57434,5,0,0:0:0:0:
160,96,57734,2,0,L|240:192,1,100
288,288,58034,2,8,L|176:240,1,100
400,80,58484,2,2,L|240:208,1,200,2|6,0:0|0:0,0:0:0:0:
160,224,60734,6,0,L|240:320,1,100,0|8,0:0|0:0,0:0:0:0:
352,160,61034,2,0,L|272:64,1,100,0|8,0:0|0:0,0:0:0:0:
256,192,61334,1,2,0:0:0:0:
256,192,61634,1,0,0:0:0:0:
256,64,61934,6,0,L|256:192,2,100,0|8|2,0:0|0:0|0:0,0:0:0:0:
32,192,62534,6,2,L|144:192,1,100
240,256,62834,2,8,L|240:144,1,100
368,160,63134,2,8,L|368:272,1,100
240,256,63434,5,4,0:0:0:0:
240,128,63584,1,4,0:0:0:0:
432,304,63884,6,0,L|320:192,1,100
272,144,64184,1,8,0:0:0:0:
144,144,64334,2,2,L|144:256,3,100
48,336,64934,1,0,0:0:0:0:
112,224,65084,1,0,0:0:0:0:
176,336,65234,1,0,0:0:0:0:
240,224,65384,1,0,0:0:0:0:
256,336,65534,5,0,0:0:0:0:
160,240,65684,1,2,0:0:0:0:
192,112,65834,1,2,0:0:0:0:
320,64,65984,1,0,0:0:0:0:
432,112,66134,5,6,0:0:0:0:
256,256,66734,2,0,L|256:48,1,200
64,224,67334,6,2,L|176:112,1,100
160,288,67634,1,8,0:0:0:0:
256,208,67784,2,2,B|208:112|304:112|256:0,2,200
368,272,68534,5,0,0:0:0:0:
368,112,68684,1,8,0:0:0:0:
320,224,68834,1,8,0:0:0:0:
320,160,68984,1,0,0:0:0:0:
256,192,69134,6,8,L|256:80,2,100
256,192,69734,1,4,0:0:0:0:
256,304,70034,5,4,0:0:0:0:
256,48,70334,1,8,0:0:0:0:
256,176,70484,1,8,0:0:0:0:
256,176,70784,5,8,0:0:0:0:
496,176,71084,2,2,L|336:176,1,100
144,192,71534,5,4,0:0:0:0:
368,192,71834,1,4,0:0:0:0:
112,192,72134,5,2,0:0:0:0:
400,192,72284,1,2,0:0:0:0:
256,320,72434,6,2,L|256:208,1,100
256,48,72884,2,8,B|192:144|320:144|256:240,1,200
256,368,73484,1,0,0:0:0:0:
256,112,73784,1,8,0:0:0:0:
256,240,73934,1,8,0:0:0:0:
256,112,74084,1,8,0:0:0:0:
136,192,74534,5,0,0:0:0:0:
376,192,74684,1,8,0:0:0:0:
96,192,74834,1,0,0:0:0:0:
416,192,74984,1,8,0:0:0:0:
256,304,75284,5,8,0:0:0:0:
256,32,75584,2,2,L|256:240,1,200
256,232,76034,1,2,0:0:0:0:
96,112,76334,6,2,B|128:144|128:144|160:144|160:144|128:176|128:176|160:176|160:176|224:224,1,200
256,192,76934,12,4,78434,0:0:0:0:
256,48,78734,5,8,0:0:0:0:
256,336,79034,1,8,0:0:0:0:
256,192,79334,5,2,0:0:0:0:
128,192,79484,2,2,L|0:192,1,100
256,80,79934,1,8,0:0:0:0:
384,128,80084,6,2,L|448:208,2,100
256,208,80684,2,2,L|256:320,2,100
128,128,81284,2,2,L|64:208,2,100
144,64,81734,2,8,P|215:28|179:100,2,200
80,176,82484,1,2,0:0:0:0:
80,176,82634,1,2,0:0:0:0:
336,192,82784,6,0,B|240:240|320:304|208:336,1,200
112,240,83234,1,8,0:0:0:0:
368,240,83534,1,8,0:0:0:0:
240,240,83684,2,2,L|240:140,2,100
240,240,84134,1,0,0:0:0:0:
240,352,84434,2,0,L|240:224,1,100
256,48,84884,5,0,0:0:0:0:
256,176,85034,2,2,L|256:48,1,100
256,336,85484,2,8,L|256:224,2,100
160,192,85934,1,2,0:0:0:0:
352,192,86084,1,0,0:0:0:0:
144,192,86234,1,2,0:0:0:0:
368,192,86384,1,2,0:0:0:0:
256,48,86534,6,2,L|256:256,2,200
96,256,87434,2,2,L|192:144,1,100
400,64,87884,5,2,0:0:0:0:
304,144,88034,2,2,B|189:160|275:255|149:283,1,200
256,192,88484,5,8,0:0:0:0:
256,192,88634,1,2,0:0:0:0:
256,352,88934,6,0,L|256:224,1,100,0|2,0:0|0:0,0:0:0:0:
256,32,89234,2,0,L|256:160,1,100,0|2,0:0|0:0,0:0:0:0:
112,336,89534,2,0,L|202:245,1,100,0|2,0:0|0:0,0:0:0:0:
400,48,89834,2,2,L|310:139,1,100
256,352,90134,6,0,L|256:224,1,100,0|2,0:0|0:0,0:0:0:0:
256,32,90434,2,0,L|256:160,1,100,0|2,0:0|0:0,0:0:0:0:
112,320,90734,2,0,L|183:250,1,100,0|2,0:0|0:0,0:0:0:0:
384,64,91034,2,2,L|313:134,1,100
128,80,91334,6,8,L|224:160,1,100
160,208,91634,2,8,L|240:272,1,100
128,256,91934,2,10,P|213:250|193:159,1,200
96,160,92384,5,8,0:0:0:0:
224,128,92684,2,2,L|320:48,2,100
304,224,93134,2,2,L|416:128,4,100,2|2|2|2|6,0:0|0:0|0:0|0:0|0:0,0:0:0:0:
48,192,94034,2,2,P|64:160|192:192,1,200
256,64,94484,5,2,0:0:0:0:
256,192,94634,2,8,L|256:304,1,100
256,320,95084,5,8,0:0:0:0:
256,192,95234,2,2,L|256:80,2,100
160,288,95684,2,8,L|80:176,1,100
176,80,95984,2,0,L|256:192,1,100,4|0,0:0|0:0,0:0:0:0:
336,304,96284,2,0,L|256:192,1,100
208,304,96584,2,0,P|147:266|152:202,1,100
304,80,96884,2,0,P|364:117|359:181,1,100
288,160,97184,2,0,L|224:240,1,100
256,192,97484,5,0,0:0:0:0:
256,192,97634,1,0,0:0:0:0:
256,350,97784,5,2,0:0:0:0:
97,192,97934,1,2,0:0:0:0:
255,33,98084,1,8,0:0:0:0:
414,191,98234,1,0,0:0:0:0:
256,192,98384,5,4,0:0:0:0:
256,192,117434,5,0,0:0:0:0:
64,368,117734,2,2,L|183:258,1,100
240,208,118034,2,0,L|336:112,1,100,2|2,0:0|0:0,0:0:0:0:
310,137,118334,2,4,L|240:208,1,100,4|2,0:0|0:0,0:0:0:0:
144,304,118634,1,0,0:0:0:0:
144,304,118784,1,2,0:0:0:0:
400,304,119084,5,2,0:0:0:0:
192,144,119384,1,0,0:0:0:0:
192,144,119534,1,2,0:0:0:0:
256,192,119834,5,0,0:0:0:0:
256,333,120134,1,0,0:0:0:0:
114,191,120284,1,2,0:0:0:0:
256,50,120434,1,2,0:0:0:0:
397,192,120584,1,0,0:0:0:0:
256,192,120884,5,8,0:0:0:0:
356,291,121184,5,2,0:0:0:0:
156,292,121334,1,8,0:0:0:0:
155,92,121484,1,8,0:0:0:0:
355,91,121634,1,0,0:0:0:0:
256,333,121784,5,8,0:0:0:0:
114,192,121934,1,8,0:0:0:0:
255,50,122084,1,2,0:0:0:0:
397,191,122234,1,0,0:0:0:0:
256,192,122384,5,0,0:0:0:0:
208,128,122534,6,0,L|320:128,1,100
256,192,122834,1,2,0:0:0:0:
160,192,122984,2,2,B|256:128|256:256|368:192,2,200
256,64,123884,5,2,0:0:0:0:
256,64,124034,1,0,0:0:0:0:
256,64,124184,1,0,0:0:0:0:
256,192,124334,1,2,0:0:0:0:
256,320,124484,1,0,0:0:0:0:
128,192,124934,2,0,L|240:192,1,100
384,192,125234,2,8,L|272:192,1,100
256,128,125684,1,2,0:0:0:0:
256,128,125834,1,0,0:0:0:0:
256,128,125984,2,2,L|256:272,3,100
256,48,126584,2,8,L|256:248,1,200
208,320,127334,6,0,B|224:336|224:336|224:304|224:304|240:352|240:352|240:288|240:288|256:368|256:368|256:256|256:256|256:192,1,400,0|2,0:0|0:0,0:0:0:0:
256,96,128084,5,0,0:0:0:0:
256,288,128234,5,2,0:0:0:0:
256,208,128384,6,2,B|256:176|256:176|272:176|272:176|240:160|240:160|272:160|272:160|240:144|240:144|272:144|272:144|240:128|240:128|272:128|272:128|240:112|240:112|272:112|272:112|240:96|240:96|256:96|256:96|256:64,1,400
256,352,129434,5,0,0:0:0:0:
203,106,129734,2,2,L|283:234,1,100
255,188,130034,2,0,L|308:104,1,100,8|2,0:0|0:0,0:0:0:0:
303,105,130334,2,8,L|204:105,1,100
256,144,130634,5,0,0:0:0:0:
256,144,130784,1,2,0:0:0:0:
80,336,131084,2,0,L|160:256,1,100
240,176,131384,2,0,L|320:96,2,100,0|2|2,0:0|0:0|0:0,0:0:0:0:
256,304,131834,5,0,0:0:0:0:
256,304,131984,1,0,0:0:0:0:
176,208,132134,2,2,L|256:144,1,100
336,208,132434,2,8,L|256:144,1,100
256,64,132884,6,8,B|208:160|304:160|256:256,1,200
256,256,133484,1,2,0:0:0:0:
256,256,133784,5,0,0:0:0:0:
256,256,133934,1,2,0:0:0:0:
256,256,134084,1,0,0:0:0:0:
160,192,134234,6,0,L|304:192,2,100,0|2|2,0:0|0:0|0:0,0:0:0:0:
48,256,134684,1,0,0:0:0:0:
160,320,134834,2,0,L|272:320,1,100,0|2,0:0|0:0,0:0:0:0:
256,192,135284,5,4,0:0:0:0:
256,192,135584,1,4,0:0:0:0:
256,192,135884,1,0,0:0:0:0:
256,192,136034,1,8,0:0:0:0:
256,192,136184,1,8,0:0:0:0:
256,32,136334,6,2,B|247:48|247:48|263:48|263:48|247:64|247:64|263:64|263:64|247:80|247:80|263:80|263:80|247:96|247:96|263:96|263:96|247:112|247:112|263:112|263:112|247:128|247:128|263:128|263:128|247:144|247:144|263:144|263:144|247:160|247:160|263:160|263:160|247:176|247:176|263:176|263:176|247:192|247:192|263:192|263:192|247:208|247:208|263:208|263:208|256:224,1,400,2|6,0:0|0:0,0:0:0:0:
192,192,137234,5,0,0:0:0:0:
320,192,137534,1,8,0:0:0:0:
48,192,137834,2,2,P|55:97|176:96,1,200
256,304,138434,2,8,L|256:176,1,100
256,64,138734,6,8,L|256:224,2,100
160,304,139334,2,0,L|240:208,1,100,0|2,0:0|0:0,0:0:0:0:
352,304,139634,2,0,L|272:208,1,100,0|2,0:0|0:0,0:0:0:0:
256,96,139934,2,8,L|256:224,1,100
256,192,140384,5,2,0:0:0:0:
256,192,140684,5,0,0:0:0:0:
256,192,140834,1,2,0:0:0:0:
256,192,140984,1,2,0:0:0:0:
256,336,141134,2,2,L|256:208,3,100
256,112,141734,5,0,0:0:0:0:
256,112,142034,1,8,0:0:0:0:
256,304,142334,6,0,B|192:208|304:208|256:96,2,200,0|8|2,0:0|0:0|0:0,0:0:0:0:
160,208,143084,2,0,L|224:96,1,100
336,112,143384,1,0,0:0:0:0:
256,64,143534,5,8,0:0:0:0:
256,320,143834,1,8,0:0:0:0:
176,192,144134,5,2,0:0:0:0:
336,192,144284,1,2,0:0:0:0:
160,192,144434,1,0,0:0:0:0:
352,192,144584,1,2,0:0:0:0:
256,256,144884,6,2,L|256:144,2,100
256,256,145484,1,8,0:0:0:0:
256,48,145784,5,8,0:0:0:0:
224,112,145934,1,8,0:0:0:0:
288,112,146084,1,8,0:0:0:0:
256,192,146234,6,2,L|256:320,2,100
112,320,146834,5,8,0:0:0:0:
80,64,147134,2,0,L|96:224,2,100,2|0|2,0:0|0:0|0:0,0:0:0:0:
208,64,147584,2,0,B|208:176|320:176|320:64|320:64|416:64,1,300,0|8,0:0|0:0,0:0:0:0:
384,288,148334,6,2,L|288:80,1,200
160,272,148934,1,2,0:0:0:0:
160,112,149084,1,2,0:0:0:0:
160,240,149234,1,0,0:0:0:0:
160,144,149384,2,2,B|144:176|144:176|176:176|176:176|144:208|144:208|176:208|176:208|144:224|144:224|176:240,2,200,2|2|6,0:0|0:0|0:0,0:0:0:0:
288,144,150134,2,0,L|416:144,2,100,0|0|8,0:0|0:0|0:0,0:0:0:0:
288,272,150584,2,0,L|176:272,2,100,0|8|8,0:0|0:0|0:0,0:0:0:0:
288,272,151034,1,0,0:0:0:0:
288,144,151184,1,4,0:0:0:0:
256,64,151334,6,2,L|256:256,1,100
272,288,151634,1,0,0:0:0:0:
240,288,151784,1,2,0:0:0:0:
256,32,152084,2,8,B|192:128|304:128|256:224,1,200,8|10,0:0|0:0,0:0:0:0:
384,192,152684,2,0,L|272:192,1,100
160,192,153134,6,2,L|384:192,1,200
360,192,153734,1,0,0:0:0:0:
224,192,153884,1,2,0:0:0:0:
128,272,154034,1,2,0:0:0:0:
48,176,154184,1,0,0:0:0:0:
144,80,154334,2,2,L|272:160,1,100
352,96,154634,2,2,L|240:16,1,100
256,160,154934,6,8,B|240:192|240:192|272:208|272:208|240:224|240:224|272:240|272:240|240:256|240:256|272:272|272:272|256:304,1,200,8|4,0:0|0:0,0:0:0:0:
256,96,155534,6,0,B|192:192|304:192|256:288,2,200,0|0|2,0:0|0:0|0:0,0:0:0:0:
256,96,156284,1,2,0:0:0:0:
256,96,156434,1,2,0:0:0:0:
96,304,156734,1,0,0:0:0:0:
96,304,156884,2,0,L|176:208,2,100,0|2|2,0:0|0:0|0:0,0:0:0:0:
256,336,157484,2,0,L|256:224,2,100,0|2|2,0:0|0:0|0:0,0:0:0:0:
416,304,158084,2,0,L|336:208,2,100,0|2|2,0:0|0:0|0:0,0:0:0:0:
256,96,158534,5,2,0:0:0:0:
256,96,158834,1,2,0:0:0:0:
112,320,159134,1,0,0:0:0:0:
192,224,159284,1,2,0:0:0:0:
272,112,159434,1,2,0:0:0:0:
352,224,159584,5,0,0:0:0:0:
96,144,159884,1,0,0:0:0:0:
96,144,160034,1,2,0:0:0:0:
96,144,160184,2,0,L|96:256,2,100,0|0|2,0:0|0:0|0:0,0:0:0:0:
96,144,160634,1,2,0:0:0:0:
256,336,160934,6,0,L|256:160,1,100
256,236,161234,1,0,0:0:0:0:
64,48,161684,2,0,L|160:112,2,100,0|2|2,0:0|0:0|0:0,0:0:0:0:
448,336,162284,2,2,L|352:272,2,100
336,256,162734,1,0,0:0:0:0:
240,176,162884,1,2,0:0:0:0:
144,96,163034,1,0,0:0:0:0:
256,32,163184,6,2,B|208:128|304:128|256:224,1,200,8|4,0:0|0:0,0:0:0:0:
144,288,163634,5,0,0:0:0:0:
144,288,163784,1,2,0:0:0:0:
64,176,163934,1,2,0:0:0:0:
64,176,164084,2,2,B|128:176|128:176|144:160|144:160|144:192|144:192|160:176|160:176|224:176,1,200
256,80,164684,6,8,L|256:208,1,100
256,304,165134,1,8,0:0:0:0:
256,304,165434,1,8,0:0:0:0:
256,48,165734,5,4,0:0:0:0:
256,304,166034,2,0,L|256:176,1,100
96,288,166484,1,8,0:0:0:0:
176,192,166634,1,2,0:0:0:0:
256,96,166784,1,2,0:0:0:0:
496,192,167084,1,0,0:0:0:0:
384,256,167234,1,2,0:0:0:0:
256,288,167384,1,2,0:0:0:0:
48,144,167684,2,0,B|112:64|112:64|176:144,1,200,0|2,0:0|0:0,0:0:0:0:
368,304,168284,5,6,0:0:0:0:
48,96,168734,2,0,L|48:208,2,100,8|2|2,0:0|0:0|0:0,0:0:0:0:
176,112,169184,5,8,0:0:0:0:
288,352,169484,1,0,0:0:0:0:
368,240,169634,1,2,0:0:0:0:
432,128,169784,1,2,0:0:0:0:
304,112,169934,6,2,L|192:112,1,100
80,112,170234,1,2,0:0:0:0:
256,192,170534,5,4,0:0:0:0:
256,192,170834,2,2,L|256:304,1,100
112,320,171284,1,0,0:0:0:0:
112,192,171434,1,2,0:0:0:0:
112,64,171584,1,2,0:0:0:0:
272,272,171884,5,8,0:0:0:0:
272,144,172034,1,2,0:0:0:0:
272,16,172184,1,2,0:0:0:0:
384,96,172334,5,8,0:0:0:0:
384,224,172484,1,2,0:0:0:0:
384,352,172634,1,2,0:0:0:0:
256,192,172784,12,0,173984,0:0:0:0:
256,304,174284,6,2,L|256:176,1,100
256,80,174584,1,10,0:0:0:0:
256,80,174884,1,8,0:0:0:0:
256,80,175184,1,12,0:0:0:0:
256,304,175934,6,0,L|256:176,3,75.0000028610231,0|2|2|8,0:0|0:0|0:0|0:0,0:0:0:0:
160,224,176534,1,8,0:0:0:0:
352,224,176834,2,0,L|352:128,1,75.0000028610231,0|8,0:0|0:0,0:0:0:0:
96,64,177734,5,2,0:0:0:0:
96,256,178034,2,0,L|96:144,1,75.0000028610231,2|8,0:0|0:0,0:0:0:0:
288,192,178484,1,8,0:0:0:0:
288,192,178784,1,14,0:0:0:0:
64,48,180734,6,0,L|144:112,2,75.0000028610231,0|0|2,0:0|0:0|0:0,0:0:0:0:
64,144,181184,1,2,0:0:0:0:
64,240,181334,2,8,L|192:352,2,150.000005722046,0|0|4,0:0|0:0|0:0,0:0:0:0:
448,320,182534,5,2,0:0:0:0:
256,320,182834,2,2,L|256:208,1,75.0000028610231
256,48,183284,2,8,B|192:112|320:112|256:192,1,150.000005722046,8|14,0:0|0:0,0:0:0:0:
256,192,184934,5,0,0:0:0:0:
64,192,185234,2,2,P|96:128|160:112,1,75.0000028610231,8|2,0:0|0:0,0:0:0:0:
256,16,185684,1,0,0:0:0:0:
256,16,185984,1,2,0:0:0:0:
256,336,187034,6,2,L|256:240,1,75.0000028610231
160,272,187334,2,8,P|96:224|96:128,1,150.000005722046
176,160,187784,1,0,0:0:0:0:
272,160,188084,1,8,0:0:0:0:
368,160,188384,1,12,0:0:0:0:
256,336,189734,6,2,L|256:144,1,150.000005722046
256,80,190184,1,8,0:0:0:0:
256,272,190484,1,0,0:0:0:0:
256,80,190784,1,2,0:0:0:0:
256,272,191084,1,2,0:0:0:0:
256,272,191234,5,0,0:0:0:0:
64,272,191534,2,0,L|64:112,1,150.000005722046
256,199,192134,5,0,0:0:0:0:
248,192,192284,1,2,0:0:0:0:
256,184,192434,1,2,0:0:0:0:
263,192,192584,1,0,0:0:0:0:
256,199,192734,5,2,0:0:0:0:
248,192,192884,1,2,0:0:0:0:
256,184,193034,1,0,0:0:0:0:
263,192,193184,1,6,0:0:0:0:
256,320,193934,6,0,B|224:224|304:224|256:112,2,200,0|0|2,0:0|0:0|0:0,0:0:0:0:
256,192,194684,2,2,L|256:292,1,100,2|2,0:0|0:0,0:0:0:0:
368,64,195284,2,0,L|368:192,2,100,0|2|2,0:0|0:0|0:0,0:0:0:0:
144,64,195884,2,0,L|144:192,2,100,0|2|2,0:0|0:0|0:0,0:0:0:0:
256,288,196484,2,0,L|256:188,2,100,0|2|2,0:0|0:0|0:0,0:0:0:0:
128,288,196934,5,0,0:0:0:0:
256,64,197234,1,2,0:0:0:0:
368,304,197534,2,2,L|272:208,2,100
240,320,197984,5,8,0:0:0:0:
416,128,198284,2,0,L|304:128,2,100,0|2|2,0:0|0:0|0:0,0:0:0:0:
416,256,198734,1,0,0:0:0:0:
384,256,198884,1,2,0:0:0:0:
352,256,199034,1,2,0:0:0:0:
96,192,199334,5,0,0:0:0:0:
352,192,199634,1,2,0:0:0:0:
96,192,199934,2,2,L|96:304,2,100
224,192,200384,5,0,0:0:0:0:
464,96,200684,2,0,P|384:48|336:64,1,100,0|8,0:0|0:0,0:0:0:0:
256,48,200984,1,8,0:0:0:0:
128,48,201134,2,2,L|128:160,3,100,2|2|2|2,0:0|0:0|0:0|0:0,0:0:0:0:
384,144,201884,1,4,0:0:0:0:
256,160,202034,6,0,L|256:288,1,100,0|8,0:0|0:0,0:0:0:0:
384,272,202334,2,0,L|384:160,1,100,0|8,0:0|0:0,0:0:0:0:
320,288,202634,2,2,L|320:160,1,100,0|8,0:0|0:0,0:0:0:0:
64,192,203084,6,8,L|256:192,1,100
416,192,203534,1,8,0:0:0:0:
96,192,203834,1,12,0:0:0:0:
256,304,204134,5,2,0:0:0:0:
256,48,204434,2,0,L|256:272,1,200
256,384,204884,1,2,0:0:0:0:
256,384,205034,1,0,0:0:0:0:
160,304,205184,5,2,0:0:0:0:
256,64,205484,5,0,0:0:0:0:
256,64,205634,1,2,0:0:0:0:
352,160,205784,1,2,0:0:0:0:
96,192,206084,6,2,L|240:192,1,100
304,272,206384,2,0,B|368:192|368:192|288:128,4,200,2|0|0|0|0,0:0|0:0|0:0|0:0|0:0,0:0:0:0:
176,272,207734,1,2,0:0:0:0:
48,272,207884,1,2,0:0:0:0:
160,320,208034,1,0,0:0:0:0:
80,224,208184,1,0,0:0:0:0:
208,224,208334,6,2,P|272:176|240:240,2,200
208,224,209084,2,2,P|242:215|220:302,1,100
416,80,209684,5,0,0:0:0:0:
304,144,209834,1,2,0:0:0:0:
192,224,209984,1,2,0:0:0:0:
416,336,210284,1,0,0:0:0:0:
320,256,210434,1,2,0:0:0:0:
224,160,210584,1,2,0:0:0:0:
112,80,210734,6,0,P|64:160|80:224,1,100,0|2,0:0|0:0,0:0:0:0:
128,272,211034,1,2,0:0:0:0:
256,320,211184,2,0,B|240:304|240:304|272:304|272:304|240:288|240:288|272:288|272:288|240:272|240:272|272:272|272:272|240:256|240:256|272:256|272:256|240:240|240:240|272:240|272:240|240:224|240:224|272:224|272:224|240:208|240:208|272:208|272:208|240:176|240:176|272:160|272:160|240:144|240:144|272:128|272:128|240:112|240:112|272:96|272:96|240:80|240:80|272:64|272:64|256:48|256:48|256:16,1,800
256,234,212534,5,0,0:0:0:0:
213,192,212684,1,0,0:0:0:0:
256,149,212834,1,0,0:0:0:0:
298,192,212984,1,0,0:0:0:0:
207,240,213134,5,0,0:0:0:0:
207,143,213284,1,0,0:0:0:0:
304,143,213434,1,0,0:0:0:0:
304,240,213584,1,0,0:0:0:0:
160,192,213734,5,2,0:0:0:0:
256,96,213884,1,2,0:0:0:0:
351,192,214034,1,2,0:0:0:0:
255,287,214184,1,2,0:0:0:0:
161,97,214334,5,2,0:0:0:0:
350,97,214484,1,2,0:0:0:0:
350,286,214634,1,2,0:0:0:0:
161,286,214784,1,2,0:0:0:0:
256,25,214934,5,8,0:0:0:0:
422,192,215084,1,8,0:0:0:0:
256,358,215234,1,8,0:0:0:0:
89,191,215384,1,8,0:0:0:0:
418,29,215534,5,8,0:0:0:0:
418,354,215684,1,8,0:0:0:0:
93,354,215834,1,8,0:0:0:0:
93,29,215984,1,8,0:0:0:0:
32,192,216284,6,0,L|176:192,1,100
256,192,216584,1,2,0:0:0:0:
256,192,216884,1,2,0:0:0:0:
256,64,217034,6,0,B|249:82|249:82|265:82|265:82|249:98|249:98|265:98|265:98|249:114|249:114|265:114|265:114|249:130|249:130|265:130|265:130|249:146|249:146|265:146|265:146|249:162|249:162|265:162|265:162|249:178|249:178|265:178|265:178|249:194,1,200,0|2,0:0|0:0,0:0:0:0:
176,256,217484,1,0,0:0:0:0:
336,256,217634,1,2,0:0:0:0:
160,256,217784,1,2,0:0:0:0:
352,256,217934,2,2,B|256:288|256:208|160:256,1,200
256,256,218384,5,2,0:0:0:0:
96,64,218684,2,0,L|192:144,2,100,0|2|2,0:0|0:0|0:0,0:0:0:0:
80,192,219134,2,8,L|208:192,1,100
304,192,219434,2,2,L|192:192,1,100
256,320,219884,5,0,0:0:0:0:
256,288,220034,1,2,0:0:0:0:
256,256,220184,1,2,0:0:0:0:
256,128,220334,2,2,B|256:192|256:192|240:208|240:208|272:208|272:208|256:224|256:224|256:288,1,200
256,288,220784,1,2,0:0:0:0:
416,96,221084,6,0,L|416:224,2,100,0|2|2,0:0|0:0|0:0,0:0:0:0:
288,96,221534,2,8,L|288:208,1,100
160,192,221834,2,2,L|160:304,1,100
416,352,222284,6,2,L|336:288,1,100
240,208,222584,1,8,0:0:0:0:
160,112,222734,2,2,L|160:336,1,200
288,320,223184,1,2,0:0:0:0:
256,64,223484,5,2,0:0:0:0:
256,96,223634,1,0,0:0:0:0:
256,128,223784,1,0,0:0:0:0:
256,160,223934,1,2,0:0:0:0:
256,192,224084,1,2,0:0:0:0:
256,224,224234,1,0,0:0:0:0:
256,256,224384,1,0,0:0:0:0:
128,256,224534,6,2,L|256:256,2,100
128,128,224984,1,2,0:0:0:0:
384,128,225284,2,0,L|272:128,2,100,8|2|2,0:0|0:0|0:0,0:0:0:0:
144,48,225884,6,0,L|80:144,1,100,0|2,0:0|0:0,0:0:0:0:
368,336,226184,2,0,L|432:240,1,100,0|2,0:0|0:0,0:0:0:0:
160,208,226484,2,0,L|215:291,1,100,0|2,0:0|0:0,0:0:0:0:
343,163,226784,2,8,L|288:80,1,100,0|0,0:0|0:0,0:0:0:0:
256,304,227084,6,2,B|256:192|256:192|240:192|240:192|272:176|272:176|256:176|256:176|256:144,1,200
352,80,227534,1,0,0:0:0:0:
432,176,227684,2,2,L|320:176,1,100
352,304,227984,1,6,0:0:0:0:
112,192,228284,6,0,L|240:192,2,100,0|2|2,0:0|0:0|0:0,0:0:0:0:
112,64,228734,2,0,L|112:176,3,100,8|8|2|2,0:0|0:0|0:0|0:0,0:0:0:0:
352,272,229484,5,0,0:0:0:0:
272,176,229634,1,8,0:0:0:0:
240,48,229784,1,8,0:0:0:0:
256,176,229934,2,2,B|208:272|304:272|256:368,1,200
128,368,230384,5,2,0:0:0:0:
128,112,230684,1,0,0:0:0:0:
384,112,230834,1,8,0:0:0:0:
112,112,230984,1,8,0:0:0:0:
400,112,231134,1,2,0:0:0:0:
96,112,231284,1,2,0:0:0:0:
416,112,231434,1,0,0:0:0:0:
256,288,231584,5,12,0:0:0:0:
256,32,231884,6,0,L|256:192,1,100,0|8,0:0|0:0,0:0:0:0:
256,256,232184,1,8,0:0:0:0:
256,128,232334,2,2,L|256:336,1,200
256,192,232784,1,2,0:0:0:0:
96,112,233084,5,0,0:0:0:0:
416,112,233234,1,2,0:0:0:0:
144,176,233384,1,2,0:0:0:0:
368,176,233534,1,8,0:0:0:0:
192,240,233684,1,8,0:0:0:0:
320,240,233834,1,2,0:0:0:0:
256,304,233984,5,2,0:0:0:0:
256,176,234134,2,2,B|256:112|256:112|240:96|240:96|272:96|272:96|256:80|256:80|256:0,1,200
256,21,234584,5,2,0:0:0:0:
64,192,234884,2,8,P|64:256|128:288,1,100
224,288,235184,1,2,0:0:0:0:
480,288,235484,1,8,0:0:0:0:
240,176,235784,2,2,L|160:112,1,100,2|0,0:0|0:0,0:0:0:0:
64,208,236084,2,2,L|176:304,1,100,2|0,0:0|0:0,0:0:0:0:
144,192,236384,5,6,0:0:0:0:
