osu file format v12

[General]
AudioFilename: pl.mp3
AudioLeadIn: 0
PreviewTime: 78734
Countdown: 0
SampleSet: Normal
StackLeniency: 0.6
Mode: 0
LetterboxInBreaks: 1
WidescreenStoryboard: 1

[Editor]
Bookmarks: 7334,12134,21734,29534,51284,52634,55034,60134,71534,78734,85484,97484,122534,128984,131834,136334,137534,138734,146834,151334,155534,165734,193334,209684,212384,216284,217034,217334,234134
DistanceSpacing: 0.8
BeatDivisor: 2
GridSize: 16
TimelineZoom: 1

[Metadata]
Title:Furisodeshon
TitleUnicode:ふりそでーしょん
Artist:Kyary Pamyu Pamyu
ArtistUnicode:きゃりーぱみゅぱみゅ
Creator:jaob99
Version:Easy
Source:
Tags:kyary pamyu pamyu nakata yasutaka nandacollection 2013 20 hatachi
BeatmapID:365495
BeatmapSetID:147653

[Difficulty]
HPDrainRate:1
CircleSize:2
OverallDifficulty:0
ApproachRate:1
SliderMultiplier:0.999999999999999
SliderTickRate:1

[Events]
//Background and Video events
0,0,"Captura-de-pantalla-2013-01-10-a-las-23.05.07.jpg",0,0
Video,90,"bv.wmv"
//Break Periods
2,98734,116054
//Storyboard Layer 0 (Background)
//Storyboard Layer 1 (Fail)
//Storyboard Layer 2 (Pass)
//Storyboard Layer 3 (Foreground)
//Storyboard Sound Samples
//Background Colour Transformations
3,100,163,162,255

[TimingPoints]
134.381463803314,300,4,1,0,100,1,0
1934,-133.333333333333,4,1,0,100,0,0
21734,-100,4,1,0,100,0,0
78734,-100,4,1,0,100,0,1
97334,-100,4,1,0,100,0,0
155534,-100,4,1,0,100,0,1
174134,-100,4,1,0,100,0,0
175334,-133.333333333333,4,1,0,100,0,0
192134,-100,4,1,0,100,0,0
193934,-100,4,1,0,100,0,1
212534,-133.333333333333,4,3,0,100,0,1
216134,-100,4,1,0,100,0,0

[Colours]
Combo1 : 255,64,0
Combo2 : 255,0,0
Combo3 : 0,255,0
Combo4 : 0,0,255

[HitObjects]
256,192,2534,5,2,0:0:0:0:
144,176,3134,2,0,P|160:112|256:96,1,150.000005722046
368,208,4334,2,0,P|352:272|256:288,1,150.000005722046
272,176,5534,2,8,L|272:0,2,150.000005722046
352,256,7334,6,0,L|512:256,1,150.000005722046,2|0,0:0|0:0,0:0:0:0:
432,160,8534,2,2,L|432:64,2,75.000002861023
320,144,9734,6,8,L|320:304,1,150.000005722046,4|8,0:0|0:0,0:0:0:0:
192,304,10934,2,2,L|192:192,2,75.000002861023,0|0|0,0:0|0:0|0:0,0:0:0:0:
256,192,12134,5,0,0:0:0:0:
144,160,12734,1,8,0:0:0:0:
112,32,13334,2,2,L|224:32,2,75.000002861023
32,128,14534,5,8,0:0:0:0:
32,192,14834,1,8,0:0:0:0:
32,256,15134,2,2,L|192:256,1,150.000005722046
272,336,16334,6,2,P|368:256|352:208,1,150.000005722046
256,208,17534,1,0,0:0:0:0:
256,208,17834,1,0,0:0:0:0:
256,208,18134,1,0,0:0:0:0:
144,176,18734,2,0,L|240:96,2,75.000002861023,0|0|0,0:0|0:0|0:0,0:0:0:0:
112,64,21734,5,0,0:0:0:0:
272,64,22334,1,2,0:0:0:0:
272,224,22934,2,8,L|272:336,2,99.9999999999999,0|0|2,0:0|0:0|0:0,0:0:0:0:
112,208,24134,5,0,0:0:0:0:
112,48,24734,1,2,0:0:0:0:
272,48,25334,2,8,L|272:176,1,99.9999999999999
272,224,25934,1,2,0:0:0:0:
160,336,26534,6,0,P|128:240|160:176,2,99.9999999999999,0|0|8,0:0|0:0|0:0,0:0:0:0:
320,336,27734,2,2,B|352:272|448:224|448:160,1,200
304,160,28934,6,0,L|160:160,2,99.9999999999999,0|0|2,0:0|0:0|0:0,0:0:0:0:
304,240,29834,1,2,0:0:0:0:
304,320,30134,2,0,L|416:320,2,99.9999999999999,0|0|2,0:0|0:0|0:0,0:0:0:0:
144,320,31334,6,0,P|64:320|48:208,1,200,0|2,0:0|0:0,0:0:0:0:
192,192,32534,2,0,L|352:192,2,99.9999999999999,0|0|2,0:0|0:0|0:0,0:0:0:0:
64,80,33734,5,0,0:0:0:0:
64,240,34334,1,2,0:0:0:0:
224,256,34934,2,2,L|224:48,1,200
384,96,36134,5,0,0:0:0:0:
336,256,36734,1,2,0:0:0:0:
176,304,37334,2,8,L|176:144,2,99.9999999999999,8|8|2,0:0|0:0|0:0,0:0:0:0:
16,304,38534,1,0,0:0:0:0:
16,144,39134,1,2,0:0:0:0:
176,144,39734,2,8,L|288:144,4,99.9999999999999,0|0|0|0|4,0:0|0:0|0:0|0:0|0:0,0:0:0:0:
256,320,43334,6,0,L|256:96,1,200,0|2,0:0|0:0,0:0:0:0:
96,128,44534,2,8,L|96:256,1,99.9999999999999
96,304,45134,1,2,0:0:0:0:
256,304,45734,2,2,L|480:304,1,200
448,144,46934,2,0,L|448:32,2,99.9999999999999,0|0|2,0:0|0:0|0:0,0:0:0:0:
288,144,48134,6,0,L|64:144,1,200
96,304,49334,2,0,L|208:304,1,99.9999999999999,0|2,0:0|0:0,0:0:0:0:
272,304,49934,2,0,L|400:304,1,99.9999999999999,0|2,0:0|0:0,0:0:0:0:
368,224,50534,6,2,B|320:128|416:128|368:32,2,200
208,224,52334,1,2,0:0:0:0:
160,80,52934,6,0,P|48:176|64:256,1,200,0|2,0:0|0:0,0:0:0:0:
272,224,54134,2,8,L|384:224,2,99.9999999999999,8|8|2,0:0|0:0|0:0,0:0:0:0:
128,304,55334,2,0,L|128:96,1,200,0|2,0:0|0:0,0:0:0:0:
304,224,56534,2,8,L|304:80,1,99.9999999999999
304,48,57134,1,2,0:0:0:0:
160,112,57734,5,2,0:0:0:0:
80,256,58334,1,2,0:0:0:0:
240,256,58934,1,6,0:0:0:0:
432,304,60734,5,0,0:0:0:0:
272,272,61334,2,2,L|272:64,1,200
112,64,62534,2,8,L|112:192,2,99.9999999999999,8|8|10,0:0|0:0|0:0,0:0:0:0:
112,224,63734,2,2,L|192:320,2,99.9999999999999,8|8|10,0:0|0:0|0:0,0:0:0:0:
112,64,64934,6,0,L|352:64,1,200,0|2,0:0|0:0,0:0:0:0:
320,224,66134,2,0,L|80:224,1,200,0|2,0:0|0:0,0:0:0:0:
144,64,67334,2,0,L|288:64,1,99.9999999999999,2|2,0:0|0:0,0:0:0:0:
256,144,67934,2,0,L|144:144,1,99.9999999999999,2|2,0:0|0:0,0:0:0:0:
80,144,68534,2,2,L|80:384,1,200
256,304,69734,6,0,L|256:80,1,200,0|2,0:0|0:0,0:0:0:0:
416,112,70934,2,0,L|416:320,1,200,0|2,0:0|0:0,0:0:0:0:
208,192,72134,2,2,L|384:192,2,99.9999999999999
128,192,73034,1,2,0:0:0:0:
128,112,73334,2,2,L|336:112,1,200
464,192,74534,6,0,B|368:240|368:160|256:192,1,200,0|2,0:0|0:0,0:0:0:0:
112,192,75734,1,2,0:0:0:0:
112,192,76334,1,2,0:0:0:0:
272,192,76934,2,8,L|272:304,2,99.9999999999999,8|8|10,0:0|0:0|0:0,0:0:0:0:
432,192,78134,1,2,0:0:0:0:
416,32,78734,6,2,B|416:144|416:144|368:80|272:96,1,200,2|2,0:0|0:0,0:0:0:0:
192,128,79934,2,0,L|192:336,1,200,0|2,0:0|0:0,0:0:0:0:
336,256,81134,2,2,L|336:128,2,99.9999999999999,4|4|10,0:0|0:0|0:0,0:0:0:0:
176,256,82334,2,0,B|64:192|64:192|96:96,1,200,2|2,0:0|0:0,0:0:0:0:
240,96,83534,6,0,L|464:96,1,200,0|2,0:0|0:0,0:0:0:0:
432,256,84734,2,0,L|208:256,1,200,0|2,0:0|0:0,0:0:0:0:
96,192,85934,6,2,L|256:192,2,99.9999999999999
96,112,86834,1,10,0:0:0:0:
176,112,87134,2,2,L|384:112,1,200
368,272,88334,6,0,L|160:272,1,200,8|2,0:0|0:0,0:0:0:0:
96,48,89534,2,0,L|96:256,1,200,8|2,0:0|0:0,0:0:0:0:
256,304,90734,2,2,L|256:144,3,99.9999999999999
256,144,91934,2,2,L|256:32,2,99.9999999999999,0|0|0,0:0|0:0|0:0,0:0:0:0:
176,288,93134,6,0,L|368:208,1,200,8|2,0:0|0:0,0:0:0:0:
304,64,94334,2,0,L|119:140,1,200,8|2,0:0|0:0,0:0:0:0:
256,256,95534,2,2,L|336:368,2,99.9999999999999,2|2|6,0:0|0:0|0:0,0:0:0:0:
160,128,96734,2,0,L|160:352,1,200
256,192,98534,5,4,0:0:0:0:
256,256,117734,6,0,L|96:128,1,200,0|2,0:0|0:0,0:0:0:0:
256,128,118934,2,2,L|464:128,1,200
96,304,120134,2,2,L|240:304,2,99.9999999999999
96,144,121334,2,2,L|224:144,2,99.9999999999999
96,304,122534,5,0,0:0:0:0:
256,304,123134,1,2,0:0:0:0:
256,144,123734,2,8,L|256:16,2,99.9999999999999,8|8|2,0:0|0:0|0:0,0:0:0:0:
128,240,124934,6,0,L|336:240,1,200,0|2,0:0|0:0,0:0:0:0:
432,112,126134,2,0,L|320:112,2,99.9999999999999,0|0|2,0:0|0:0|0:0,0:0:0:0:
288,192,127334,6,2,L|128:16,1,200
128,208,128534,1,2,0:0:0:0:
224,336,129134,1,2,0:0:0:0:
384,336,129734,2,0,L|512:336,2,99.9999999999999,0|0|2,0:0|0:0|0:0,0:0:0:0:
416,160,130934,2,0,P|480:208|416:208,1,200,0|2,0:0|0:0,0:0:0:0:
128,192,132134,6,0,L|368:192,1,200,0|2,0:0|0:0,0:0:0:0:
352,352,133334,2,0,L|152:352,1,200,0|2,0:0|0:0,0:0:0:0:
256,80,134534,2,2,L|256:224,4,99.9999999999999,2|2|2|2|6,0:0|0:0|0:0|0:0|0:0,0:0:0:0:
112,64,136934,6,2,P|208:192|256:224,1,200,0|8,0:0|0:0,0:0:0:0:
384,144,138134,2,2,P|336:288|272:320,1,200,0|8,0:0|0:0,0:0:0:0:
256,160,139334,2,10,L|256:48,2,99.9999999999999
256,240,140234,1,8,0:0:0:0:
256,320,140534,2,2,L|48:320,1,200,2|10,0:0|0:0,0:0:0:0:
96,160,141734,6,0,L|336:160,1,200,0|2,0:0|0:0,0:0:0:0:
288,320,142934,2,0,L|80:320,1,200,0|2,0:0|0:0,0:0:0:0:
96,160,144134,2,2,L|224:160,2,99.9999999999999
96,240,145034,1,10,0:0:0:0:
96,320,145334,2,2,L|224:320,2,99.9999999999999,2|2|6,0:0|0:0|0:0,0:0:0:0:
240,240,146534,6,0,L|0:240,1,200,0|2,0:0|0:0,0:0:0:0:
176,144,147734,2,2,B|272:112|272:176|384:144,1,200
256,352,148934,2,2,L|256:240,2,99.9999999999999
336,352,149834,1,10,0:0:0:0:
416,352,150134,2,2,L|416:128,1,200,2|6,0:0|0:0,0:0:0:0:
256,192,151334,6,2,L|48:192,1,200,0|0,0:0|0:0,0:0:0:0:
176,80,152534,2,2,L|400:80,1,200
240,160,153734,2,8,L|240:368,1,200,0|0,0:0|0:0,0:0:0:0:
368,272,154934,6,10,L|368:48,1,200
256,320,156134,2,0,L|256:112,1,200,0|2,0:0|0:0,0:0:0:0:
112,32,157334,2,0,L|240:32,2,99.9999999999999,0|0|2,0:0|0:0|0:0,0:0:0:0:
256,128,158534,2,0,L|464:128,1,200,0|2,0:0|0:0,0:0:0:0:
448,288,159734,6,2,L|176:288,1,200
256,128,160934,2,2,L|48:128,1,200
160,240,162134,2,2,L|304:240,2,99.9999999999999
352,352,163334,2,0,L|352:144,1,200,0|2,0:0|0:0,0:0:0:0:
128,64,164534,6,2,P|96:192|176:192,1,200
272,144,165734,2,0,P|334:211|277:283,1,200,0|2,0:0|0:0,0:0:0:0:
144,192,166934,2,0,L|265:220,2,99.9999999999999,0|0|2,0:0|0:0|0:0,0:0:0:0:
144,32,168134,2,2,L|352:32,1,200
256,160,169334,6,8,P|192:288|240:288,1,200,8|10,0:0|0:0,0:0:0:0:
320,272,170534,2,8,L|400:80,1,200,8|10,0:0|0:0,0:0:0:0:
240,112,171734,2,0,L|96:192,2,99.9999999999999,0|0|2,0:0|0:0|0:0,0:0:0:0:
224,272,172934,2,2,L|448:304,1,200
240,176,174134,2,2,L|448:208,1,200,0|2,0:0|0:0,0:0:0:0:
240,64,175334,5,0,0:0:0:0:
144,112,175934,2,8,L|144:304,1,150.000005722046
256,272,177134,2,8,L|256:96,1,150.000005722046
368,112,178334,2,8,L|368:288,1,150.000005722046
256,288,179534,2,0,L|160:288,2,75.000002861023,0|0|4,0:0|0:0|0:0,0:0:0:0:
256,160,180734,6,8,L|112:64,1,150.000005722046
112,192,181934,2,8,L|256:288,1,150.000005722046
320,192,183134,2,0,L|320:64,2,75.000002861023,0|0|4,0:0|0:0|0:0,0:0:0:0:
192,192,184334,2,0,L|32:192,1,150.000005722046
112,96,185534,5,2,0:0:0:0:
224,96,186134,1,2,0:0:0:0:
336,96,186734,2,0,L|336:208,2,75.000002861023,0|0|2,0:0|0:0|0:0,0:0:0:0:
464,96,187934,5,2,0:0:0:0:
464,208,188534,2,0,L|336:208,2,75.000002861023,0|0|2,0:0|0:0|0:0,0:0:0:0:
464,336,189734,2,0,L|240:336,1,150.000005722046
192,336,190934,2,2,L|192:224,4,75.000002861023,0|0|0|0|6,0:0|0:0|0:0|0:0|0:0,0:0:0:0:
48,176,193334,6,0,L|256:176,1,200
368,288,194534,2,8,L|368:48,1,200,8|10,0:0|0:0,0:0:0:0:
224,160,195734,2,0,L|224:272,2,99.9999999999999,0|0|2,0:0|0:0|0:0,0:0:0:0:
384,160,196934,2,2,L|384:368,1,200
224,352,198134,6,0,L|224:128,1,200,0|2,0:0|0:0,0:0:0:0:
112,32,199334,2,0,L|320:32,1,200,0|2,0:0|0:0,0:0:0:0:
416,160,200534,2,0,L|416:272,2,99.9999999999999,0|0|2,0:0|0:0|0:0,0:0:0:0:
256,160,201734,2,2,L|32:160,1,200
192,80,202934,6,0,L|304:80,2,99.9999999999999,0|0|6,0:0|0:0|0:0,0:0:0:0:
192,240,204134,2,0,L|416:240,1,200,0|2,0:0|0:0,0:0:0:0:
416,80,205334,2,0,L|192:80,1,200,0|2,0:0|0:0,0:0:0:0:
64,96,206534,2,2,L|64:208,2,99.9999999999999
224,96,207734,2,10,L|464:96,1,200
432,256,208934,6,0,L|432:32,1,200
352,64,210134,2,0,L|128:64,1,200
80,208,211334,2,2,L|80:80,3,99.9999999999999,2|2|2|6,0:0|0:0|0:0|0:0,0:0:0:0:
256,192,212534,12,4,216134,0:0:0:0:
256,192,217334,6,0,L|96:64,1,200,0|2,0:0|0:0,0:0:0:0:
96,224,218534,2,0,L|256:352,1,200,0|2,0:0|0:0,0:0:0:0:
256,192,219734,2,8,L|256:64,2,99.9999999999999,8|8|10,0:0|0:0|0:0,0:0:0:0:
336,192,220634,1,2,0:0:0:0:
416,192,220934,2,2,L|416:320,2,99.9999999999999,2|2|6,0:0|0:0|0:0,0:0:0:0:
256,192,222134,6,0,L|16:192,1,200,0|2,0:0|0:0,0:0:0:0:
192,96,223334,2,0,L|416:96,1,200,0|2,0:0|0:0,0:0:0:0:
272,192,224534,2,2,L|272:304,2,99.9999999999999
112,192,225734,2,2,L|320:192,1,200
256,48,226934,6,0,L|256:256,1,200,0|2,0:0|0:0,0:0:0:0:
416,272,228134,1,2,0:0:0:0:
416,112,228734,1,2,0:0:0:0:
256,112,229334,2,8,L|144:112,2,99.9999999999999,8|8|10,0:0|0:0|0:0,0:0:0:0:
176,240,230534,2,2,L|384:240,1,200
384,80,231734,6,0,L|160:80,1,200,0|2,0:0|0:0,0:0:0:0:
32,96,232934,2,0,L|32:320,1,200,0|2,0:0|0:0,0:0:0:0:
192,304,234134,2,2,L|192:176,2,99.9999999999999,2|2|2,0:0|0:0|0:0,0:0:0:0:
320,208,235334,2,0,P|336:144|240:32,1,200,0|8,0:0|0:0,0:0:0:0:
112,80,236534,5,6,0:0:0:0:
