osu file format v13

[General]
AudioFilename: CANDY CANDY.mp3
AudioLeadIn: 0
PreviewTime: 59129
Countdown: 0
SampleSet: Soft
StackLeniency: 0.7
Mode: 0
LetterboxInBreaks: 0
WidescreenStoryboard: 0

[Editor]
Bookmarks: 15069,29838,44607,59377,74146,88915,103667,118436,133223,147975,162761,177530,192300,207069,221838
DistanceSpacing: 1.2
BeatDivisor: 4
GridSize: 4
TimelineZoom: 1

[Metadata]
Title:CANDY CANDY
TitleUnicode:CANDY CANDY
Artist:Kyary Pamyu Pamyu
ArtistUnicode:きゃりーぱみゅぱみゅ
Creator:Kenezz
Version:Normal
Source:
Tags:vicho-kun vicho kenezzedward gabe collab collaboration
BeatmapID:151869
BeatmapSetID:47256

[Difficulty]
HPDrainRate:3
CircleSize:4
OverallDifficulty:3
ApproachRate:4
SliderMultiplier:1.3
SliderTickRate:1

[Events]
//Background and Video events
0,0,"CANDYBG.jpg",0,0
Video,0,"CANDYVIDEO.flv"
//Break Periods
2,89097,102347
2,177713,187270
//Storyboard Layer 0 (Background)
//Storyboard Layer 1 (Fail)
//Storyboard Layer 2 (Pass)
//Storyboard Layer 3 (Foreground)
//Storyboard Sound Samples
//Background Colour Transformations
3,100,163,162,255

[TimingPoints]
11360,461.538461538462,4,2,1,100,1,0
59360,-100,4,2,1,100,0,1
74013,-100,4,2,1,100,0,0
74129,-100,4,2,1,100,0,1
88898,-100,4,2,1,100,0,0
133206,-100,4,2,1,100,0,1
147860,-100,4,2,1,100,0,0
147975,-100,4,2,1,100,0,1
162744,-100,4,2,1,100,0,0
192283,-100,4,2,1,100,0,1
206936,-100,4,2,1,100,0,0
207052,-100,4,2,1,100,0,1
221821,-100,4,2,1,100,0,0

[Colours]
Combo1 : 185,122,199
Combo2 : 255,128,192
Combo3 : 128,0,64
Combo4 : 255,60,60

[HitObjects]
88,280,15052,6,0,B|160:268|196:188,1,130,4|8,0:0|0:0,0:0:0:0:
208,48,15975,1,0,0:0:0:0:
280,72,16206,1,0,0:0:0:0:
316,144,16436,1,8,0:0:0:0:
420,260,16898,2,0,B|348:272|312:352,1,130,0|8,0:0|0:0,0:0:0:0:
164,348,17821,2,0,B|96:320,2,65,0|0|8,0:0|0:0|0:0,0:0:0:0:
200,196,18744,6,0,B|168:132|88:112,1,130,0|8,0:0|0:0,0:0:0:0:
244,52,19667,2,0,B|280:48|304:20,2,65,0|0|8,0:0|0:0|0:0,0:0:0:0:
312,196,20590,2,0,B|344:260|424:280,1,130,0|8,0:0|0:0,0:0:0:0:
268,332,21513,2,0,B|232:336|208:364,3,65,0|8|8|0,0:0|0:0|0:0|0:0,0:0:0:0:
136,332,22436,6,0,B|112:268|44:240,1,130,4|8,0:0|0:0,0:0:0:0:
148,120,23360,1,0,0:0:0:0:
224,112,23590,1,0,0:0:0:0:
276,56,23821,1,8,0:0:0:0:
376,176,24283,2,0,B|400:240|468:268,1,130,0|8,0:0|0:0,0:0:0:0:
328,340,25206,2,0,B|268:372,1,65
192,368,25667,1,8,0:0:0:0:
148,304,25898,1,0,0:0:0:0:
192,236,26129,6,0,B|176:164|96:132,1,130,0|8,0:0|0:0,0:0:0:0:
76,68,26821,2,0,B|46:81|32:114,2,65
140,24,27513,1,8,0:0:0:0:
212,60,27744,1,0,0:0:0:0:
248,132,27975,2,0,B|320:148|376:96,1,130,8|8,0:0|0:0,0:0:0:0:
416,252,28898,2,0,B|436:284|472:292,3,65,8|8|8|8,0:0|0:0|0:0|0:0,0:0:0:0:
424,356,29821,6,0,B|364:392|300:356,1,130,4|8,0:0|0:0,0:0:0:0:
256,292,30513,1,0,0:0:0:0:
216,224,30744,2,0,B|152:188|92:224,1,130,0|8,0:0|0:0,0:0:0:0:
36,76,31667,2,0,B|68:68|88:40,1,65
164,64,32129,2,0,B|184:36|216:28,1,65,8|0,0:0|0:0,0:0:0:0:
296,28,32590,2,0,B|420:68,1,130,0|8,0:0|0:0,0:0:0:0:
416,224,33513,6,0,B|393:201|350:195|316:221|307:252,1,130,0|8,0:0|0:0,0:0:0:0:
203,134,34436,2,0,B|195:162|161:188|118:182|96:160,1,130,0|8,0:0|0:0,0:0:0:0:
92,316,35360,2,0,B|216:356,2,130,0|8|0,0:0|0:0|0:0,0:0:0:0:
4,188,36744,1,8,0:0:0:0:
128,96,37206,6,0,B|192:124|208:192,1,130,0|8,0:0|0:0,0:0:0:0:
256,256,37898,1,0,0:0:0:0:
304,192,38129,2,0,B|320:124|384:96,1,130,0|8,0:0|0:0,0:0:0:0:
484,216,39052,2,0,B|472:248|476:280,1,65
400,296,39513,2,0,B|404:328|392:360,1,65,8|0,0:0|0:0,0:0:0:0:
316,344,39975,2,0,B|256:368|256:368|196:344,1,130,0|8,0:0|0:0,0:0:0:0:
196,188,40898,6,0,B|256:164|256:164|316:188,1,130,0|8,0:0|0:0,0:0:0:0:
424,72,41821,2,0,B|360:64|308:16,1,130,0|8,0:0|0:0,0:0:0:0:
256,72,42513,1,0,0:0:0:0:
204,16,42744,2,0,B|152:64|88:72,1,130,0|8,0:0|0:0,0:0:0:0:
4,204,43667,2,0,B|20:268,1,65,4|0,3:0|3:0,0:0:0:0:
96,292,44129,2,0,B|112:356,1,65,8|0,0:0|3:0,3:0:0:0:
188,348,44590,6,0,B|208:304|264:304|264:304|302:304,1,130,4|8,0:0|0:0,0:0:0:0:
456,324,45513,2,0,B|436:368|380:368|380:368|344:368,1,130,0|8,0:0|0:0,0:0:0:0:
428,240,46436,2,0,B|464:188,1,65
416,124,46898,2,0,B|380:176,1,65,8|0,0:0|0:0,0:0:0:0:
344,248,47360,2,0,P|287:231|264:168,1,130,0|8,0:0|0:0,0:0:0:0:
324,36,48283,6,0,B|304:80|248:80|248:80|210:80,1,130,0|8,0:0|0:0,0:0:0:0:
56,60,49206,2,0,B|76:16|132:16|132:16|168:16,1,130,0|8,0:0|0:0,0:0:0:0:
84,144,50129,2,0,B|48:196,1,65
96,260,50591,2,0,B|132:208,1,65,8|0,0:0|0:0,0:0:0:0:
200,164,51052,2,0,P|256:136|312:164,1,130,0|8,0:0|0:0,0:0:0:0:
392,300,51975,6,0,L|296:388,1,130,0|8,0:0|0:0,0:0:0:0:
256,320,52667,1,0,0:0:0:0:
216,388,52898,2,0,L|120:300,1,130,0|8,0:0|0:0,0:0:0:0:
65,151,53821,2,0,B|39:175|4:168,1,65
20,89,54283,2,0,B|13:55|36:28,1,65,8|0,0:0|0:0,0:0:0:0:
99,76,54744,2,0,B|131:86|142:120,2,65,0|0|8,0:0|0:0|0:0,0:0:0:0:
256,36,55667,5,0,0:0:0:0:
384,128,56129,1,8,0:0:0:0:
336,276,56590,1,0,0:0:0:0:
176,276,57052,1,8,0:0:0:0:
128,128,57513,1,4,0:0:0:0:
336,276,58436,2,0,B|347:310|380:321,2,65,8|8|8,0:0|0:0|0:0,0:0:0:0:
408,168,59360,6,0,B|340:148|336:72,1,130,4|8,0:0|0:0,0:0:0:0:
176,71,60283,2,0,B|172:148|104:168,1,130,0|8,0:0|0:0,0:0:0:0:
8,236,61206,2,0,B|-8:264|-4:300,1,65
60,352,61667,2,0,B|76:324|72:288,1,65,8|0,0:0|0:0,0:0:0:0:
148,308,62129,2,0,B|268:356,1,130,0|8,0:0|0:0,0:0:0:0:
428,344,63052,6,0,B|439:304|388:253|348:264,1,130,0|8,0:0|0:0,0:0:0:0:
380,112,63975,2,0,B|256:148,1,130,0|8,0:0|0:0,0:0:0:0:
132,272,64898,2,0,B|256:236,1,130,0|8,0:0|0:0,0:0:0:0:
163,119,65821,2,0,B|123:130|72:79|84:40,1,130,0|8,0:0|0:0,0:0:0:0:
64,196,66744,6,0,B|0:184,2,65,0|0|8,0:0|0:0|0:0,0:0:0:0:
28,348,67667,2,0,B|92:360,2,65,0|0|8,0:0|0:0|0:0,0:0:0:0:
168,276,68590,2,0,B|232:288,1,65
248,364,69052,2,0,B|312:376,1,65,8|0,0:0|0:0,0:0:0:0:
388,356,69513,2,0,B|408:288|480:276,1,130,0|8,0:0|0:0,0:0:0:0:
456,120,70436,6,0,B|396:108|336:72,1,130,0|8,0:0|0:0,0:0:0:0:
176,71,71360,2,0,B|116:108|56:120,1,130,0|8,0:0|0:0,0:0:0:0:
136,252,72283,1,4,0:0:0:0:
208,276,72513,2,0,B|196:308|163:320,2,65,0|8|8,0:0|0:0|0:0,0:0:0:0:
256,216,73206,1,8,0:0:0:0:
304,276,73436,2,0,B|316:308|349:320,1,65,8|8,0:0|0:0,0:0:0:0:
504,344,74129,6,0,B|476:280|512:220,1,130,4|8,0:0|0:0,0:0:0:0:
472,68,75052,2,0,B|348:32,1,130,0|8,0:0|0:0,0:0:0:0:
192,52,75975,2,0,B|166:74|129:65,1,65
112,144,76436,2,0,B|78:135|52:158,1,65,8|0,0:0|0:0,0:0:0:0:
0,219,76898,2,0,B|36:280|8:344,1,130,0|8,0:0|0:0,0:0:0:0:
160,372,77821,6,0,B|216:336,1,65
296,340,78283,1,8,0:0:0:0:
432,308,78744,2,0,B|376:344,1,65
296,340,79206,1,8,0:0:0:0:
256,192,79667,2,0,B|224:174|188:185|165:215|171:251,2,130,0|8|0,0:0|0:0|0:0,0:0:0:0:
408,164,81052,1,8,0:0:0:0:
352,12,81513,6,0,B|296:48,1,65
216,44,81975,1,8,0:0:0:0:
80,76,82436,2,0,B|136:40,1,65
216,44,82898,1,8,0:0:0:0:
256,192,83360,2,0,B|289:209|325:198|348:168|342:132,1,130,0|8,0:0|0:0,0:0:0:0:
472,224,84283,2,0,B|452:292|392:324,1,130,0|8,0:0|0:0,0:0:0:0:
240,348,85206,5,0,0:0:0:0:
256,192,85667,1,8,0:0:0:0:
272,36,86129,1,0,0:0:0:0:
120,60,86590,2,0,B|60:92|40:160,1,130,8|8,0:0|0:0,0:0:0:0:
148,368,87744,2,0,B|80:352,2,65,0|0|0,0:0|0:0|0:0,0:0:0:0:
192,304,88436,2,0,B|256:276|320:304,1,130,8|4,0:0|0:0,0:0:0:0:
9,273,103667,6,0,B|-11:302|-4:340|25:365|61:363,1,130,4|8,0:0|0:0,0:0:0:0:
87,288,104360,1,0,0:0:0:0:
64,212,104590,2,0,B|110:92,1,130,0|8,0:0|0:0,0:0:0:0:
256,156,105513,1,0,0:0:0:0:
256,236,105744,1,0,0:0:0:0:
316,292,105975,2,0,P|256:316|196:292,2,130,8|0|8,0:0|0:0|0:0,0:0:0:0:
451,363,107360,6,0,B|487:365|516:340|523:302|503:273,1,130,0|8,0:0|0:0,0:0:0:0:
425,288,108053,1,0,0:0:0:0:
448,212,108283,2,0,B|402:92,1,130,0|8,0:0|0:0,0:0:0:0:
304,212,109206,2,0,B|292:248|256:264|220:248|208:212,2,130,0|8|0,0:0|0:0|0:0,0:0:0:0:
256,68,110590,1,8,0:0:0:0:
100,72,111052,6,0,B|96:148|28:176,1,130,0|8,0:0|0:0,0:0:0:0:
28,332,111975,2,0,B|32:256|100:228,1,130,0|8,0:0|0:0,0:0:0:0:
184,360,112898,1,0,0:0:0:0:
256,328,113129,1,0,0:0:0:0:
296,260,113360,1,8,0:0:0:0:
216,124,113821,1,0,0:0:0:0:
256,56,114052,1,0,0:0:0:0:
328,24,114283,1,8,0:0:0:0:
416,154,114744,6,0,B|480:128|484:52,1,130,0|8,0:0|0:0,0:0:0:0:
479,209,115667,2,0,B|416:236|412:312,1,130,0|8,0:0|0:0,0:0:0:0:
264,360,116590,2,0,B|204:380,2,65,0|0|8,0:0|0:0|0:0,0:0:0:0:
288,284,117283,1,0,0:0:0:0:
308,208,117513,2,0,B|272:180|212:212|212:256,1,130,0|8,0:0|0:0,0:0:0:0:
76,332,118436,6,0,B|17:297|27:218,1,130,4|8,0:0|0:0,0:0:0:0:
41,65,119360,2,0,B|99:99|89:178,1,130,0|8,0:0|0:0,0:0:0:0:
184,52,120283,1,0,0:0:0:0:
316,136,120744,1,8,0:0:0:0:
196,248,121206,1,0,0:0:0:0:
328,332,121667,1,8,0:0:0:0:
422,205,122129,6,0,B|412:284|471:319,1,130,0|8,0:0|0:0,0:0:0:0:
484,165,123053,2,0,B|494:86|436:52,1,130,0|8,0:0|0:0,0:0:0:0:
284,24,123975,2,0,B|220:36,1,65
144,32,124436,2,0,B|137:71|183:117|226:111,1,130,8|0,0:0|0:0,0:0:0:0:
72,112,125360,1,8,0:0:0:0:
194,208,125821,6,0,B|317:175,1,130,0|8,0:0|0:0,0:0:0:0:
368,352,126744,2,0,B|374:312|328:266|285:272,1,130,0|8,0:0|0:0,0:0:0:0:
440,272,127667,2,0,B|460:300|456:332,2,65,0|0|8,0:0|0:0|0:0,0:0:0:0:
484,124,128590,2,0,B|464:184,2,65,0|0|8,0:0|0:0|0:0,0:0:0:0:
360,28,129513,5,0,0:0:0:0:
256,144,129975,1,8,0:0:0:0:
152,28,130436,1,0,0:0:0:0:
256,144,130898,1,8,0:0:0:0:
160,268,131360,2,0,B|180:340|256:368|332:340|352:268,1,260,8|0,0:0|0:0,0:0:0:0:
256,144,132744,1,2,0:0:0:0:
112,88,133206,6,0,B|91:26,2,65,4|0|8,0:0|0:0|0:0,0:0:0:0:
56,236,134129,2,0,B|35:174,2,65,0|0|8,0:0|0:0|0:0,0:0:0:0:
124,376,135052,2,0,B|184:344|252:376,1,130,0|8,0:0|0:0,0:0:0:0:
384,296,135975,2,0,B|324:328|256:296,1,130,0|8,0:0|0:0,0:0:0:0:
108,256,136898,5,0,0:0:0:0:
120,100,137360,1,8,0:0:0:0:
256,20,137821,1,0,0:0:0:0:
392,100,138283,1,8,0:0:0:0:
304,228,138744,2,0,B|332:276|312:328|256:356|200:328|180:276|208:228,1,260
256,80,140129,1,8,0:0:0:0:
412,84,140590,6,0,B|433:22,2,65,0|0|8,0:0|0:0|0:0,0:0:0:0:
456,236,141513,2,0,B|477:174,2,65,0|0|8,0:0|0:0|0:0,0:0:0:0:
388,376,142436,2,0,B|328:344|260:376,1,130,0|8,0:0|0:0,0:0:0:0:
128,296,143359,2,0,B|188:328|256:296,1,130,0|8,0:0|0:0,0:0:0:0:
328,160,144283,5,0,0:0:0:0:
184,224,144744,1,8,0:0:0:0:
260,88,145206,2,0,B|324:56|384:88,2,130,0|8|4,0:0|0:0|0:0,0:0:0:0:
188,60,146360,2,0,L|140:12,2,65,8|8|8,0:0|0:0|0:0,0:0:0:0:
196,136,147052,2,0,L|176:200,2,65,8|0|8,0:0|0:0|0:0,0:0:0:0:
40,168,147975,6,0,B|60:300,1,130,4|8,0:0|0:0,0:0:0:0:
212,293,148898,2,0,B|224:325|204:356,2,65,0|0|8,0:0|0:0|0:0,0:0:0:0:
348,220,149821,2,0,B|328:88,1,130,0|8,0:0|0:0,0:0:0:0:
175,94,150744,2,0,B|162:62|183:31,2,65,0|0|8,0:0|0:0|0:0,0:0:0:0:
36,164,151667,6,0,B|8:228|48:288,1,130,0|8,0:0|0:0,0:0:0:0:
172,384,152590,2,0,B|200:320|160:260,1,130,0|8,0:0|0:0,0:0:0:0:
180,104,153513,2,0,B|224:92|300:120|300:168|256:200|212:168|212:120|288:92|332:104,1,260
484,64,154898,1,8,0:0:0:0:
416,204,155360,6,0,B|488:220,1,65
504,292,155821,1,8,0:0:0:0:
376,384,156283,2,0,B|304:368,1,65
288,296,156744,1,8,0:0:0:0:
332,148,157206,2,0,B|315:115|279:103|243:115|227:147,1,130,0|8,0:0|0:0,0:0:0:0:
184,296,158129,2,0,B|200:328|236:340|272:328|288:296,1,130,0|8,0:0|0:0,0:0:0:0:
160,208,159052,5,0,0:0:0:0:
40,108,159513,1,8,0:0:0:0:
20,264,159975,1,0,0:0:0:0:
40,108,160436,2,0,B|8:48,2,65,8|0|8,0:0|0:0|0:0,0:0:0:0:
272,76,161590,1,0,0:0:0:0:
272,76,161821,2,0,B|241:18,2,65,0|0|8,0:0|0:0|0:0,0:0:0:0:
372,188,162744,5,4,0:0:0:0:
372,188,162975,2,0,B|368:260|436:292,1,130,0|2,0:0|0:0,0:0:0:0:
288,348,163898,2,0,B|292:276|224:244,1,130,0|2,0:0|0:0,0:0:0:0:
120,360,164821,2,0,B|92:380|56:368,2,65,0|8|0,0:0|0:0|0:0,0:0:0:0:
8,252,165744,2,0,B|36:232|72:244,2,65,0|8|0,0:0|0:0|0:0,0:0:0:0:
76,92,166667,6,0,B|144:124|140:196,1,130,0|2,0:0|0:0,0:0:0:0:
288,140,167590,2,0,B|220:108|224:36,1,130,0|2,0:0|0:0,0:0:0:0:
392,24,168513,2,0,B|420:4|456:16,2,65,0|8|0,0:0|0:0|0:0,0:0:0:0:
504,132,169436,2,0,B|476:152|440:140,2,65,0|8|0,0:0|0:0|0:0,0:0:0:0:
464,284,170360,6,0,B|360:364,1,130,0|2,0:0|0:0,0:0:0:0:
300,216,171283,2,0,B|244:172|172:200,1,130,0|2,0:0|0:0,0:0:0:0:
124,344,172206,1,0,0:0:0:0:
124,344,172436,1,8,0:0:0:0:
124,344,172667,1,0,0:0:0:0:
4,244,173129,1,0,0:0:0:0:
4,244,173360,1,8,0:0:0:0:
4,244,173590,1,0,0:0:0:0:
48,100,174052,6,0,B|152:20,1,130,0|2,0:0|0:0,0:0:0:0:
212,168,174975,2,0,B|268:212|340:184,1,130,0|2,0:0|0:0,0:0:0:0:
416,52,175898,1,0,0:0:0:0:
416,52,176128,1,8,0:0:0:0:
416,52,176359,1,8,0:0:0:0:
416,52,176590,2,0,L|448:108,1,65,8|8,0:0|0:0,0:0:0:0:
484,180,177052,2,0,P|500:236|468:300,1,130,8|4,0:0|0:0,0:0:0:0:
256,192,188590,12,8,191821,0:0:0:0:
200,344,192283,6,0,B|68:360,1,130,4|8,0:0|0:0,0:0:0:0:
4,220,193206,2,0,B|136:204,1,130,0|8,0:0|0:0,0:0:0:0:
124,48,194129,2,0,B|156:64|188:52,1,65
256,16,194590,2,0,B|316:36,1,65,8|0,0:0|0:0,0:0:0:0:
344,108,195052,2,0,B|329:183|256:192,1,130,0|8,0:0|0:0,0:0:0:0:
312,344,195975,6,0,B|444:360,1,130,0|8,0:0|0:0,0:0:0:0:
508,220,196898,2,0,B|376:204,1,130,0|8,0:0|0:0,0:0:0:0:
388,48,197821,2,0,B|356:64|324:52,1,65
256,16,198282,2,0,B|196:36,1,65,8|0,0:0|0:0,0:0:0:0:
168,108,198744,2,0,B|182:183|255:192,1,130,0|8,0:0|0:0,0:0:0:0:
180,328,199667,6,0,B|120:352,2,65,0|0|8,0:0|0:0|0:0,0:0:0:0:
332,328,200590,2,0,B|392:352,2,65,0|0|8,0:0|0:0|0:0,0:0:0:0:
304,168,201513,2,0,B|284:138|288:98|320:75|356:77,1,130,0|8,0:0|0:0,0:0:0:0:
501,136,202436,2,0,B|442:180|378:148,1,130,0|8,0:0|0:0,0:0:0:0:
208,216,203360,6,0,B|227:245|223:285|191:308|156:306,1,130,0|8,0:0|0:0,0:0:0:0:
11,248,204283,2,0,B|69:203|133:235,1,130,0|8,0:0|0:0,0:0:0:0:
224,108,205206,1,4,0:0:0:0:
224,108,205436,1,8,0:0:0:0:
224,108,205667,2,0,P|196:88|176:64,2,65,8|8|8,0:0|0:0|0:0,0:0:0:0:
288,152,206360,2,0,P|316:172|336:196,1,65,0|8,0:0|0:0,0:0:0:0:
412,56,207052,6,0,B|468:20,2,65,4|0|8,0:0|0:0|0:0,0:0:0:0:
484,196,207975,2,0,B|429:231,2,65,0|0|8,0:0|0:0|0:0,0:0:0:0:
432,344,208898,2,0,B|376:372|376:372|312:356,1,130,0|8,0:0|0:0,0:0:0:0:
176,280,209821,2,0,B|232:252|232:252|296:268,1,130,0|8,0:0|0:0,0:0:0:0:
214,115,210744,6,0,B|280:132|280:132|336:104,1,130,0|8,0:0|0:0,0:0:0:0:
201,28,211667,2,0,B|136:12|136:12|80:40,1,130,0|8,0:0|0:0,0:0:0:0:
24,184,212590,2,0,B|68:236|44:308,1,130,0|8,0:0|0:0,0:0:0:0:
188,368,213513,2,0,B|144:316|168:244,1,130,0|8,0:0|0:0,0:0:0:0:
304,324,214436,6,0,B|328:348|364:348,1,65,0|0,0:0|0:0,0:0:0:0:
440,364,214898,1,8,0:0:0:0:
504,220,215360,2,0,B|480:196|444:196,1,65
368,180,215822,1,8,0:0:0:0:
344,24,216283,2,0,B|336:96|256:140|176:96|168:24,1,260
16,60,217667,1,8,0:0:0:0:
140,156,218129,6,0,B|176:200|256:228|336:200|372:156,1,260
496,60,219513,1,8,0:0:0:0:
496,60,219975,1,8,0:0:0:0:
316,316,220898,6,0,B|256:360|196:316,2,130,2|2|4,0:0|0:0|0:0,0:0:0:0:
