osu file format v13

[General]
AudioFilename: CANDY CANDY.mp3
AudioLeadIn: 0
PreviewTime: 59129
Countdown: 0
SampleSet: Soft
StackLeniency: 0.7
Mode: 0
LetterboxInBreaks: 0
WidescreenStoryboard: 0

[Editor]
Bookmarks: 15069,29838,44607,59377,74146,88915,103667,118436,133223,147975,162761,177530,192300,207069,221838
DistanceSpacing: 1
BeatDivisor: 4
GridSize: 4
TimelineZoom: 1

[Metadata]
Title:CANDY CANDY
TitleUnicode:CANDY CANDY
Artist:Kyary Pamyu Pamyu
ArtistUnicode:きゃりーぱみゅぱみゅ
Creator:Kenezz
Version:Easy
Source:
Tags:vicho-kun vicho kenezzedward gabe collab collaboration
BeatmapID:221165
BeatmapSetID:47256

[Difficulty]
HPDrainRate:2
CircleSize:3
OverallDifficulty:2
ApproachRate:3
SliderMultiplier:1.1
SliderTickRate:1

[Events]
//Background and Video events
0,0,"CANDYBG.jpg",0,0
Video,0,"CANDYVIDEO.flv"
//Break Periods
2,89098,102227
2,177713,187150
//Storyboard Layer 0 (Background)
//Storyboard Layer 1 (Fail)
//Storyboard Layer 2 (Pass)
//Storyboard Layer 3 (Foreground)
//Storyboard Sound Samples
//Background Colour Transformations
3,100,163,162,255

[TimingPoints]
11360,461.538461538462,4,2,1,100,1,0
59360,-100,4,2,1,100,0,1
74013,-100,4,2,1,100,0,0
74129,-100,4,2,1,100,0,1
88898,-100,4,2,1,100,0,0
133206,-100,4,2,1,100,0,1
147860,-100,4,2,1,100,0,0
147975,-100,4,2,1,100,0,1
162744,-100,4,2,1,100,0,0
192283,-100,4,2,1,100,0,1
206936,-100,4,2,1,100,0,0
207052,-100,4,2,1,100,0,1
221821,-100,4,2,1,100,0,0

[Colours]
Combo1 : 185,122,199
Combo2 : 255,128,192
Combo3 : 128,0,64
Combo4 : 255,60,60

[HitObjects]
72,144,15052,6,0,B|-1:199|65:288|65:288|133:378|206:322,1,330,4|8,0:0|0:0,0:0:0:0:
160,224,16898,2,0,B|152:132|256:112|256:112|360:132|352:224,1,330,2|8,0:0|0:0,0:0:0:0:
306,323,18744,6,0,B|378:378|446:288|446:288|513:199|440:144,1,330,2|8,0:0|0:0,0:0:0:0:
380,52,20590,2,0,B|335:74|361:125|288:107|255:154|255:154|222:107|148:125|174:74|130:52,1,330,2|8,0:0|0:0,0:0:0:0:
56,136,22436,6,0,B|72:196|176:192|176:272,2,165,4|0|8,0:0|0:0|0:0,0:0:0:0:
24,32,24283,2,0,L|192:32,2,165,2|0|8,0:0|0:0|0:0,0:0:0:0:
36,140,26129,6,0,P|56:228|80:252,1,110,2|8,0:0|0:0,0:0:0:0:
148,164,27052,2,0,P|176:220|176:268,1,110,2|8,0:0|0:0,0:0:0:0:
108,348,27975,2,0,B|158:378|158:378|223:378|253:341|253:341|283:378|348:378|348:378|399:348,1,330,2|8,0:0|0:0,0:0:0:0:
448,248,29821,6,0,P|368:192|356:60,1,220,4|2,0:0|0:0,0:0:0:0:
132,44,31667,2,0,P|108:100|64:144,1,110,2|8,0:0|0:0,0:0:0:0:
76,244,32590,2,0,P|108:279|132:335,1,110,2|8,0:0|0:0,0:0:0:0:
240,344,33513,6,0,B|224:264|176:192|176:192|224:120|240:40,1,330,2|8,0:0|0:0,0:0:0:0:
348,44,35360,2,0,P|363:151|436:231,1,220,2|2,0:0|0:0,0:0:0:0:
228,276,37206,6,0,P|124:308|20:280,2,220,4|2|2,0:0|0:0|0:0,0:0:0:0:
332,284,39513,2,0,B|348:204|348:204|320:160|320:160|332:72,1,220,8|8,0:0|0:0,0:0:0:0:
440,56,40898,5,2,0:0:0:0:
224,92,41821,1,2,0:0:0:0:
8,56,42744,2,0,P|-8:108|8:160,2,110,2|8|2,0:0|0:0|0:0,0:0:0:0:
204,156,44590,6,0,P|248:252|204:352,2,220,4|2|2,0:0|0:0|0:0,0:0:0:0:
124,80,46898,1,8,0:0:0:0:
27,131,47360,2,0,P|12:79|28:28,1,110,2|8,0:0|0:0,0:0:0:0:
124,80,48283,6,0,P|136:168|36:244,1,220,2|2,0:0|0:0,0:0:0:0:
232,352,50129,2,0,L|464:352,2,220,2|2|4,0:0|0:0|0:0,0:0:0:0:
40,244,52898,6,0,P|135:169|123:81,1,220,2|2,0:0|0:0,0:0:0:0:
32,16,54283,2,0,P|12:64|20:124,2,110,8|2|8,0:0|0:0|0:0,0:0:0:0:
140,8,55667,6,0,B|220:8|240:128|320:128,1,220,4|2,0:0|0:0,0:0:0:0:
424,116,57052,1,8,0:0:0:0:
256,192,57513,12,4,59360,0:0:0:0:
92,48,60283,6,0,P|52:84|44:148,1,110,2|8,0:0|0:0,0:0:0:0:
80,240,61206,1,2,0:0:0:0:
160,316,61667,1,8,0:0:0:0:
268,304,62129,2,0,P|244:248|208:216,1,110,2|8,0:0|0:0,0:0:0:0:
128,140,63052,6,0,B|176:104|176:104|200:56,1,110,2|8,0:0|0:0,0:0:0:0:
313,59,63975,2,0,B|336:104|336:104|384:140,1,110,2|8,0:0|0:0,0:0:0:0:
364,248,64898,2,0,B|344:327|256:364|256:364|168:327|148:248,1,330,2|8,0:0|0:0,0:0:0:0:
96,148,66744,6,0,P|80:92|92:20,1,110,4|8,0:0|0:0,0:0:0:0:
184,84,67667,2,0,L|296:64,1,110,2|8,0:0|0:0,0:0:0:0:
396,24,68590,2,0,P|400:76|380:131,2,110,2|8|2,0:0|0:0|0:0,0:0:0:0:
292,64,69975,1,8,0:0:0:0:
200,124,70436,6,0,B|188:176|188:176|192:240,1,110,2|8,0:0|0:0,0:0:0:0:
284,296,71360,2,0,B|296:244|296:244|292:180,1,110,2|8,0:0|0:0,0:0:0:0:
256,192,72283,12,4,74130,0:0:0:0:
192,68,75052,6,0,P|208:124|200:188,1,110,2|8,0:0|0:0,0:0:0:0:
172,280,75975,2,0,P|256:340|340:280,2,220,2|2|2,0:0|0:0|0:0,0:0:0:0:
204,176,78283,5,8,0:0:0:0:
424,176,79206,1,8,0:0:0:0:
360,268,79667,2,0,P|316:184|368:76,1,220,2|2,0:0|0:0,0:0:0:0:
152,24,81513,6,0,L|76:120,1,110,4|8,0:0|0:0,0:0:0:0:
60,220,82436,2,0,P|96:264|84:320,1,110,2|8,0:0|0:0,0:0:0:0:
188,360,83360,2,0,L|304:360,1,110,2|8,0:0|0:0,0:0:0:0:
260,256,84283,2,0,L|376:256,1,110,2|8,0:0|0:0,0:0:0:0:
428,348,85206,6,0,B|484:312|488:256|480:212|444:176|444:176|420:40,1,330,2|8,0:0|0:0,0:0:0:0:
256,192,87052,12,4,88898,0:0:0:0:
64,88,103667,5,4,0:0:0:0:
256,192,104590,1,2,0:0:0:0:
448,88,105513,2,0,B|460:152|460:152|424:192|460:232|460:232|448:296,1,220,2|2,0:0|0:0,0:0:0:0:
364,368,106898,1,8,0:0:0:0:
256,344,107360,6,0,P|152:312|48:344,1,220,2|2,0:0|0:0,0:0:0:0:
20,124,109206,2,0,P|44:76|104:36,2,110,2|8|2,0:0|0:0|0:0,0:0:0:0:
224,208,111052,5,4,0:0:0:0:
360,36,111975,1,2,0:0:0:0:
404,252,112898,2,0,P|364:296|308:336,2,110,2|8|2,0:0|0:0|0:0,0:0:0:0:
408,140,114283,1,8,0:0:0:0:
360,36,114744,6,0,B|288:84|300:160|300:160|292:196|252:212,1,220,4|2,0:0|0:0,0:0:0:0:
80,352,116590,2,0,P|48:304|44:248,1,110,2|8,0:0|0:0,0:0:0:0:
112,168,117513,2,0,P|204:128|180:24,1,220,2|4,0:0|0:0,0:0:0:0:
0,152,119360,5,2,0:0:0:0:
140,320,120283,2,0,B|192:296|192:296|204:240,1,110,2|8,0:0|0:0,0:0:0:0:
308,244,121206,2,0,B|320:296|320:296|372:320,1,110,2|8,0:0|0:0,0:0:0:0:
416,220,122129,5,4,0:0:0:0:
256,68,123052,1,2,0:0:0:0:
96,220,123975,2,0,P|108:276|96:328,1,110,2|8,0:0|0:0,0:0:0:0:
200,368,124898,2,0,P|220:272|188:152,1,220,2|4,0:0|0:0,0:0:0:0:
12,28,126744,5,2,0:0:0:0:
232,68,127667,2,0,L|356:68,1,110,2|8,0:0|0:0,0:0:0:0:
312,176,128590,2,0,L|436:176,1,110,2|8,0:0|0:0,0:0:0:0:
468,276,129513,5,4,0:0:0:0:
256,340,130436,1,4,0:0:0:0:
256,192,131360,12,4,133207,0:0:0:0:
256,48,134129,6,0,L|128:68,1,110,2|8,0:0|0:0,0:0:0:0:
68,144,135052,2,0,B|48:244|140:248|104:360,2,220,2|2|2,0:0|0:0|0:0,0:0:0:0:
52,36,137360,5,8,0:0:0:0:
152,84,137821,2,0,P|200:116|252:120,1,110,2|8,0:0|0:0,0:0:0:0:
344,56,138744,2,0,B|388:136|336:196|336:196|420:360,1,330,2|8,0:0|0:0,0:0:0:0:
504,288,140590,6,0,L|448:188,1,110,4|8,0:0|0:0,0:0:0:0:
400,96,141513,2,0,P|371:57|312:40,1,110,2|8,0:0|0:0,0:0:0:0:
204,44,142436,2,0,B|208:124|284:152|284:152|228:336,1,330,2|8,0:0|0:0,0:0:0:0:
124,360,144283,6,0,L|20:308,1,110,2|8,0:0|0:0,0:0:0:0:
17,198,145206,2,0,L|116:248,1,110,2|8,0:0|0:0,0:0:0:0:
256,192,146129,12,4,147976,0:0:0:0:
200,56,148898,6,0,L|312:56,1,110,2|8,0:0|0:0,0:0:0:0:
380,140,149821,2,0,B|400:240|308:244|344:356,2,220,2|2|2,0:0|0:0|0:0,0:0:0:0:
308,56,152129,5,8,0:0:0:0:
216,256,153052,1,8,0:0:0:0:
132,328,153513,2,0,B|72:244|128:176|188:100|120:8,1,330,2|8,0:0|0:0,0:0:0:0:
56,96,155360,6,0,P|40:144|20:208,1,110,4|8,0:0|0:0,0:0:0:0:
164,368,156744,1,8,0:0:0:0:
56,372,157205,2,0,B|60:292|136:264|136:264|196:80,1,330,2|8,0:0|0:0,0:0:0:0:
304,92,159052,6,0,L|408:40,1,110,2|8,0:0|0:0,0:0:0:0:
510,102,159975,2,0,L|412:152,1,110,2|8,0:0|0:0,0:0:0:0:
256,192,160898,12,4,162744,0:0:0:0:
256,88,163667,6,0,P|308:72|360:92,1,110,2|8,0:0|0:0,0:0:0:0:
304,188,164590,2,0,P|328:256|240:364,2,220,2|2|2,0:0|0:0|0:0,0:0:0:0:
212,252,166898,5,8,0:0:0:0:
28,132,167821,1,8,0:0:0:0:
120,76,168283,2,0,P|128:168|16:240,2,220,2|2|2,0:0|0:0|0:0,0:0:0:0:
220,32,170590,6,0,P|332:20|452:68,1,220,8|8,0:0|0:0,0:0:0:0:
400,160,171975,2,0,P|392:260|476:348,2,220,2|2|2,0:0|0:0|0:0,0:0:0:0:
432,56,174283,5,8,0:0:0:0:
212,56,175206,1,8,0:0:0:0:
256,192,175667,12,4,177513,0:0:0:0:
256,192,188590,12,4,192283,0:0:0:0:
256,56,193206,6,0,L|256:104|256:188,1,110,2|8,0:0|0:0,0:0:0:0:
332,244,194129,2,0,P|336:300|296:364,1,110,2|8,0:0|0:0,0:0:0:0:
198,347,195052,2,0,P|176:300|180:244,1,110,2|8,0:0|0:0,0:0:0:0:
104,164,195975,6,0,B|160:148|160:148|216:108,1,110,2|8,0:0|0:0,0:0:0:0:
312,120,196898,2,0,B|355:151|355:151|411:167,1,110,2|8,0:0|0:0,0:0:0:0:
468,80,197821,6,0,P|516:176|352:252,1,330,2|8,0:0|0:0,0:0:0:0:
360,156,199667,6,0,P|364:105|348:49,1,110,4|8,0:0|0:0,0:0:0:0:
264,116,200590,2,0,L|155:135,1,110,2|8,0:0|0:0,0:0:0:0:
52,100,201513,2,0,P|48:152|72:204,2,110,2|8|2,0:0|0:0|0:0,0:0:0:0:
148,48,202898,1,8,0:0:0:0:
256,72,203360,6,0,L|256:184,1,110,2|8,0:0|0:0,0:0:0:0:
356,224,204283,2,0,L|356:336,1,110,2|8,0:0|0:0,0:0:0:0:
256,192,205206,12,4,207053,0:0:0:0:
320,68,207975,6,0,P|304:124|312:188,1,110,2|8,0:0|0:0,0:0:0:0:
396,240,208898,2,0,P|312:300|228:240,2,220,2|2|2,0:0|0:0|0:0,0:0:0:0:
420,132,211206,5,8,0:0:0:0:
200,128,212129,1,8,0:0:0:0:
264,220,212590,2,0,P|308:136|256:28,1,220,2|2,0:0|0:0,0:0:0:0:
80,156,214436,6,0,P|108:212|160:244,1,110,4|8,0:0|0:0,0:0:0:0:
256,252,215360,2,0,P|308:272|352:336,1,110,2|8,0:0|0:0,0:0:0:0:
444,352,216283,2,0,L|484:248,1,110,2|8,0:0|0:0,0:0:0:0:
396,184,217206,2,0,L|436:80,1,110,2|8,0:0|0:0,0:0:0:0:
340,28,218129,6,0,P|196:88|220:236,1,330,2|8,0:0|0:0,0:0:0:0:
296,156,219975,2,0,P|318:307|176:364,1,330,2|8,0:0|0:0,0:0:0:0:
84,300,221821,1,4,0:0:0:0:
