osu file format v13

[General]
AudioFilename: CANDY CANDY.mp3
AudioLeadIn: 0
PreviewTime: 59129
Countdown: 0
SampleSet: Soft
StackLeniency: 0.7
Mode: 0
LetterboxInBreaks: 0
WidescreenStoryboard: 0

[Editor]
Bookmarks: 15069,29838,44607,59377,74146,88915,103684,118453,133223,147992,162761,177530,192300,207069,221838
DistanceSpacing: 1.1
BeatDivisor: 4
GridSize: 4
TimelineZoom: 1

[Metadata]
Title:CANDY CANDY
TitleUnicode:CANDY CANDY
Artist:Kyary Pamyu Pamyu
ArtistUnicode:きゃりーぱみゅぱみゅ
Creator:Kenezz
Version:Candy
Source:
Tags:vicho-kun vicho kenezzedward gabe collab collaboration
BeatmapID:151868
BeatmapSetID:47256

[Difficulty]
HPDrainRate:6
CircleSize:4
OverallDifficulty:7
ApproachRate:7.5
SliderMultiplier:1.7
SliderTickRate:1

[Events]
//Background and Video events
Video,0,"CANDYVIDEO.flv"
0,0,"CANDYBG.jpg",0,0
//Break Periods
2,89098,102842
2,177713,187765
//Storyboard Layer 0 (Background)
//Storyboard Layer 1 (Fail)
//Storyboard Layer 2 (Pass)
//Storyboard Layer 3 (Foreground)
Sprite,Foreground,Centre,"Kenezz.png",320,240 M,0,14129,,120,90 F,0,14129,15052,0,1 F,0,27975,28898,1,0 F,0,43667,44590,0,1 F,0,57513,58436,1,0 F,0,73206,74129,0,1 F,0,87975,88898,1,0 F,0,117513,118436,0,1 F,0,131360,132283,1,0 F,0,147052,147975,0,1 F,0,160898,161821,1,0 F,0,191360,192283,0,1 F,0,205206,206129,1,0
Sprite,Foreground,Centre,"Vicho.png",320,240 M,0,28898,,120,90 F,0,28898,29821,0,1 F,0,42744,43667,1,0 F,0,58436,59360,0,1 F,0,72283,73206,1,0 F,0,102744,103667,0,1 F,0,116590,117513,1,0 F,0,132283,133206,0,1 F,0,146129,147052,1,0 F,0,161821,162744,0,1 F,0,176590,177513,1,0 F,0,206129,207052,0,1 F,0,220898,221821,1,0
//Storyboard Sound Samples
//Background Colour Transformations
3,100,163,162,255

[TimingPoints]
11360,461.538461538462,4,2,1,100,1,0
59360,-100,4,2,1,100,0,1
74013,-100,4,2,1,100,0,0
74129,-100,4,2,1,100,0,1
88898,-100,4,2,1,100,0,0
133206,-100,4,2,1,100,0,1
147860,-100,4,2,1,100,0,0
147975,-100,4,2,1,100,0,1
162744,-100,4,2,1,100,0,0
192283,-100,4,2,1,100,0,1
206936,-100,4,2,1,100,0,0
207052,-100,4,2,1,100,0,1
221821,-100,4,2,1,100,0,0

[Colours]
Combo1 : 185,122,199
Combo2 : 255,128,192
Combo3 : 128,0,64
Combo4 : 255,60,60

[HitObjects]
480,68,13206,6,0,B|432:52|404:88,1,85,8|0,0:0|0:0,0:0:0:0:
324,136,13667,1,8,0:0:0:0:
240,96,13898,1,0,0:0:0:0:
240,96,14013,1,0,0:0:0:0:
240,96,14129,1,8,0:0:0:0:
200,12,14360,1,8,0:0:0:0:
116,48,14590,1,8,0:0:0:0:
24,28,14821,5,0,0:0:0:0:
20,76,14936,1,8,0:0:0:0:
52,116,15052,2,0,B|84:152|128:140,1,85,4|0,0:0|0:0,0:0:0:0:
208,192,15513,1,8,0:0:0:0:
284,248,15744,2,0,B|312:212|300:168,1,85
240,96,16206,2,0,B|308:44,1,85,0|8,0:0|0:0,0:0:0:0:
392,8,16667,5,0,0:0:0:0:
420,44,16783,1,0,0:0:0:0:
452,80,16898,1,0,0:0:0:0:
508,156,17129,1,0,0:0:0:0:
508,156,17360,1,8,0:0:0:0:
416,168,17590,2,0,B|384:200|384:244,1,85
392,336,18052,1,0,0:0:0:0:
392,336,18283,1,8,0:0:0:0:
488,356,18513,5,0,0:0:0:0:
492,308,18628,1,0,0:0:0:0:
460,268,18744,2,0,B|428:232|384:244,1,85
304,192,19205,1,8,0:0:0:0:
228,136,19436,2,0,B|200:172|212:216,1,85
272,288,19898,2,0,B|204:340,1,85,0|8,0:0|0:0,0:0:0:0:
120,376,20359,5,0,0:0:0:0:
92,340,20475,1,0,0:0:0:0:
60,304,20590,1,0,0:0:0:0:
4,228,20821,1,0,0:0:0:0:
4,228,21052,1,8,0:0:0:0:
96,216,21282,2,0,B|128:184|128:140,1,85
124,44,21744,1,8,0:0:0:0:
124,44,21860,1,8,0:0:0:0:
124,44,21975,1,8,0:0:0:0:
216,64,22206,5,8,0:0:0:0:
216,64,22321,1,8,0:0:0:0:
216,64,22436,2,0,B|256:40|296:64,1,85,4|0,0:0|0:0,0:0:0:0:
256,148,22898,1,8,0:0:0:0:
256,240,23129,1,0,0:0:0:0:
296,324,23360,2,0,B|256:348|216:324,2,85,0|0|8,0:0|0:0|0:0,0:0:0:0:
388,332,24052,6,0,B|416:364,2,42.5
468,280,24513,1,0,0:0:0:0:
468,280,24744,1,8,0:0:0:0:
496,192,24975,1,0,0:0:0:0:
476,100,25206,2,0,B|500:16,2,85,0|0|8,0:0|0:0|0:0,0:0:0:0:
392,144,25898,5,0,0:0:0:0:
392,144,26013,1,0,0:0:0:0:
392,144,26129,1,0,0:0:0:0:
324,208,26360,2,0,B|328:252|300:288,1,85,0|8,0:0|0:0,0:0:0:0:
187,208,26821,2,0,B|184:252|211:287,2,85
120,144,27513,1,8,0:0:0:0:
124,52,27744,6,0,B|96:20,2,42.5,0|0|8,0:0|0:0|0:0,0:0:0:0:
44,104,28206,1,8,0:0:0:0:
44,104,28437,1,8,0:0:0:0:
0,168,28667,2,8,B|16:192,3,28.3333333333333
36,284,29129,1,8,0:0:0:0:
36,284,29360,1,8,0:0:0:0:
36,284,29590,1,8,0:0:0:0:
128,260,29821,6,0,B|192:200|288:216,1,170,4|8,0:0|0:0,0:0:0:0:
368,256,30513,1,0,0:0:0:0:
360,164,30744,2,0,B|332:76|232:48,1,170,0|8,0:0|0:0,0:0:0:0:
148,44,31436,1,0,0:0:0:0:
148,136,31667,6,0,B|132:176|92:200,1,85
48,216,32013,1,0,0:0:0:0:
44,264,32129,2,0,B|92:332,1,85,8|0,0:0|0:0,0:0:0:0:
212,328,32590,2,0,B|164:260,2,85,0|0|8,0:0|0:0|0:0,0:0:0:0:
304,344,33283,1,0,0:0:0:0:
336,256,33513,6,0,B|372:168|464:144,1,170,0|8,0:0|0:0,0:0:0:0:
444,52,34206,1,0,0:0:0:0:
352,56,34436,2,0,B|276:104|184:68,1,170,0|8,0:0|0:0,0:0:0:0:
100,44,35129,1,0,0:0:0:0:
48,120,35360,5,0,0:0:0:0:
100,196,35590,1,0,0:0:0:0:
100,196,35706,1,0,0:0:0:0:
100,196,35821,1,8,0:0:0:0:
192,172,36052,2,0,B|232:188|260:228,1,85
280,316,36513,1,0,0:0:0:0:
368,284,36744,2,0,B|404:260|456:264,1,85,8|0,0:0|0:0,0:0:0:0:
464,172,37206,6,0,B|400:144|384:72,1,127.5
376,32,37667,1,8,0:0:0:0:
292,76,37898,2,0,B|216:116,1,85
132,156,38360,1,0,0:0:0:0:
132,156,38475,1,0,0:0:0:0:
132,156,38590,2,0,B|108:188|112:236,1,85,8|0,0:0|0:0,0:0:0:0:
208,316,39052,6,0,B|232:284|228:236,1,85
228,236,39398,1,0,0:0:0:0:
228,236,39513,1,8,0:0:0:0:
296,168,39744,2,0,B|376:200,1,85
464,168,40206,1,0,0:0:0:0:
375,200,40436,2,0,B|307:260|315:356,1,170,8|0,0:0|0:0,0:0:0:0:
220,360,41129,5,0,0:0:0:0:
220,360,41244,1,0,0:0:0:0:
220,360,41360,2,0,B|156:304,1,85,8|0,0:0|0:0,0:0:0:0:
132,152,41821,2,0,B|196:208,1,85
228,240,42167,1,0,0:0:0:0:
264,272,42283,1,8,0:0:0:0:
320,196,42513,5,0,0:0:0:0:
396,140,42744,2,0,B|424:104|472:92,2,85,0|0|8,0:0|0:0|0:0,0:0:0:0:
320,196,43436,1,0,0:0:0:0:
240,144,43667,2,0,B|176:120|156:48,1,127.5,4|0,3:0|0:0,0:0:0:0:
116,32,44129,2,0,B|52:88,1,85,8|0,0:0|0:0,0:0:0:0:
20,176,44590,6,0,B|40:304,1,127.5,4|0,0:0|0:0,0:0:0:0:
84,320,45052,2,0,B|96:364|144:376,1,85,8|0,0:0|0:0,0:0:0:0:
172,288,45513,2,0,B|176:216|128:172,1,127.5
104,132,45975,2,0,B|128:48,1,85,8|0,0:0|0:0,0:0:0:0:
212,8,46436,6,0,B|227:49|272:62,1,85
332,136,46898,1,8,0:0:0:0:
256,192,47129,1,0,0:0:0:0:
180,248,47360,1,0,0:0:0:0:
240,320,47590,2,0,B|285:335|300:376,1,85,0|8,0:0|0:0,0:0:0:0:
392,356,48052,1,0,0:0:0:0:
492,212,48283,6,0,B|472:80,1,127.5
428,64,48745,2,0,B|416:20|368:8,1,85,8|0,0:0|0:0,0:0:0:0:
340,96,49206,2,0,B|336:168|384:212,1,127.5
408,252,49668,2,0,B|384:336,1,85,8|0,0:0|0:0,0:0:0:0:
300,368,50129,6,0,B|256:384|212:368,2,85,0|0|8,0:0|0:0|0:0,0:0:0:0:
256,284,50821,1,0,0:0:0:0:
332,224,51052,2,0,P|256:188|180:224,1,170,0|8,0:0|0:0,0:0:0:0:
96,176,51744,1,0,0:0:0:0:
77,87,51975,6,0,B|36:89|-3:128|-7:184|15:216,1,170,0|8,0:0|0:0,0:0:0:0:
96,176,52667,1,0,0:0:0:0:
120,264,52898,2,0,B|161:261|201:222|205:166|180:133,1,170,0|8,0:0|0:0,0:0:0:0:
200,44,53590,1,0,0:0:0:0:
292,20,53821,5,0,0:0:0:0:
368,76,54052,2,0,B|373:121|336:152,1,85,0|8,0:0|0:0,0:0:0:0:
256,192,54513,1,0,0:0:0:0:
174,232,54744,2,0,B|138:262|144:308,1,85
220,364,55205,1,8,0:0:0:0:
312,340,55436,1,0,0:0:0:0:
330,249,55667,6,0,B|306:217|310:161|350:122|392:120,1,170,0|8,0:0|0:0,0:0:0:0:
416,208,56360,1,0,0:0:0:0:
496,167,56590,2,0,B|519:199|515:255|475:294|435:297,1,170,0|8,0:0|0:0,0:0:0:0:
416,208,57283,1,8,0:0:0:0:
428,116,57513,6,0,P|428:72|444:32,1,85,8|0,0:0|0:0,0:0:0:0:
352,44,57975,2,0,B|360:88|332:124,1,85
256,176,58436,1,8,0:0:0:0:
256,268,58667,1,8,0:0:0:0:
256,316,58783,1,8,0:0:0:0:
256,364,58898,1,4,0:0:0:0:
72,236,59360,6,0,B|32:184|48:112,1,127.5,4|0,0:0|0:0,0:0:0:0:
84,84,59821,2,0,B|160:120,1,85,8|0,0:0|0:0,0:0:0:0:
248,156,60283,2,0,B|308:148|344:68,1,127.5
384,56,60744,2,0,B|424:76|440:132,1,85,8|0,0:0|0:0,0:0:0:0:
452,232,61206,5,0,0:0:0:0:
452,232,61436,1,0,0:0:0:0:
372,308,61667,1,8,0:0:0:0:
372,308,61898,1,0,0:0:0:0:
264,284,62129,2,0,B|140:264,1,127.5
92,256,62590,1,8,0:0:0:0:
44,176,62821,1,0,0:0:0:0:
96,100,63052,6,0,B|136:48|212:52,1,127.5
252,68,63513,1,8,0:0:0:0:
252,68,63744,1,0,0:0:0:0:
284,224,63975,2,0,B|244:276|168:272,1,127.5
128,256,64436,1,8,0:0:0:0:
128,256,64667,1,0,0:0:0:0:
80,176,64898,6,0,B|56:92,1,85
132,36,65360,2,0,B|192:96|296:72,1,170,8|0,0:0|0:0,0:0:0:0:
380,44,66052,1,0,0:0:0:0:
412,76,66167,1,0,0:0:0:0:
428,120,66283,1,8,0:0:0:0:
416,220,66513,1,0,0:0:0:0:
316,228,66744,6,0,B|228:240|180:332,1,170,0|8,0:0|0:0,0:0:0:0:
108,272,67436,1,0,0:0:0:0:
108,272,67667,2,0,B|68:104,1,170,0|8,0:0|0:0,0:0:0:0:
152,48,68360,1,0,0:0:0:0:
152,48,68590,6,0,B|184:76|240:68,1,85
276,56,68936,1,0,0:0:0:0:
316,80,69052,2,0,B|360:152,1,85,8|0,0:0|0:0,0:0:0:0:
452,160,69513,2,0,B|455:199|429:247|370:260|333:241,1,170,0|8,0:0|0:0,0:0:0:0:
335,242,70206,1,0,0:0:0:0:
248,208,70436,6,0,B|192:240|180:312,1,127.5
140,332,70898,2,0,B|64:292,1,85,8|0,0:0|0:0,0:0:0:0:
72,200,71360,2,0,B|128:168|140:96,1,127.5
180,76,71822,2,0,B|256:116,1,85,8|0,0:0|0:0,0:0:0:0:
340,160,72283,1,4,0:0:0:0:
376,284,72513,5,8,0:0:0:0:
376,284,72744,1,8,0:0:0:0:
256,332,72975,1,8,0:0:0:0:
256,332,73206,2,0,B|228:296|180:288,1,85,8|0,0:0|0:0,0:0:0:0:
136,288,73552,1,0,0:0:0:0:
104,256,73667,2,0,B|72:176,1,85,8|0,0:0|0:0,0:0:0:0:
24,32,74129,6,0,B|76:72|144:52,1,127.5,4|0,0:0|0:0,0:0:0:0:
188,72,74590,2,0,B|224:148,1,85,8|0,0:0|0:0,0:0:0:0:
320,152,75052,2,0,B|384:124|440:164,1,127.5
472,196,75513,2,0,B|444:276,1,85,8|0,0:0|0:0,0:0:0:0:
412,364,75975,6,0,B|376:392|332:380,1,85
240,368,76436,2,0,B|268:287,1,85,8|0,0:0|0:0,0:0:0:0:
192,232,76898,2,0,B|128:260|72:220,1,127.5
40,188,77359,2,0,B|68:108,1,85,8|0,0:0|0:0,0:0:0:0:
188,64,77821,6,0,B|212:28|256:16|256:16|300:28|324:64,1,170,0|8,0:0|0:0,0:0:0:0:
256,132,78513,1,0,0:0:0:0:
324,196,78744,2,0,B|300:232|256:244|256:244|212:232|188:196,1,170,0|8,0:0|0:0,0:0:0:0:
104,236,79436,1,0,0:0:0:0:
16,264,79667,6,0,B|76:376,1,127.5
124,372,80129,2,0,B|168:384|204:356,1,85,8|0,0:0|0:0,0:0:0:0:
216,264,80590,2,0,B|208:236|216:200|256:180|296:200|304:236|296:264,1,170,0|8,0:0|0:0,0:0:0:0:
308,356,81283,1,0,0:0:0:0:
404,376,81513,6,0,B|424:312|492:292,1,127.5
500,244,81975,2,0,B|456:232|436:190,1,85,8|0,0:0|0:0,0:0:0:0:
496,120,82436,2,0,B|428:12,1,127.5
380,16,82898,2,0,B|344:40|300:20,1,85,8|0,0:0|0:0,0:0:0:0:
240,92,83360,5,0,0:0:0:0:
152,116,83590,1,0,0:0:0:0:
76,60,83821,1,8,0:0:0:0:
152,116,84052,1,0,0:0:0:0:
68,160,84283,2,0,B|28:208|40:284,1,127.5
56,324,84744,1,8,0:0:0:0:
56,324,84975,1,0,0:0:0:0:
196,336,85206,6,0,B|204:292|256:260|308:292|316:336,1,170,0|8,0:0|0:0,0:0:0:0:
400,376,85898,1,0,0:0:0:0:
392,284,86129,2,0,B|352:208|256:152|160:208|120:284,1,340
496,80,87744,5,0,0:0:0:0:
496,80,87975,1,2,0:0:0:0:
430,14,88206,1,0,0:0:0:0:
430,14,88436,1,2,0:0:0:0:
396,100,88667,1,0,0:0:0:0:
396,100,88783,1,0,0:0:0:0:
396,100,88898,1,4,0:0:0:0:
76,320,103667,6,0,B|144:304|172:228,1,127.5,4|0,0:0|0:0,0:0:0:0:
192,200,104129,2,0,B|236:196|276:220,1,85,8|0,0:0|0:0,0:0:0:0:
424,192,104590,2,0,B|376:140|388:64,1,127.5
356,40,105052,2,0,B|276:64,1,85,8|0,0:0|0:0,0:0:0:0:
184,88,105513,5,0,0:0:0:0:
96,60,105744,1,0,0:0:0:0:
64,92,105860,1,0,0:0:0:0:
52,136,105975,2,0,B|80:168|76:220,1,85,8|0,0:0|0:0,0:0:0:0:
208,288,106436,2,0,B|180:256|184:204,1,85
188,160,106783,1,0,0:0:0:0:
228,132,106898,1,8,0:0:0:0:
256,44,107129,1,0,0:0:0:0:
320,112,107360,6,0,B|364:160|440:160,1,127.5
480,144,107821,1,8,0:0:0:0:
480,144,108052,1,0,0:0:0:0:
472,236,108283,2,0,B|464:320,1,85
432,356,108629,1,0,0:0:0:0:
384,348,108744,2,0,B|352:324|300:324,1,85,8|0,0:0|0:0,0:0:0:0:
212,348,109206,5,0,0:0:0:0:
236,256,109436,1,0,0:0:0:0:
236,256,109552,1,0,0:0:0:0:
236,256,109667,1,8,0:0:0:0:
144,232,109898,2,0,B|100:216|80:172,1,85
168,80,110360,1,0,0:0:0:0:
168,80,110475,1,0,0:0:0:0:
168,80,110590,2,0,B|212:96|232:140,1,85,8|0,0:0|0:0,0:0:0:0:
312,180,111052,6,0,B|420:116,1,127.5
468,120,111513,2,0,B|500:152|500:200,1,85,8|0,0:0|0:0,0:0:0:0:
404,292,111975,2,0,B|296:356,1,127.5
248,352,112436,2,0,B|216:320|216:272,1,85,8|0,0:0|0:0,0:0:0:0:
252,120,112898,6,0,B|284:152|284:200,1,85
296,240,113244,1,0,0:0:0:0:
340,256,113360,2,0,B|424:224,1,85,8|0,0:0|0:0,0:0:0:0:
484,156,113821,1,0,0:0:0:0:
396,124,114052,1,0,0:0:0:0:
360,96,114167,1,0,0:0:0:0:
340,56,114283,1,8,0:0:0:0:
248,32,114513,1,0,0:0:0:0:
180,96,114744,6,0,B|120:160|144:260,1,170,0|8,0:0|0:0,0:0:0:0:
208,320,115436,1,0,0:0:0:0:
284,264,115667,2,0,B|336:228|412:240,1,127.5
448,220,116129,2,0,B|472:140,1,85,8|0,0:0|0:0,0:0:0:0:
400,28,116590,6,0,B|376:108,1,85
292,156,117052,2,0,B|248:144|228:100,1,85,8|0,0:0|0:0,0:0:0:0:
160,40,117513,1,0,0:0:0:0:
72,72,117744,1,8,0:0:0:0:
52,112,117860,1,0,0:0:0:0:
48,160,117975,1,8,0:0:0:0:
100,236,118206,1,0,0:0:0:0:
120,352,118436,5,4,0:0:0:0:
212,372,118667,1,0,0:0:0:0:
256,352,118783,1,0,0:0:0:0:
300,372,118898,1,8,0:0:0:0:
392,352,119129,1,0,0:0:0:0:
464,292,119360,2,0,B|460:220|504:172,1,127.5
480,136,119821,2,0,B|496:52,1,85,8|0,0:0|0:0,0:0:0:0:
372,28,120283,6,0,B|328:44|312:88,1,85
348,172,120744,1,8,0:0:0:0:
256,156,120975,1,0,0:0:0:0:
198,85,121206,2,0,B|184:44|140:28,2,85,0|0|8,0:0|0:0|0:0,0:0:0:0:
164,172,121898,1,0,0:0:0:0:
48,92,122129,6,0,B|52:164|8:212,1,127.5
32,248,122590,2,0,B|16:332,1,85,8|0,0:0|0:0,0:0:0:0:
140,364,123052,6,0,B|184:356|212:324,1,85
256,336,123398,1,0,0:0:0:0:
300,324,123513,2,0,B|328:356|372:364,1,85,8|0,0:0|0:0,0:0:0:0:
404,276,123975,6,0,B|336:240|336:240|312:200|328:148,1,170,0|8,0:0|0:0,0:0:0:0:
256,88,124667,1,0,0:0:0:0:
184,150,124898,2,0,B|200:200|176:240|176:240|108:276,1,170,0|8,0:0|0:0,0:0:0:0:
24,236,125590,1,0,0:0:0:0:
0,156,125821,6,0,B|48:36,1,127.5
92,24,126283,1,8,0:0:0:0:
180,52,126513,1,0,0:0:0:0:
272,56,126744,2,0,B|255:128|187:140,1,127.5
148,168,127206,1,8,0:0:0:0:
104,252,127436,1,0,0:0:0:0:
12,260,127667,5,0,0:0:0:0:
64,336,127898,1,0,0:0:0:0:
108,352,128013,1,0,0:0:0:0:
152,364,128129,1,8,0:0:0:0:
216,296,128360,2,0,B|256:308|256:308|296:296,1,85
360,364,128821,1,0,0:0:0:0:
404,352,128937,1,0,0:0:0:0:
448,336,129052,1,8,0:0:0:0:
500,260,129283,1,0,0:0:0:0:
512,156,129513,6,0,B|464:37,1,127.5
420,24,129975,1,8,0:0:0:0:
332,52,130205,1,0,0:0:0:0:
239,55,130436,2,0,B|256:128|324:140,1,127.5
364,168,130898,1,8,0:0:0:0:
336,256,131129,1,0,0:0:0:0:
256,304,131360,6,0,B|256:388,2,85,8|0|0,0:0|0:0|0:0,0:0:0:0:
176,256,132052,1,0,0:0:0:0:
148,168,132283,1,0,0:0:0:0:
72,112,132513,2,0,B|52:124,4,21.25,0|0|0|0|2,0:0|0:0|0:0|0:0|0:0,0:0:0:0:
416,24,133206,6,0,B|372:68|376:144,1,127.5,4|0,0:0|0:0,0:0:0:0:
400,180,133667,2,0,B|476:224,1,85,8|0,0:0|0:0,0:0:0:0:
376,292,134129,2,0,B|332:248|256:252,1,127.5
224,280,134590,2,0,P|179:282|136:256,1,85,8|0,0:0|0:0,0:0:0:0:
196,184,135052,1,0,0:0:0:0:
192,92,135283,1,0,0:0:0:0:
276,132,135513,2,0,B|316:112|324:64,1,85,8|0,0:0|0:0,0:0:0:0:
416,44,135975,2,0,B|480:156,1,127.5
500,196,136436,1,8,0:0:0:0:
500,196,136667,1,0,0:0:0:0:
408,212,136898,6,0,B|316:224|272:316,1,170,0|8,0:0|0:0,0:0:0:0:
204,364,137590,1,0,0:0:0:0:
188,272,137821,2,0,B|155:185|216:104,1,170,0|8,0:0|0:0,0:0:0:0:
276,44,138513,1,0,0:0:0:0:
211,111,138744,6,0,B|167:159|95:159,1,127.5
72,200,139206,2,0,B|100:236|96:284,1,85,8|0,0:0|0:0,0:0:0:0:
144,360,139667,1,0,0:0:0:0:
232,328,139898,1,0,0:0:0:0:
232,328,140013,1,0,0:0:0:0:
232,328,140129,2,0,B|260:292|312:288,1,85,8|0,0:0|0:0,0:0:0:0:
364,216,140590,6,0,B|308:168|316:92,1,127.5
296,60,141052,2,0,B|212:36,1,85,8|0,0:0|0:0,0:0:0:0:
82,148,141513,2,0,B|138:196|130:272,1,127.5
150,304,141975,2,0,B|234:328,1,85,8|0,0:0|0:0,0:0:0:0:
320,356,142436,5,0,0:0:0:0:
320,356,142667,1,0,0:0:0:0:
356,272,142898,1,8,0:0:0:0:
356,272,143129,1,0,0:0:0:0:
432,216,143360,2,0,B|408:152|336:132,1,127.5
296,140,143821,1,8,0:0:0:0:
296,140,144052,1,0,0:0:0:0:
260,228,144283,6,0,B|259:267|223:310|168:318|134:297,1,170,0|8,0:0|0:0,0:0:0:0:
168,216,144975,1,0,0:0:0:0:
78,197,145206,2,0,B|77:157|113:114|168:106|203:129,1,170,0|8,0:0|0:0,0:0:0:0:
168,216,145898,1,8,0:0:0:0:
168,216,146129,1,4,0:0:0:0:
256,312,146360,5,8,0:0:0:0:
256,312,146590,1,8,0:0:0:0:
340,215,146821,1,8,0:0:0:0:
340,215,147052,2,0,B|352:168|400:144,1,85,8|0,0:0|0:0,0:0:0:0:
432,128,147398,1,0,0:0:0:0:
428,80,147513,2,0,B|400:48|348:44,1,85,8|0,0:0|0:0,0:0:0:0:
308,64,147860,1,0,0:0:0:0:
268,84,147975,6,0,B|139:64,1,127.5,4|0,0:0|0:0,0:0:0:0:
104,36,148436,2,0,B|72:64|24:56,1,85,8|0,0:0|0:0,0:0:0:0:
32,148,148898,2,0,B|-8:200|8:268,1,127.5
40,304,149360,2,0,B|72:336|68:380,1,85,8|0,0:0|0:0,0:0:0:0:
148,332,149821,6,0,B|172:252,1,85
252,200,150283,2,0,B|292:184|312:140,1,85,8|0,0:0|0:0,0:0:0:0:
256,64,150744,2,0,B|216:51|162:70|141:124|155:161,1,170,0|8,0:0|0:0,0:0:0:0:
172,252,151436,1,0,0:0:0:0:
158,339,151667,6,0,B|288:360,1,127.5
324,336,152129,2,0,B|356:308|404:316,1,85,8|0,0:0|0:0,0:0:0:0:
464,244,152590,2,0,B|504:192|488:124,1,127.5
472,80,153052,2,0,B|440:48|444:4,1,85,8|0,0:0|0:0,0:0:0:0:
364,52,153513,6,0,B|340:132,1,85
260,184,153975,2,0,B|220:200|200:244,1,85,8|0,0:0|0:0,0:0:0:0:
256,320,154436,2,0,B|295:332|349:313|370:259|356:222,1,170,0|8,0:0|0:0,0:0:0:0:
340,132,155128,1,0,0:0:0:0:
268,72,155360,6,0,B|216:116|156:132,1,127.5
124,164,155821,1,8,0:0:0:0:
124,164,156052,1,0,0:0:0:0:
244,312,156283,2,0,B|296:268|356:252,1,127.5
388,220,156744,1,8,0:0:0:0:
388,220,156975,1,0,0:0:0:0:
448,148,157206,6,0,B|484:120|480:72,1,85
416,8,157667,2,0,B|380:36|384:84,1,85,8|0,0:0|0:0,0:0:0:0:
316,148,158129,2,0,B|256:124|256:124|196:148,1,127.5
152,144,158590,2,0,B|108:152|84:196,1,85,8|0,0:0|0:0,0:0:0:0:
80,340,159052,6,0,B|120:357|171:334|193:283|176:244,1,170,0|8,0:0|0:0,0:0:0:0:
152,144,159744,1,0,0:0:0:0:
248,104,159975,2,0,B|316:100|352:36,1,127.5
396,36,160436,2,0,B|460:96,2,85,8|0|8,0:0|0:0|0:0,0:0:0:0:
256,368,161590,5,0,0:0:0:0:
256,368,161821,1,2,0:0:0:0:
256,276,162052,1,0,0:0:0:0:
256,276,162283,1,2,0:0:0:0:
304,196,162513,1,0,0:0:0:0:
340,164,162629,1,0,0:0:0:0:
388,164,162744,6,0,B|464:112,1,85,4|0,0:0|0:0,0:0:0:0:
448,24,163206,1,8,0:0:0:0:
360,52,163436,2,0,B|312:56|272:20,1,85,2|0,0:0|0:0,0:0:0:0:
188,28,163898,1,0,0:0:0:0:
156,116,164129,1,8,0:0:0:0:
224,180,164360,5,2,0:0:0:0:
224,180,164475,1,0,0:0:0:0:
224,180,164590,2,0,B|200:260,1,85
256,336,165052,2,0,B|292:308|344:312,1,85,8|0,0:0|0:0,0:0:0:0:
420,352,165513,1,0,0:0:0:0:
412,260,165744,1,0,0:0:0:0:
464,180,165975,1,8,0:0:0:0:
384,132,166206,5,0,0:0:0:0:
344,108,166321,1,0,0:0:0:0:
328,64,166436,1,0,0:0:0:0:
236,56,166667,2,0,B|152:88,1,85,2|8,0:0|0:0,0:0:0:0:
124,212,167129,2,0,B|208:180,2,85,2|0|2,0:0|0:0|0:0,0:0:0:0:
80,296,167821,1,8,0:0:0:0:
168,332,168052,5,2,0:0:0:0:
216,324,168167,1,0,0:0:0:0:
256,348,168283,1,0,0:0:0:0:
348,328,168513,2,0,B|388:308|404:264,1,85,0|8,0:0|0:0,0:0:0:0:
396,172,168975,1,0,0:0:0:0:
480,20,169206,2,0,B|440:40|424:84,1,85,0|8,0:0|0:0,0:0:0:0:
400,124,169552,1,8,0:0:0:0:
396,172,169667,1,8,0:0:0:0:
316,224,169898,5,8,0:0:0:0:
316,224,170013,1,8,0:0:0:0:
316,224,170129,2,0,B|232:204,1,85,4|2,0:0|0:0,0:0:0:0:
140,184,170590,2,0,B|109:216|114:265,2,85,8|2|0,0:0|0:0|0:0,0:0:0:0:
204,116,171283,1,2,0:0:0:0:
204,116,171513,1,8,0:0:0:0:
296,136,171744,5,2,0:0:0:0:
340,116,171860,1,0,0:0:0:0:
368,80,171975,1,0,0:0:0:0:
444,136,172206,2,0,B|452:176|492:208,1,85,0|8,0:0|0:0,0:0:0:0:
468,296,172667,2,0,B|384:332,1,85
304,372,173129,1,0,0:0:0:0:
304,372,173360,1,8,0:0:0:0:
256,292,173590,5,0,0:0:0:0:
256,292,173706,1,0,0:0:0:0:
256,292,173821,1,0,0:0:0:0:
164,268,174052,2,0,B|124:248|108:204,1,85,2|8,0:0|0:0,0:0:0:0:
160,72,174513,1,2,0:0:0:0:
160,72,174744,2,0,B|200:92|216:136,1,85,0|2,0:0|0:0,0:0:0:0:
304,168,175206,2,0,B|388:136,1,85,8|2,0:0|0:0,0:0:0:0:
383,137,175552,1,0,0:0:0:0:
383,137,175667,5,8,0:0:0:0:
472,104,175898,1,8,0:0:0:0:
472,104,176129,1,8,0:0:0:0:
400,44,176360,2,0,B|384:20,4,21.25,8|8|8|8|8,0:0|0:0|0:0|0:0|0:0,0:0:0:0:
383,138,176821,1,8,0:0:0:0:
383,137,177052,1,8,0:0:0:0:
456,196,177283,1,8,0:0:0:0:
456,196,177513,1,4,0:0:0:0:
256,192,188590,12,8,191821,0:0:0:0:
32,272,192283,6,0,B|96:288|152:244,1,127.5,4|0,0:0|0:0,0:0:0:0:
132,204,192744,2,0,B|96:128,1,85,8|0,0:0|0:0,0:0:0:0:
156,52,193206,2,0,B|204:12|280:24,1,127.5
316,48,193667,2,0,B|360:64|400:48,1,85,8|0,0:0|0:0,0:0:0:0:
432,136,194129,5,0,0:0:0:0:
356,192,194360,1,0,0:0:0:0:
264,168,194590,1,8,0:0:0:0:
200,236,194821,1,0,0:0:0:0:
248,316,195052,2,0,B|364:368,1,127.5
412,368,195513,1,8,0:0:0:0:
412,368,195744,1,0,0:0:0:0:
480,272,195975,6,0,B|416:288|360:244,1,127.5
380,204,196436,2,0,B|416:128,1,85,8|0,0:0|0:0,0:0:0:0:
356,52,196898,2,0,B|308:12|232:24,1,127.5
196,48,197359,2,0,B|152:64|112:48,1,85,8|0,0:0|0:0,0:0:0:0:
164,160,197821,6,0,B|216:228|176:324,1,170,0|8,0:0|0:0,0:0:0:0:
256,372,198513,1,0,0:0:0:0:
334,321,198744,2,0,B|296:228|348:160,1,170,0|8,0:0|0:0,0:0:0:0:
416,96,199436,1,0,0:0:0:0:
468,172,199667,6,0,B|492:296,1,127.5
480,344,200129,1,8,0:0:0:0:
480,344,200360,1,0,0:0:0:0:
388,324,200590,2,0,B|324:300|264:328,1,127.5
220,344,201052,1,8,0:0:0:0:
220,344,201283,1,0,0:0:0:0:
92,312,201513,6,0,B|76:272|32:252,1,85
64,164,201975,2,0,P|40:132|32:84,1,85,8|0,0:0|0:0,0:0:0:0:
124,60,202436,2,0,B|188:84|248:56,1,127.5
292,40,202898,1,8,0:0:0:0:
292,40,203129,1,0,0:0:0:0:
376,144,203360,6,0,B|346:110|294:103|253:135|244:179,1,170,0|8,0:0|0:0,0:0:0:0:
184,252,204052,1,0,0:0:0:0:
136,328,204283,2,0,B|166:361|217:368|258:336|268:292,1,170,0|8,0:0|0:0,0:0:0:0:
484,200,205206,5,4,0:0:0:0:
484,200,205436,1,8,0:0:0:0:
464,108,205667,1,8,0:0:0:0:
464,108,205898,1,8,0:0:0:0:
376,80,206129,1,8,0:0:0:0:
376,80,206360,1,0,0:0:0:0:
332,64,206475,1,0,0:0:0:0:
304,28,206590,1,8,0:0:0:0:
208,28,206821,1,0,0:0:0:0:
180,64,206936,1,0,0:0:0:0:
136,80,207052,6,0,B|92:120|84:196,1,127.5,4|0,0:0|0:0,0:0:0:0:
104,236,207513,2,0,B|140:260|148:308,1,85,8|0,0:0|0:0,0:0:0:0:
364,352,207975,2,0,B|408:312|416:236,1,127.5
396,196,208436,2,0,B|360:172|352:124,1,85,8|0,0:0|0:0,0:0:0:0:
344,32,208898,5,0,0:0:0:0:
264,84,209129,1,0,0:0:0:0:
224,112,209244,1,0,0:0:0:0:
176,112,209360,1,8,0:0:0:0:
96,64,209590,1,0,0:0:0:0:
96,156,209821,2,0,B|100:224|56:284,1,127.5
72,324,210283,2,0,B|148:360,1,85,8|0,0:0|0:0,0:0:0:0:
236,328,210744,6,0,B|288:284|356:292,1,127.5
388,260,211206,2,0,B|381:215|414:172,1,85,8|0,0:0|0:0,0:0:0:0:
276,56,211667,2,0,B|224:100|156:92,1,127.5
124,124,212129,2,0,B|130:168|97:211,1,85,8|0,0:0|0:0,0:0:0:0:
60,288,212590,5,0,0:0:0:0:
124,356,212821,1,0,0:0:0:0:
208,316,213052,2,0,B|268:256|368:268,1,170,8|0,0:0|0:0,0:0:0:0:
452,236,213744,1,0,0:0:0:0:
480,196,213860,1,0,0:0:0:0:
480,148,213975,1,8,0:0:0:0:
420,76,214206,1,0,0:0:0:0:
348,136,214436,6,0,B|292:176|220:160,1,127.5
180,168,214898,1,8,0:0:0:0:
180,168,215129,1,0,0:0:0:0:
136,252,215360,2,0,B|160:288|160:332,1,85
196,360,215706,1,0,0:0:0:0:
244,360,215821,2,0,B|400:324,1,127.5,8|0,0:0|0:0,0:0:0:0:
420,320,216283,1,0,0:0:0:0:
388,228,216513,6,0,B|416:144,1,85,0|8,0:0|0:0,0:0:0:0:
424,52,216975,1,0,0:0:0:0:
332,40,217206,2,0,B|264:44|220:104,1,127.5
180,116,217667,2,0,B|136:108|104:72,2,85,8|0|0,0:0|0:0|0:0,0:0:0:0:
236,192,218360,5,0,0:0:0:0:
256,236,218475,1,0,0:0:0:0:
248,284,218590,1,8,0:0:0:0:
308,356,218821,1,0,0:0:0:0:
376,292,219052,2,0,B|380:220|440:172,1,127.5
444,136,219513,1,8,0:0:0:0:
444,136,219744,1,0,0:0:0:0:
388,60,219975,5,8,0:0:0:0:
256,192,220436,1,2,0:0:0:0:
84,120,220898,2,0,B|50:139|25:188|49:244|85:263,1,170,2|8,0:0|0:0,0:0:0:0:
164,312,221590,1,0,0:0:0:0:
256,348,221821,1,4,0:0:0:0:
