osu file format v9

[General]
AudioFilename: Sweet Lay.mp3
AudioLeadIn: 1500
PreviewTime: 55879
Countdown: 0
SampleSet: Soft
StackLeniency: 0.7
Mode: 1
LetterboxInBreaks: 1
StoryFireInFront: 0
SkinPreference:taiko

[Editor]
DistanceSpacing: 0.8
BeatDivisor: 4
GridSize: 8

[Metadata]
Title:Sweet Lay
Artist:Kyah
Creator:aquabluu
Version:Taiko Futsuu
Source:Taiko no Tatsujin
Tags:namco

[Difficulty]
HPDrainRate:5
CircleSize:5
OverallDifficulty:5
ApproachRate:5
SliderMultiplier:1.4
SliderTickRate:1

[Events]
//Background and Video events
0,0,"sweet-bg.png"
//Break Periods
//Storyboard Layer 0 (Background)
//Storyboard Layer 1 (Fail)
//Storyboard Layer 2 (Pass)
//Storyboard Layer 3 (Foreground)
Sprite,Foreground,Centre,"sb\sb.png",314,269 S,0,-558,120842,0.8156799 V,0,-558,120842,0.92832,0.9180795 F,0,-556,1158,0,1 F,0,119628,120842,1,0
//Storyboard Sound Samples
//Background Colour Transformations
3,100,163,162,255

[TimingPoints]
1191,428.234958247092,4,2,0,100,1,0
1191,-100,4,2,0,100,0,1
14894,-100,4,2,0,100,0,0
56005,-100,4,2,0,100,0,1
76560,-100,4,2,0,100,0,0
90263,-100,4,2,0,100,0,1
110819,-100,4,2,0,100,0,0

[HitObjects]
80,173,1191,1,0
140,187,1833,1,0
219,192,2475,5,2
80,173,2903,5,0
140,187,3546,1,0
219,192,4188,5,2
80,173,4616,5,0
140,187,5259,1,0
219,192,5901,5,2
43,107,6329,2,0,B|433:284,1,420
67,176,8042,5,0
132,213,8685,1,0
171,140,9113,5,2
171,140,9327,1,2
67,176,9755,5,0
132,213,10398,1,0
171,140,10826,5,2
171,140,11040,1,2
67,176,11468,5,0
132,213,12110,1,0
171,140,12539,5,2
171,140,12753,1,2
75,74,13181,2,0,B|432:312,1,420
66,161,15322,5,0
134,204,15750,1,0
233,229,16179,5,2
223,144,17035,5,0
114,111,17463,5,2
118,203,17678,1,2
172,261,17892,1,2
183,161,18748,5,0
228,200,19176,1,0
255,211,19605,5,2
256,192,20033,12,0,21318
92,163,22174,5,0
134,188,22602,1,0
254,216,23030,5,2
187,241,23887,5,0
224,91,24315,5,2
274,133,24529,1,2
390,152,24743,1,2
134,206,25172,5,0
174,174,25600,5,2
228,215,26028,5,0
276,226,26456,5,2
43,74,26885,2,0,B|388:287,1,385
68,172,29026,5,0
132,175,29454,5,2
204,228,29882,1,2
305,160,30739,5,0
298,211,31167,5,2
316,232,31381,1,2
316,232,31595,1,2
76,208,32452,5,0
179,188,32880,5,2
179,188,33308,1,2
256,192,33736,12,0,35021
82,210,35878,5,0
204,200,36306,5,2
236,240,36734,1,2
103,125,37590,5,0
141,141,38019,5,2
176,153,38233,1,2
176,153,38447,1,2
88,271,38875,5,0
279,208,39303,5,2
304,260,39732,5,0
353,272,40160,5,2
426,106,40588,6,0,B|57:297,1,385
50,168,42301,1,4
153,193,43158,5,2
153,193,43372,1,2
236,218,43586,1,2
267,147,44014,5,0
290,179,44442,1,0
50,168,45727,1,4
153,193,46583,5,2
153,193,46798,1,2
236,218,47012,1,2
267,147,47440,5,0
290,179,47868,1,0
50,168,49153,1,4
153,193,50009,5,2
153,193,50223,1,2
236,218,50438,1,2
267,147,50866,5,0
290,179,51294,1,0
48,157,52579,1,4
70,181,53007,1,4
128,212,53435,1,4
171,209,54078,5,6
37,272,54720,5,4
65,280,55148,1,4
132,168,56005,1,0
256,176,56433,1,0
363,82,56861,1,0
405,189,57075,1,0
268,234,57289,1,0
109,158,57718,1,0
82,104,58146,5,2
227,128,59002,1,2
224,205,59430,5,0
250,242,59859,1,0
323,255,60715,5,2
278,196,61143,5,0
50,160,61572,1,0
132,168,62856,1,0
256,176,63285,1,0
363,82,63713,1,0
405,189,63927,1,0
268,234,64141,1,0
109,158,64569,1,0
82,104,64998,5,2
227,128,65854,1,2
224,205,66282,5,0
250,242,66710,1,0
323,255,67567,5,2
278,196,67995,5,0
256,192,69708,12,0,70993
95,175,71421,5,0
166,182,71849,1,2
200,188,72278,1,2
244,198,72706,1,2
95,175,73134,5,0
166,182,73562,5,2
200,188,73990,1,2
244,198,74419,1,2
95,175,74847,5,0
166,182,75275,5,2
200,188,75703,1,2
244,198,76132,1,2
29,218,76560,5,0
114,246,77202,5,2
196,232,78273,5,0
228,236,78915,5,2
160,103,79772,5,0
165,136,79986,1,0
132,217,80628,5,2
181,292,81699,5,0
211,281,82341,5,2
136,197,83197,5,0
136,197,83412,1,0
239,244,83840,5,2
250,180,84268,5,0
302,229,84696,5,2
302,229,85125,5,0
340,172,85553,5,2
277,127,85981,5,0
174,128,86409,5,2
67,256,86837,5,0
67,256,87266,1,0
92,265,87694,1,0
169,262,88122,1,0
244,247,88550,1,4
57,226,90263,1,0
118,212,90692,5,2
154,230,91120,5,0
214,247,91334,1,0
204,85,91548,1,0
334,49,91976,1,0
352,175,92405,5,2
401,220,93261,1,2
116,60,93689,5,0
160,133,94117,2,0,B|384:275,1,245
66,210,95402,1,4
94,120,95830,2,4,B|311:236,1,245
57,226,97115,1,0
118,212,97543,5,2
154,230,97972,5,0
214,247,98186,1,0
204,85,98400,1,0
334,49,98828,1,0
352,175,99256,5,2
401,220,100113,1,2
116,60,100541,5,0
160,133,100969,2,0,B|384:275,1,245
66,210,102254,1,4
256,192,103967,12,0,107393
47,183,110819,5,0
111,210,111461,1,2
111,210,112103,1,2
192,90,112532,5,0
207,154,112960,5,2
240,180,113388,1,2
240,180,113816,1,2
47,183,114245,5,0
111,210,114887,5,2
111,210,115529,1,2
192,90,115957,5,0
207,154,116386,5,2
240,180,116814,1,2
240,180,117242,1,2
