osu file format v9

[General]
AudioFilename: Sweet Lay.mp3
AudioLeadIn: 1500
PreviewTime: 55879
Countdown: 0
SampleSet: Soft
StackLeniency: 0.7
Mode: 0
LetterboxInBreaks: 1
StoryFireInFront: 0
SkinPreference:taiko

[Editor]
DistanceSpacing: 0.9
BeatDivisor: 4
GridSize: 8

[Metadata]
Title:Sweet Lay
Artist:Kyah
Creator:aquabluu
Version:Insane
Source:Taiko no Tatsujin
Tags:namco

[Difficulty]
HPDrainRate:6
CircleSize:5
OverallDifficulty:7
ApproachRate:7
SliderMultiplier:1.9
SliderTickRate:1

[Events]
//Background and Video events
0,0,"sweet-bg.png"
//Break Periods
//Storyboard Layer 0 (Background)
//Storyboard Layer 1 (Fail)
//Storyboard Layer 2 (Pass)
//Storyboard Layer 3 (Foreground)
Sprite,Foreground,Centre,"sb\paper.jpg",320,240 M,0,110819,111033,320,-417,320,218 M,0,111033,111247,320,218,320,182 F,0,120240,120882,1,0
Sprite,Foreground,Centre,"sb\paper.jpg",320,240 M,0,76560,76774,320,-417,320,218 M,0,76774,76988,320,218,321,183 F,0,83412,84054,1,0
Sprite,Foreground,Centre,"sb\drinkline.png",144,295 F,0,76988,77309,0,1 F,0,78273,78487,1,0 V,0,78273,78487,0.7849599,0.8566399,1.43008,1.59392
Sprite,Foreground,Centre,"sb\sberrline.png",487,335 F,0,76988,77309,0,1 F,0,79986,80200,1,0 V,0,79986,80200,0.8771204,0.8463998,1.52224,1.48128
Sprite,Foreground,Centre,"sb\lollyline.png",325,169 F,0,76988,77309,0,1 F,0,81699,81913,1,0 V,0,81699,81913,0.8259201,0.82592,1.52224,1.45056
Animation,Foreground,Centre,"sb\drinkfill.png",142,304,4,500,LoopForever V,0,78273,,0.8976,0.85664 F,0,78273,78487,0,1 F,0,83412,84054,1,0
Animation,Foreground,Centre,"sb\sberrfill.png",492,339,4,500,LoopForever V,0,79986,,0.92832,0.9283203 F,0,79986,80200,0,1 F,0,83412,84054,1,0
Animation,Foreground,Centre,"sb\lollyfill.png",323,173,4,500,LoopForever F,0,81699,81913,0,1 F,0,83412,84054,1,0
Sprite,Foreground,Centre,"sb\cakeline_i.png",320,240 F,0,111247,111675,0,1 F,0,117242,117456,1,0 V,0,117242,117456,0.7951999,0.8259199,1.47104,1.43008
Animation,Foreground,Centre,"sb\cakefill_i.png",320,240,4,500,LoopForever F,0,117242,117456,0,1 F,0,120240,120882,1,0
//Storyboard Sound Samples
//Background Colour Transformations
3,100,163,162,255

[TimingPoints]
1191,428.234958247092,4,2,0,70,1,0
1405,-100,4,2,0,100,0,0
14894,-100,4,2,0,80,0,0
56005,-100,4,2,0,100,0,1
76560,-100,4,2,0,60,0,0
82555,-100,4,2,0,79,0,0
82983,-100,4,2,0,91,0,0
83412,-100,4,2,0,100,0,0
90263,-100,4,2,0,100,0,1
110819,-100,4,2,0,40,0,0

[Colours]
Combo1 : 153,211,247
Combo2 : 235,153,249
Combo3 : 251,125,182
Combo4 : 155,251,160

[HitObjects]
48,328,1191,1,4
176,328,1512,1,0
304,328,1833,2,2,B|392:344|456:288,1,142.5,2|0
464,264,2261,1,8
384,224,2475,1,0
304,192,2689,1,8
464,56,2903,5,0
336,56,3224,1,0
208,56,3545,2,2,B|120:40|56:96,1,142.5,2|0
48,120,3973,1,8
128,160,4187,1,0
208,192,4401,1,2
48,328,4616,5,8
128,224,4938,1,0
208,328,5259,2,2,B|216:296|256:240|288:288|304:345,1,142.5,2|0
344,328,5687,1,8
432,328,5901,1,0
488,264,6115,1,8
432,200,6329,5,0
384,40,6758,1,0
400,128,6972,2,0,B|344:128|312:104|296:80|296:56|296:24|296:24|176:48,1,285,0|8
144,56,7721,1,0
104,64,7828,1,8
64,72,7935,1,8
24,80,8042,6,0,B|152:176,1,142.5,4|8
138,165,8470,1,0
216,192,8685,2,0,B|136:344,1,142.5,0|8
149,318,9113,1,0
232,320,9327,1,0
264,312,9434,1,0
296,320,9541,1,8
328,312,9648,1,8
360,320,9755,6,0,B|293:193,1,142.5,0|8
293,193,10183,1,0
368,160,10398,2,0,B|424:24,1,142.5,0|8
422,28,10826,1,0
320,32,11040,1,8
288,40,11147,1,8
256,32,11254,1,0
224,40,11361,1,2
192,32,11468,6,0,B|160:88|200:128|272:128,1,142.5,0|8
256,168,11897,1,0
320,224,12110,2,0,B|352:280|312:320|240:320,1,142.5,0|8
256,280,12539,1,0
184,160,12753,5,8
328,160,12967,1,0
256,192,13181,12,0,14466
208,336,14894,5,4
304,336,15108,1,0
256,264,15322,1,8
168,272,15536,2,0,B|156:233|170:196|211:177,1,95,0|8
112,160,15965,2,0,B|123:198|109:235|68:254,1,95,0|8
32,176,16393,1,0
56,96,16607,5,0
112,160,16821,1,0
144,80,17035,1,8
176,0,17249,2,2,B|196:8|236:25|260:104|188:160,1,190,2|0
288,160,17892,1,8
280,120,17999,1,0
296,80,18106,1,0
376,40,18320,5,4
464,8,18534,1,0
488,48,18641,1,0
472,88,18748,2,0,B|448:152|360:136,1,95,8|0
400,168,19176,1,8
400,192,19390,1,0
400,216,19605,1,8
400,240,19819,1,0
400,264,20033,6,0,B|296:264|288:248|280:232|280:232|243:151,1,190
255,178,20675,2,0,B|232:233|232:233|224:249|216:265|112:265,1,190
176,320,21318,1,0
216,336,21425,1,0
256,352,21532,1,0
296,336,21639,1,0
336,320,21746,1,4
304,240,21960,5,0
208,240,22174,1,8
336,184,22388,1,0
176,184,22602,1,8
368,128,22816,1,0
144,128,23030,1,8
144,128,23245,2,0,B|184:120|216:72|184:32,1,95
256,120,23673,5,0
256,160,23780,1,0
256,200,23887,1,8
176,232,24101,2,2,B|208:288|256:296|304:288|336:224,1,190
256,200,24743,1,0
256,160,24850,1,0
256,120,24958,1,0
216,48,25172,6,0,B|256:16|304:48,1,95,8|0
312,72,25600,1,8
312,96,25814,1,0
312,120,26028,1,8
312,144,26242,2,0,B|312:200|312:200|312:224|328:240|352:240|352:240|376:240|392:224|392:192|392:192|392:184,1,190
392,104,26885,2,0,B|440:104|464:128|464:168|464:168|464:248,1,190
464,336,27527,2,0,B|432:296|376:296|344:336|344:336|312:296|256:296|224:336|224:336|192:296|136:296|104:336|104:336|56:296,1,475,0|4
120,240,28812,5,0
48,184,29026,2,0,B|120:120,1,95,8|0
190,57,29454,2,0,B|110:130,1,95,8|0
57,49,29882,2,8,B|120:120,1,95
120,120,30310,1,0
160,192,30525,5,0
232,232,30739,1,8
160,272,30953,2,0,B|211:333|280:319|309:280|307:225,1,190
304,160,31595,1,0
344,160,31702,1,0
368,192,31809,1,0
392,120,32023,5,0
424,88,32130,1,0
456,56,32238,1,8
416,56,32345,1,0
376,56,32452,2,0,B|280:56,1,95
256,56,32880,1,0
232,56,33094,1,8
208,56,33308,1,0
184,56,33522,1,8
160,56,33736,6,0,B|120:104|160:152,1,95
200,216,34165,2,0,B|240:264|200:312,1,95
304,304,34593,2,0,B|270:264|310:216,1,95
360,144,35021,2,0,B|393:104|353:56,1,95
256,192,35449,1,12
160,56,35663,5,0
80,80,35878,2,0,B|96:120|120:136|168:136,1,95,8|0
80,176,36306,2,0,B|112:176|136:192|151:230,1,95,0|8
72,256,36734,1,0
72,296,36841,1,0
72,336,36948,1,8
160,336,37162,5,0
200,256,37376,1,0
160,336,37590,1,8
248,336,37805,2,2,B|308:336|308:336|356:336|384:304|388:248,1,190
328,184,38447,1,0
368,160,38554,1,0
408,136,38661,1,0
440,168,38768,1,0
472,200,38875,5,0
472,112,39089,1,8
472,24,39303,1,8
384,24,39518,1,8
296,24,39732,1,0
296,112,39946,2,0,B|192:136|176:128|168:96|160:72|144:64|24:72,1,285,8|0
48,152,40802,5,0
32,232,41016,1,0
48,320,41230,1,0
120,280,41445,2,0,B|176:168,1,95,8|0
240,232,41874,2,0,B|197:316,1,95,8|0
272,352,42301,1,4
384,296,42622,5,0
384,296,42729,1,0
416,216,42943,1,0
448,296,43158,1,0
472,152,43372,1,8
504,296,43586,1,0
472,152,43800,1,8
400,24,44014,6,0,B|448:72|448:96|416:128|416:128|352:184,1,190
320,96,44656,1,0
288,64,44763,1,0
256,96,44870,1,0
280,176,45085,2,2,B|280:256|192:320|104:256|103:172,1,285
136,56,46048,5,0
136,56,46155,1,0
72,112,46369,1,0
160,112,46583,1,0
304,144,46798,1,8
160,112,47012,1,0
216,248,47226,1,8
360,256,47440,6,0,B|344:296|328:328|296:328|296:328|256:328,1,142.5,0|0
255,328,47868,1,8
168,328,48082,2,0,B|127:328|127:328|95:328|79:296|63:256,1,142.5
63,256,48510,1,8
128,192,48725,1,0
168,184,48832,1,0
208,168,48939,1,0
248,184,49046,1,0
288,192,49153,1,4
208,96,49474,5,0
208,96,49581,1,0
128,64,49795,2,0,B|144:32|168:8|224:16,1,95,0|8
280,48,50223,2,0,B|304:88|296:128|264:152,1,95,0|8
216,184,50652,2,0,B|176:184|144:168|128:128,1,95
96,264,51187,5,0
128,288,51294,1,8
200,336,51508,1,0
296,248,51829,1,0
264,280,51936,1,8
328,336,52150,2,0,B|400:264,1,95
432,192,52579,5,4
256,56,52793,1,0
80,192,53007,1,0
360,88,53435,5,4
152,88,53649,1,0
152,296,53863,1,0
360,296,54078,1,4
256,120,54292,1,0
48,192,54720,5,2
464,192,55148,1,2
224,288,55790,5,0
152,336,56005,1,4
80,288,56219,1,0
48,264,56326,1,0
16,240,56433,2,2,B|88:160,1,95
16,112,56861,1,0
104,112,57075,1,0
136,136,57182,1,0
168,160,57289,2,2,B|272:240,1,95
312,272,57718,5,0
256,336,57932,1,8
200,272,58146,1,0
256,96,58360,1,8
256,96,58788,1,8
416,32,59216,5,0
440,112,59430,1,0
360,136,59645,1,0
384,216,59859,1,2
472,216,60073,2,0,B|440:272|368:296|288:272,1,190
224,248,60715,1,2
264,176,60929,2,0,B|232:152|192:160|168:184,2,95
304,104,61572,1,2
376,56,61786,2,0,B|352:16|304:0|248:16|224:64|224:64|128:16,1,285,0|2
56,48,62642,5,0
32,128,62856,1,4
120,128,63070,1,0
88,160,63178,1,0
64,192,63285,2,2,B|160:192,1,95
128,272,63713,1,0
208,240,63927,1,0
240,272,64034,1,0
272,304,64141,2,2,B|368:304,1,95
432,248,64569,5,0
496,192,64783,1,8
432,136,64998,1,0
256,192,65212,1,8
256,192,65640,1,8
80,192,66068,5,0
160,48,66282,2,0,B|216:136,1,95,0|8
264,64,66710,2,0,B|272:184,1,95
344,112,67139,2,0,B|304:232,1,95,0|8
400,208,67567,2,0,B|312:272,1,95
256,320,67995,5,4
168,304,68209,1,4
256,152,68638,1,0
256,152,69066,1,0
256,192,69494,12,0,70993
440,352,71421,5,0
384,288,71635,2,0,B|320:216,1,95,0|8
256,272,72063,1,0
192,216,72278,2,0,B|120:304,1,95
72,352,72706,1,8
72,352,72920,1,0
160,352,73134,5,0
96,296,73348,2,0,B|40:272|48:192,1,95,0|8
40,136,73776,1,0
96,72,73990,2,0,B|120:16|200:24,1,95
256,16,74419,1,8
256,16,74633,1,0
256,104,74847,5,0
256,192,75061,1,8
184,240,75275,1,0
112,192,75489,1,8
184,144,75703,1,0
256,192,75918,1,8
328,144,76132,1,0
400,192,76346,1,8
328,240,76560,1,4
152,240,76988,6,0,B|152:304|152:304|152:344|136:360|96:360|96:360|72:360|72:360|24:360|8:344|8:304|8:304|8:224|8:224|48:224|96:224|96:224|72:192|32:136|32:136|56:104,1,570
328,192,78701,6,0,B|364:246|364:246|333:293|318:334|366:376|428:379|511:346|511:346|530:266|521:204|473:161|435:180|396:211,1,570
256,72,80414,6,0,B|256:136|168:144|112:64|152:-24|248:-88|360:-32|392:64|336:152|256:160|256:160|256:232,1,570
88,280,82127,5,0
168,320,82341,1,0
256,336,82555,1,0
296,328,82662,1,0
336,312,82769,1,0
368,288,82876,1,0
392,256,82983,1,0
408,216,83090,1,0
408,176,83197,1,0
392,136,83305,1,0
360,112,83412,1,4
192,160,83840,5,0
192,248,84054,1,8
280,248,84268,1,0
104,248,84482,1,0
192,248,84696,1,8
192,336,84910,1,0
192,336,85017,1,0
192,336,85125,1,0
352,272,85553,5,0
440,120,85767,1,8
416,160,85874,1,0
392,200,85981,1,0
464,240,86195,1,8
392,200,86409,1,0
352,176,86516,1,0
312,152,86623,1,8
240,104,86837,1,0
80,32,87266,5,0
24,96,87480,1,0
32,128,87587,1,8
24,160,87694,1,0
32,192,87801,1,8
24,224,87908,2,0,B|136:200,1,95
112,288,88336,1,8
56,352,88550,5,4
456,352,88872,1,4
256,16,89193,1,4
256,328,90263,5,4
256,240,90477,1,0
296,216,90585,1,0
328,192,90692,2,2,B|312:160|288:144|224:144,1,95
192,88,91120,2,0,B|160:112|160:160|184:192,1,95
176,256,91548,2,2,B|128:248|104:224|96:176,1,95
32,152,91976,2,0,B|64:112|104:112|136:136,1,95,0|8
168,192,92405,1,0
352,192,92619,1,8
352,192,93047,1,8
472,72,93475,5,0
440,104,93582,1,0
408,136,93689,2,0,B|368:96|376:64|408:32,1,95
320,96,94117,1,8
248,48,94332,2,0,B|264:80|264:136|232:176|168:192,1,190
184,112,94974,1,8
144,40,95188,2,0,B|104:64|96:96|104:136,2,95
56,48,95830,1,8
32,136,96045,2,0,B|0:192|32:256|104:256|104:256|168:360,1,285,0|8
184,264,96901,6,0,B|240:360,1,95,0|4
280,280,97329,1,0
280,280,97436,1,0
280,280,97543,2,2,B|216:176,1,95
312,160,97972,1,0
384,112,98186,1,0
384,112,98293,1,0
384,112,98400,2,2,B|433:192,1,95
480,264,98828,2,0,B|512:320|448:360,2,95,0|0|8
304,344,99470,1,8
304,344,99899,1,8
144,288,100327,5,0
232,288,100541,2,0,B|256:192,1,95
162,214,100969,2,0,B|268:193,1,95,0|8
278,103,101397,2,0,B|254:199,1,95
348,177,101825,2,0,B|242:198,1,95,0|8
312,256,102254,5,4
400,256,102468,1,4
256,352,102896,1,0
256,352,103324,1,0
256,192,103753,12,0,105252
144,280,105680,5,0
176,312,105787,1,0
216,328,105894,2,0,B|264:352|312:328,1,95,8|0
344,312,106215,1,0
368,272,106322,2,0,B|392:224|368:168,1,95,8|0
344,144,106643,1,0
304,120,106751,2,0,B|256:96|208:128,1,95,8|0
184,152,107072,1,0
176,192,107179,1,0
88,184,107393,5,0
96,144,107500,1,0
112,104,107607,2,0,B|136:56|208:32,1,95,8|0
224,24,107928,1,0
264,24,108035,2,0,B|328:16|384:64,1,95,8|0
392,64,108356,1,0
424,96,108463,2,0,B|464:136|464:200,1,95,8|0
472,224,108785,1,0
464,264,108892,1,0
176,304,109106,5,8
384,168,109320,1,0
128,168,109534,1,0
336,304,109748,1,8
256,56,109962,1,0
256,280,110176,1,8
352,112,110390,1,0
160,112,110605,1,0
256,192,110819,5,0
200,256,111033,1,0
136,312,111247,1,0
256,192,111675,5,0
312,128,111889,1,0
376,72,112103,1,0
376,72,112532,5,0
136,72,112960,1,0
136,312,113388,1,0
376,312,113816,1,0
336,352,114245,6,0,B|168:352|168:352|128:352|112:336|88:304|88:304|48:232|48:232|240:232|240:232|240:128|240:128|200:96|232:72|216:8|216:8|312:48|320:128|272:128|272:128|272:232|272:232|456:232|456:232|408:320,1,1330
