osu file format v12

[General]
AudioFilename: Kwan - Black Lotus.mp3
AudioLeadIn: 0
PreviewTime: -1
Countdown: 0
SampleSet: Normal
StackLeniency: 0.7
Mode: 0
LetterboxInBreaks: 1
WidescreenStoryboard: 0

[Editor]
DistanceSpacing: 2
BeatDivisor: 4
GridSize: 8

[Metadata]
Title:Black Lotus
TitleUnicode:Black Lotus
Artist:Kwan
ArtistUnicode:Kwan
Creator:Lgndzr
Version:Insane
Source:Kwan black lotus
Tags:kwan black lotus lgndzr
BeatmapID:329502
BeatmapSetID:130689

[Difficulty]
HPDrainRate:8
CircleSize:5
OverallDifficulty:6
ApproachRate:9
SliderMultiplier:1.39999990463257
SliderTickRate:1

[Events]
//Background and Video events
0,0,"black_lotus_by_karl_smink-d5x5guj - Copy.jpg",0,0
//Break Periods
2,132976,152364
//Storyboard Layer 0 (Background)
//Storyboard Layer 1 (Fail)
//Storyboard Layer 2 (Pass)
//Storyboard Layer 3 (Foreground)
//Storyboard Sound Samples
//Background Colour Transformations
3,100,163,162,255

[TimingPoints]
441,560.747663551402,4,1,0,100,1,0
9412,-66.6666666666667,4,1,0,100,0,0
25113,-133.333333333333,4,1,0,100,0,0
26235,-100,4,1,0,100,0,0
29319,-133.333333333333,4,1,0,100,0,0
36328,-100,4,1,0,100,0,0
45300,-80,4,1,0,100,0,0
62123,-200,4,1,0,100,0,0
62683,-50,4,1,0,100,0,0
63244,-66.6666666666667,4,1,0,100,0,1
81188,-100,4,1,0,100,0,0
115955,-200,4,1,0,100,0,0
116515,-50,4,1,0,100,0,0
117076,-66.6666666666667,4,1,0,100,0,1
135020,-100,4,1,0,100,0,0
152964,-57.1428571428571,4,1,0,100,0,1
159693,-66.6666666666667,4,1,0,100,0,1
162497,-57.1428571428571,4,1,0,100,0,1
170347,-100,4,1,0,100,0,0
170908,-50,4,1,0,100,0,1
186609,-100,4,1,0,100,0,0
191095,-50,4,1,0,100,0,0

[Colours]
Combo1 : 0,0,0
Combo2 : 192,192,192
Combo3 : 128,64,64

[HitObjects]
112,296,441,6,0,L|112:224,1,69.9999952316283
208,152,1001,2,0,L|208:224,1,69.9999952316283
312,152,1562,2,0,L|312:72,1,69.9999952316283
408,152,2123,1,0,0:0:0:0:
408,216,2263,1,0,0:0:0:0:
408,280,2403,1,0,0:0:0:0:
192,312,2683,6,0,L|272:312,1,69.9999952316283,0|0,0:0|0:0,0:0:0:0:
320,232,3244,2,0,L|240:232,1,69.9999952316283
192,152,3805,2,0,L|272:152,1,69.9999952316283
104,152,4366,1,0,0:0:0:0:
256,280,4926,22,0,B|296:280|296:280|320:256,1,69.9999952316283
256,200,5487,2,0,B|216:200|216:200|192:224,1,69.9999952316283
256,120,6048,2,0,B|296:120|296:120|328:144,1,69.9999952316283
256,280,6609,1,0,0:0:0:0:
256,200,6749,1,0,0:0:0:0:
256,120,6889,1,0,0:0:0:0:
256,280,7169,6,0,B|184:280|184:280|128:224|128:224|128:136,1,209.999985694885
128,96,8291,2,0,L|128:56,2,34.9999976158142
128,168,8852,21,0,0:0:0:0:
336,168,9412,2,0,L|208:168,1,105.000004005432
120,232,9973,2,0,L|232:232,1,105.000004005432
336,232,10534,1,0,0:0:0:0:
280,232,10814,1,0,0:0:0:0:
224,232,11095,5,0,0:0:0:0:
280,232,11235,1,0,0:0:0:0:
336,232,11375,1,0,0:0:0:0:
112,232,11655,21,0,0:0:0:0:
112,120,11936,1,0,0:0:0:0:
160,264,12216,5,0,0:0:0:0:
160,152,12497,1,0,0:0:0:0:
208,296,12777,21,0,0:0:0:0:
208,120,13057,1,0,0:0:0:0:
208,296,13338,5,0,0:0:0:0:
424,192,13898,21,0,0:0:0:0:
248,192,14179,2,0,L|360:192,1,105.000004005432
248,192,14740,5,0,0:0:0:0:
72,192,15020,2,0,L|192:192,1,105.000004005432
424,192,15581,21,0,0:0:0:0:
336,192,15721,1,0,0:0:0:0:
248,192,15861,1,0,0:0:0:0:
248,112,16141,6,0,B|184:112|184:112|152:136|152:136|152:192|152:192|152:240|152:240|184:272|184:272|248:272|248:272|248:272,1,315.000012016297
336,272,17263,1,0,0:0:0:0:
336,112,17824,1,0,0:0:0:0:
328,272,18384,22,0,L|208:272,1,105.000004005432
224,168,18945,2,0,L|224:280,1,105.000004005432
224,272,19506,2,0,L|224:152,1,105.000004005432
224,272,20067,5,0,0:0:0:0:
224,224,20207,1,0,0:0:0:0:
224,176,20347,1,0,0:0:0:0:
112,160,20627,22,0,L|192:80,1,105.000004005432
112,256,21188,6,0,L|192:176,1,105.000004005432
280,184,21749,22,0,L|200:264,1,105.000004005432
280,184,22310,5,0,0:0:0:0:
120,160,22870,21,0,0:0:0:0:
120,48,23151,1,0,0:0:0:0:
232,48,23431,1,0,0:0:0:0:
232,160,23712,1,0,0:0:0:0:
232,104,23992,5,0,0:0:0:0:
232,272,24273,1,0,0:0:0:0:
232,104,24553,21,0,0:0:0:0:
232,160,24693,1,0,0:0:0:0:
232,216,24833,1,0,0:0:0:0:
320,160,25113,6,0,B|280:200|280:200|352:280,1,157.500006008148
336,104,26235,22,0,B|400:168|400:168|360:208,1,140
88,192,27356,5,0,0:0:0:0:
168,192,27917,1,0,0:0:0:0:
248,192,28478,1,0,0:0:0:0:
280,192,28758,1,0,0:0:0:0:
312,192,29039,1,0,0:0:0:0:
248,192,29319,22,0,L|88:192,1,157.500006008148
120,120,30441,1,0,0:0:0:0:
192,120,30721,1,0,0:0:0:0:
264,120,31001,1,0,0:0:0:0:
264,120,31141,1,0,0:0:0:0:
264,120,31282,1,0,0:0:0:0:
368,192,31842,5,0,0:0:0:0:
280,192,32123,1,0,0:0:0:0:
312,256,32403,21,0,0:0:0:0:
216,256,32683,2,0,L|160:256,1,52.5000020027161
184,192,33244,2,0,L|112:176,1,52.5000020027161
152,128,33805,2,0,L|112:80,2,52.5000020027161
224,128,34646,5,0,0:0:0:0:
296,128,35207,1,0,0:0:0:0:
296,128,35487,1,0,0:0:0:0:
368,128,35768,1,0,0:0:0:0:
144,296,36328,21,0,0:0:0:0:
144,136,36889,2,0,L|144:224,1,70
144,136,37450,5,0,0:0:0:0:
192,72,37730,1,0,0:0:0:0:
272,72,38011,1,0,0:0:0:0:
144,136,38291,2,0,B|200:192|200:192|336:192,1,210
408,192,39412,21,0,0:0:0:0:
336,288,40254,5,0,0:0:0:0:
264,288,40534,1,0,0:0:0:0:
192,288,40814,2,0,B|136:232|136:232|136:160,1,140
136,104,41655,21,0,0:0:0:0:
208,80,41936,2,0,B|208:160|208:160|256:208,1,140
320,200,42777,1,0,0:0:0:0:
392,200,43057,1,0,0:0:0:0:
176,200,43618,5,0,0:0:0:0:
320,200,44179,1,0,0:0:0:0:
392,200,44459,1,0,0:0:0:0:
176,200,44740,21,0,0:0:0:0:
112,88,45300,6,0,L|200:88,1,87.5
280,88,45861,1,0,0:0:0:0:
280,216,46141,1,0,0:0:0:0:
336,56,46422,21,0,0:0:0:0:
336,248,46702,1,0,0:0:0:0:
280,216,46983,5,0,0:0:0:0:
280,152,47123,1,0,0:0:0:0:
280,88,47263,1,0,0:0:0:0:
112,304,47543,21,0,0:0:0:0:
112,192,47824,2,0,L|112:88,2,87.5
224,192,48665,1,0,0:0:0:0:
352,192,48945,1,0,0:0:0:0:
224,64,49226,5,0,0:0:0:0:
224,256,49506,1,0,0:0:0:0:
224,288,49646,1,0,0:0:0:0:
224,320,49786,1,0,0:0:0:0:
80,192,50067,21,0,0:0:0:0:
80,296,50347,1,0,0:0:0:0:
192,192,50627,1,0,0:0:0:0:
80,104,50908,2,0,L|80:208,1,87.5
80,152,51328,5,0,0:0:0:0:
168,104,51469,2,0,L|80:104,2,87.5
320,104,52310,21,0,0:0:0:0:
320,256,52590,1,0,0:0:0:0:
264,64,52870,5,0,0:0:0:0:
264,224,53151,1,0,0:0:0:0:
224,104,53431,21,0,0:0:0:0:
224,272,53712,1,0,0:0:0:0:
224,208,53852,1,0,0:0:0:0:
224,144,53992,1,0,0:0:0:0:
384,240,54272,5,0,0:0:0:0:
384,112,54553,1,0,0:0:0:0:
384,304,54833,21,0,0:0:0:0:
384,176,55113,1,0,0:0:0:0:
384,48,55394,6,0,L|280:48,1,87.5
120,320,55955,2,0,L|208:320,1,87.5
272,320,56515,21,0,0:0:0:0:
120,320,56796,1,0,0:0:0:0:
344,320,57076,5,0,0:0:0:0:
200,320,57356,1,0,0:0:0:0:
432,320,57637,22,0,L|328:320,1,87.5
72,64,58198,2,0,L|176:64,2,87.5
168,64,59039,5,0,0:0:0:0:
232,64,59179,1,0,0:0:0:0:
296,64,59319,1,0,0:0:0:0:
384,152,59599,21,0,0:0:0:0:
240,152,59880,1,0,0:0:0:0:
240,288,60160,1,0,0:0:0:0:
384,288,60441,2,0,L|288:288,1,87.5
176,288,61001,6,0,L|88:288,1,87.5
240,288,61562,1,0,0:0:0:0:
240,288,61842,1,0,0:0:0:0:
240,288,62123,22,0,L|240:240,1,34.9999976158143
240,48,62683,6,0,L|240:336,1,279.999980926513
144,288,63525,21,0,0:0:0:0:
144,104,63805,2,0,L|144:224,1,104.999996852875
144,160,64226,5,0,0:0:0:0:
144,288,64366,2,0,L|304:288,1,157.499995279312
256,288,64926,21,0,0:0:0:0:
328,288,65067,1,0,0:0:0:0:
400,288,65207,1,0,0:0:0:0:
328,288,65487,5,0,0:0:0:0:
328,112,65768,2,0,L|328:224,1,104.999996852875
328,112,66328,1,0,0:0:0:0:
328,56,66609,22,0,B|272:56|272:56|232:96|232:96|232:184,1,157.499995279312
232,88,67169,5,0,0:0:0:0:
232,144,67310,1,0,0:0:0:0:
232,200,67450,1,0,0:0:0:0:
232,312,67730,37,0,0:0:0:0:
232,144,68011,1,0,0:0:0:0:
288,88,68291,21,0,0:0:0:0:
288,312,68571,1,0,0:0:0:0:
176,144,68852,6,0,L|64:144,1,104.999996852875
120,144,69272,37,0,0:0:0:0:
176,144,69412,6,0,L|320:144,1,104.999996852875
256,80,69973,38,0,P|280:112|288:176,1,104.999996852875
368,144,70534,2,0,B|368:264|280:304|208:312,1,209.99999370575
120,272,71375,2,0,P|64:200|56:176,1,104.999996852875
128,168,71936,2,0,B|128:128|152:88|200:48,1,104.999996852875
224,128,72497,22,0,L|224:240,1,104.999996852875
224,280,72917,1,0,0:0:0:0:
328,328,73057,2,0,L|208:328,1,104.999996852875
128,328,73618,21,0,0:0:0:0:
224,328,73898,1,0,0:0:0:0:
176,328,74039,1,0,0:0:0:0:
128,328,74179,1,0,0:0:0:0:
328,328,74459,6,0,L|408:248,1,104.999996852875
328,176,75020,1,0,0:0:0:0:
272,272,75300,21,0,0:0:0:0:
272,120,75581,2,0,L|192:200,1,104.999996852875
232,160,76001,5,0,0:0:0:0:
200,192,76141,2,0,L|120:272,2,104.999996852875
200,88,76983,21,0,0:0:0:0:
352,88,77263,1,0,0:0:0:0:
352,240,77543,1,0,0:0:0:0:
200,240,77824,2,0,L|80:240,1,104.999996852875
144,240,78244,5,0,0:0:0:0:
200,240,78384,2,0,L|304:240,2,104.999996852875
112,96,81188,22,0,L|256:96,1,139.999990463257
328,96,82029,1,0,0:0:0:0:
288,168,82310,2,0,L|192:168,2,69.9999952316285
368,168,83151,6,0,L|368:320,1,139.999990463257
368,240,83992,1,0,0:0:0:0:
368,168,84272,1,0,0:0:0:0:
368,96,84553,2,0,L|368:168,2,69.9999952316285
280,136,85394,21,0,0:0:0:0:
176,136,85674,1,0,0:0:0:0:
232,192,85955,5,0,0:0:0:0:
128,192,86235,1,0,0:0:0:0:
280,248,86515,22,0,L|280:328,2,69.9999952316285
280,136,87356,1,0,0:0:0:0:
280,248,87637,1,0,0:0:0:0:
400,136,87917,6,0,L|328:136,1,69.9999952316285
160,136,88478,2,0,L|240:136,1,69.9999952316285,0|0,0:0|0:0,0:0:0:0:
400,136,89039,21,0,0:0:0:0:
160,136,89319,1,0,0:0:0:0:
80,136,89599,5,0,0:0:0:0:
320,304,90160,22,0,B|320:224|320:224|264:168,1,139.999990463257
240,256,91001,1,0,0:0:0:0:
280,184,91282,2,0,B|224:128|224:128|88:128,1,209.999985694886
184,200,92403,5,0,0:0:0:0:
96,200,92683,2,0,L|96:288,2,69.9999952316285
96,120,93525,21,0,0:0:0:0:
184,120,93805,1,0,0:0:0:0:
336,120,94085,2,0,L|264:120,1,69.9999952316285
96,120,94646,5,0,0:0:0:0:
336,120,95207,1,0,0:0:0:0:
128,184,95768,21,0,0:0:0:0:
296,184,96048,1,0,0:0:0:0:
128,256,96328,1,0,0:0:0:0:
296,256,96609,1,0,0:0:0:0:
296,328,96889,5,0,0:0:0:0:
296,184,97450,1,0,0:0:0:0:
296,256,98011,21,0,0:0:0:0:
296,184,98291,1,0,0:0:0:0:
296,112,98571,1,0,0:0:0:0:
96,192,99132,5,0,0:0:0:0:
208,192,99412,1,0,0:0:0:0:
152,192,99693,21,0,0:0:0:0:
208,192,99833,1,0,0:0:0:0:
264,192,99973,1,0,0:0:0:0:
352,288,100254,5,0,0:0:0:0:
352,144,100534,1,0,0:0:0:0:
352,336,100814,1,0,0:0:0:0:
352,288,100955,1,0,0:0:0:0:
352,240,101095,1,0,0:0:0:0:
256,144,101375,21,0,0:0:0:0:
96,144,101655,1,0,0:0:0:0:
256,192,101936,5,0,0:0:0:0:
96,88,102216,1,0,0:0:0:0:
256,248,102497,21,0,0:0:0:0:
96,32,102777,1,0,0:0:0:0:
96,144,103057,5,0,0:0:0:0:
96,224,103198,1,0,0:0:0:0:
96,304,103338,1,0,0:0:0:0:
96,88,103618,21,0,0:0:0:0:
240,88,103898,2,0,L|152:88,1,69.9999952316285
384,88,104459,2,0,L|304:88,1,69.9999952316285
312,160,105020,5,0,0:0:0:0:
168,160,105300,1,0,0:0:0:0:
360,208,105581,21,0,0:0:0:0:
208,208,105861,1,0,0:0:0:0:
176,208,106422,5,0,0:0:0:0:
144,208,106983,21,0,0:0:0:0:
144,208,107263,1,0,0:0:0:0:
144,208,107543,2,0,B|144:264|144:264|208:328,1,139.999990463257
272,320,108384,5,0,0:0:0:0:
336,320,108525,1,0,0:0:0:0:
400,320,108665,1,0,0:0:0:0:
272,320,108945,21,0,0:0:0:0:
400,320,109226,2,0,L|400:224,1,69.9999952316285
120,56,109786,2,0,L|120:136,1,69.9999952316285
120,208,110347,5,0,0:0:0:0:
176,272,110627,1,0,0:0:0:0:
232,208,110908,21,0,0:0:0:0:
296,208,111048,1,0,0:0:0:0:
360,208,111188,1,0,0:0:0:0:
232,280,111469,6,0,L|232:184,1,69.9999952316285
296,136,112029,2,0,L|296:216,2,69.9999952316285
296,72,112870,21,0,0:0:0:0:
296,136,113011,1,0,0:0:0:0:
296,200,113151,1,0,0:0:0:0:
160,200,113431,5,0,0:0:0:0:
160,200,113712,2,0,L|88:128,1,69.9999952316285
136,176,114132,21,0,0:0:0:0:
160,200,114272,2,0,L|272:312,1,139.999990463257
344,296,115113,5,0,0:0:0:0:
344,160,115394,1,0,0:0:0:0:
408,296,115674,1,0,0:0:0:0:
280,160,115955,22,0,L|240:160,1,34.9999976158143
56,160,116515,6,0,L|384:160,1,279.999980926514
400,160,117356,21,0,0:0:0:0:
400,264,117637,2,0,L|400:152,1,104.999996852875
400,208,118057,5,0,0:0:0:0:
400,264,118198,2,0,L|240:264,1,157.499995279312
288,264,118758,21,0,0:0:0:0:
192,264,118898,1,0,0:0:0:0:
96,264,119039,1,0,0:0:0:0:
240,128,119319,5,0,0:0:0:0:
144,128,119599,2,0,L|144:256,1,104.999996852875
144,184,120020,21,0,0:0:0:0:
144,128,120160,2,0,L|240:224,1,104.999996852875
248,232,120581,5,0,0:0:0:0:
216,200,120721,2,0,L|344:200,1,104.999996852875
288,200,121141,21,0,0:0:0:0:
424,200,121282,6,0,L|320:200,1,104.999996852875
424,136,121842,21,0,0:0:0:0:
424,264,122123,1,0,0:0:0:0:
360,136,122403,1,0,0:0:0:0:
360,264,122683,2,0,L|224:264,1,104.999996852875
288,264,123104,5,0,0:0:0:0:
256,264,123244,2,0,L|136:264,1,104.999996852875
293,96,123805,6,0,P|321:140|320:192,1,104.999996852875
400,175,124366,2,0,P|370:274|288:336,1,209.99999370575
128,312,125207,2,0,P|80:256|72:208,1,104.999996852875
144,208,125768,2,0,B|152:152|168:136|224:96,1,104.999996852875
264,152,126328,5,0,0:0:0:0:
264,312,126609,2,0,L|344:232,1,104.999996852875
320,256,127029,5,0,0:0:0:0:
296,280,127169,2,0,L|216:200,1,104.999996852875
200,184,127590,21,0,0:0:0:0:
224,208,127730,2,0,L|144:136,2,104.999996852875
368,192,128571,5,0,0:0:0:0:
368,72,128852,2,0,L|232:72,1,104.999996852875
296,72,129272,21,0,0:0:0:0:
264,72,129412,2,0,L|152:72,1,104.999996852875
128,72,129833,5,0,0:0:0:0:
160,72,129973,2,0,L|264:176,1,104.999996852875
240,232,130534,21,0,0:0:0:0:
360,232,130814,1,0,0:0:0:0:
240,296,131095,1,0,0:0:0:0:
360,168,131375,1,0,0:0:0:0:
240,232,131655,2,0,L|96:232,1,104.999996852875
168,232,132076,5,0,0:0:0:0:
136,232,132216,2,0,L|48:144,2,104.999996852875
104,192,152964,37,0,0:0:0:0:
280,192,153244,2,0,L|144:192,1,122.499992823601
184,192,153665,21,0,0:0:0:0:
216,192,153805,2,0,L|216:328,2,122.499992823601
336,312,154646,6,0,L|200:312,1,122.499992823601
240,312,155067,21,0,0:0:0:0:
208,312,155207,5,0,0:0:0:0:
208,152,155487,1,0,0:0:0:0:
144,312,155768,21,0,0:0:0:0:
272,152,156048,1,0,0:0:0:0:
80,312,156328,6,0,L|80:176,1,122.499992823601
80,216,156749,21,0,0:0:0:0:
80,184,156889,2,0,L|176:88,1,122.499992823601
312,96,157450,5,0,0:0:0:0:
312,248,157730,1,0,0:0:0:0:
312,128,158011,21,0,0:0:0:0:
312,280,158291,1,0,0:0:0:0:
312,128,158571,5,0,0:0:0:0:
312,96,158712,1,0,0:0:0:0:
312,64,158852,2,0,L|200:176,1,122.499992823601
248,128,159272,21,0,0:0:0:0:
224,152,159412,1,0,0:0:0:0:
144,304,159693,22,0,P|80:272|64:216,1,104.999996852875
176,232,160254,2,0,B|112:192|160:96|224:48,1,209.99999370575
304,112,161095,2,0,P|336:160|304:240,1,104.999996852875
400,240,161655,2,0,P|352:304|320:312,1,104.999996852875
232,304,162216,21,0,0:0:0:0:
232,112,162497,2,0,L|232:248,1,122.499992823601
232,208,162917,1,0,0:0:0:0:
232,176,163057,2,0,L|328:80,1,122.499992823601
336,64,163478,21,0,0:0:0:0:
320,88,163618,2,0,L|320:240,1,122.499992823601
320,296,164179,5,0,0:0:0:0:
320,296,164459,2,0,L|176:296,1,122.499992823601
224,296,164880,21,0,0:0:0:0:
256,296,165020,2,0,L|160:200,1,122.499992823601
136,208,165441,5,0,0:0:0:0:
168,208,165581,2,0,L|264:112,1,122.499992823601
232,144,166001,21,0,0:0:0:0:
256,120,166141,1,0,0:0:0:0:
392,192,166422,6,0,L|392:88,2,61.2499964118004
392,160,166842,21,0,0:0:0:0:
392,192,166983,2,0,L|392:328,1,122.499992823601
416,336,167403,5,0,0:0:0:0:
392,312,167543,2,0,L|272:192,1,122.499992823601
240,168,168104,21,0,0:0:0:0:
144,168,168244,1,0,0:0:0:0:
48,168,168384,1,0,0:0:0:0:
240,168,168665,6,0,L|392:168,1,122.499992823601
240,232,169226,1,0,0:0:0:0:
240,296,169506,1,0,0:0:0:0:
240,296,169786,1,0,0:0:0:0:
304,296,170347,21,0,0:0:0:0:
80,192,170908,6,0,L|240:192,1,139.999990463257
248,192,171328,21,0,0:0:0:0:
216,192,171469,2,0,L|112:88,1,139.999990463257
96,72,171889,5,0,0:0:0:0:
120,96,172029,2,0,L|280:96,1,139.999990463257
368,96,172590,21,0,0:0:0:0:
368,160,172730,1,0,0:0:0:0:
368,224,172870,1,0,0:0:0:0:
256,304,173151,6,0,L|256:160,1,139.999990463257
256,192,173571,21,0,0:0:0:0:
256,224,173712,2,0,L|256:72,1,139.999990463257
256,56,174132,5,0,0:0:0:0:
256,88,174272,2,0,L|152:192,1,139.999990463257
128,192,174693,21,0,0:0:0:0:
160,192,174833,2,0,L|280:312,1,139.999990463257
416,192,175394,5,0,0:0:0:0:
336,48,175674,1,0,0:0:0:0:
288,312,175955,1,0,0:0:0:0:
192,48,176235,1,0,0:0:0:0:
160,304,176515,21,0,0:0:0:0:
160,232,176655,1,0,0:0:0:0:
160,160,176796,1,0,0:0:0:0:
368,48,177076,5,0,0:0:0:0:
368,120,177216,1,0,0:0:0:0:
368,192,177356,1,0,0:0:0:0:
192,80,177637,6,0,B|136:128|128:200|168:224,1,139.999990463257
72,128,178198,2,0,B|64:240|96:296|232:336,1,279.999980926514
336,288,179039,2,0,P|400:240|416:184,1,139.999990463257
336,176,179599,2,0,P|304:80|272:56,1,139.999990463257
232,128,180160,5,0,0:0:0:0:
232,328,180441,2,0,L|232:184,1,139.999990463257
232,216,180861,5,0,0:0:0:0:
232,184,181001,2,0,L|128:80,1,139.999990463257
112,64,181422,21,0,0:0:0:0:
136,88,181562,2,0,L|136:240,2,139.999990463257
376,296,182403,1,0,0:0:0:0:
376,136,182683,1,0,0:0:0:0:
440,296,182964,5,0,0:0:0:0:
312,136,183244,2,0,L|152:136,1,139.999990463257
200,136,183665,21,0,0:0:0:0:
168,136,183805,2,0,L|168:288,2,139.999990463257
168,272,184646,5,0,0:0:0:0:
312,272,184926,2,0,L|160:272,1,139.999990463257
72,208,185487,2,0,L|248:208,1,139.999990463257
240,208,185908,21,0,0:0:0:0:
208,208,186048,1,0,0:0:0:0:
176,208,186188,1,0,0:0:0:0:
144,208,186328,1,0,0:0:0:0:
