osu file format v6

[General]
AudioFilename: Bararaika(original version).mp3
AudioLeadIn: 0
PreviewTime: 51202
Countdown: 1
SampleSet: Soft
StackLeniency: 0.7
Mode: 0
LetterboxInBreaks: 1

[Editor]
DistanceSpacing: 0.800000011920929
BeatDivisor: 4
GridSize: 8

[Metadata]
Title:Balalaika
Artist:Kusumi Koharu
Creator:Crazy Jay
Version:Easy
Source:
Tags:

[Difficulty]
HPDrainRate:4
CircleSize:4
OverallDifficulty:5
SliderMultiplier:1
SliderTickRate:2

[Events]
//Background and Video events
0,0,"3113a7d4e48541e050da4b9c.jpg"
//Break Periods
2,38115,43359
//Storyboard Layer 0 (Background)
//Storyboard Layer 1 (Fail)
//Storyboard Layer 2 (Pass)
//Storyboard Layer 3 (Foreground)
//Storyboard Sound Samples
//Background Colour Transformations
3,100,163,162,255

[TimingPoints]
202,428.571428571429,4,2,1,100,1,0
10702,-100,4,2,1,100,0,0
23987,-100,4,2,0,100,0,0
35987,-100,4,2,1,100,0,0
37702,-100,4,2,0,100,0,0
47987,-100,4,2,1,100,0,0
78844,-100,4,2,0,100,0,0

[Colours]
Combo1 : 0,255,0
Combo2 : 255,0,0
Combo3 : 0,0,255
Combo4 : 255,255,0

[HitObjects]
80,288,10487,2,4,B|192:288,1,100,4|4
208,216,11344,2,4,B|104:216,1,100
144,144,12202,2,4,B|256:144,3,100
328,144,13916,6,4,B|392:168|368:240,2,100
248,120,15202,1,4
248,120,15416,1,0
248,120,15630,2,4,B|248:240,2,100
248,40,16916,1,4
168,40,17344,6,0,B|96:40,2,50,4|0|4
168,120,18202,2,0,B|240:120,2,50,4|0|4
168,200,19059,2,0,B|96:200,2,50,4|0|4
168,280,19916,2,0,B|240:280,2,50,4|0|4
128,280,20559,1,0
88,280,20773,2,0,B|32:208|72:136|176:136,1,200,4|4
256,208,22487,12,4,24202
64,80,24630,5,8
224,80,25487,1,8
184,152,25916,5,0
144,80,26344,1,8
104,152,26773,1,0
144,224,27202,1,8
216,264,27630,6,0,B|264:296|320:264,3,100,0|8|0|8
368,216,29344,2,4,B|384:96|224:96,1,200
168,96,30630,1,8
88,96,31059,5,0
88,176,31487,1,8
88,256,31916,1,0
136,192,32344,1,8
184,128,32773,2,0,B|184:240,1,100,0|8
264,232,33630,2,0,B|264:112,1,100,0|8
344,112,34487,6,0,B|416:96|432:176,3,100,0|8|0|8
432,232,36202,2,4,B|432:296,4,50,4|4|4|4|0
432,192,37273,1,4
432,152,37487,2,0,B|416:104|352:96,1,100,4|4
64,96,44559,5,2
64,96,44773,2,0,B|64:192|168:200,1,150,4|0
192,200,45630,2,0,B|264:200|272:120,1,100,8|0
344,144,46487,2,0,B|408:160|408:232,1,100,8|0
344,264,47344,1,8
264,264,47773,1,8
256,208,48202,12,0,50773
64,288,51202,5,8
64,288,51416,1,0
64,288,51630,2,4,B|176:288,2,100,4|4|4
104,216,52916,1,4
104,216,53130,1,0
104,216,53344,2,4,B|224:216,2,100
144,144,54630,1,4
144,144,54844,1,0
144,144,55059,1,4
256,192,55702,5,0
288,216,55916,2,4,B|400:216,2,100
256,240,56987,1,4
224,264,57202,1,0
192,240,57416,1,4
160,216,57630,1,4
224,168,58059,6,4,B|224:56,2,100
224,248,59344,2,4,B|304:288|384:240|400:176,1,200
394,192,60630,1,4
392,112,61059,2,4,B|360:72|288:64,1,100
305,66,61702,1,0
305,66,61916,1,4
184,64,62559,5,0
184,64,62773,1,4
112,104,63202,1,4
184,136,63630,1,4
112,176,64059,1,4
184,216,64487,1,4
256,256,64916,6,0,B|256:320,2,50,8|0|4
256,176,65773,1,4
336,176,66202,2,0,B|336:112,2,50,4|0|4
336,256,67059,1,4
336,256,67487,1,4
256,256,67916,2,4,C|216:288|160:224|112:264,1,200
72,152,69416,5,0
88,112,69630,2,4,B|128:72|184:72,4,100
120,184,71773,5,4
120,184,71987,1,0
120,184,72202,2,4,B|152:232|224:232,1,100
256,168,73059,2,4,B|256:56,1,100
256,68,73702,1,0
256,68,73916,1,4
336,72,74344,1,4
392,128,74773,1,4
312,120,75202,2,0,B|280:176,2,50,4|0|4
256,208,76273,12,4,79058
