osu file format v6

[General]
AudioFilename: Kujuukoharu - Pararaika(original version).mp3
AudioLeadIn: 0
PreviewTime: 51200
Countdown: 1
SampleSet: Soft
StackLeniency: 0.7
Mode: 0
LetterboxInBreaks: 1

[Editor]
Bookmarks: 23346
DistanceSpacing: 1
BeatDivisor: 4
GridSize: 8

[Metadata]
Title:BARARAIKA
Artist:Kusumi Koharu
Creator:Ex Boy
Version:Ex Relaxing!
Source:
Tags:

[Difficulty]
HPDrainRate:0
CircleSize:4
OverallDifficulty:4
SliderMultiplier:1.6
SliderTickRate:0.5

[Events]
//Background and Video events
0,0,"hiphotos.baidu.com__39e558fdaaeed03309244d88.jpg"
//Break Periods
2,78404,84169
//Storyboard Layer 0 (Background)
//Storyboard Layer 1 (Fail)
//Storyboard Layer 2 (Pass)
//Storyboard Layer 3 (Foreground)
//Storyboard Sound Samples
//Background Colour Transformations
3,100,163,162,255

[TimingPoints]
204,428.571428571429,4,2,0,100,1,0

[Colours]
Combo1 : 255,255,255
Combo2 : 95,250,106
Combo3 : 102,139,251
Combo4 : 233,205,12
Combo5 : 249,95,43

[HitObjects]
255,192,23775,1,8
334,192,23989,1,0
414,192,24204,1,0
255,192,24632,1,8
175,191,24846,1,0
94,191,25061,1,0
255,192,25489,5,8
256,111,25704,1,0
256,111,25918,1,0
260,270,26346,1,8
256,111,26775,2,0,B|367:111,1,80
380,44,27204,6,0,B|429:60|421:116,1,80,8|0
496,134,27632,2,0,B|471:192|402:181,1,80
358,199,28061,1,8
358,199,28275,1,0
436,185,28489,6,0,B|442:240|398:266,1,80
478,299,28918,1,8
323,339,29346,2,0,B|76:339,1,240
83,339,30204,1,8
86,179,30632,6,0,B|190:179,2,80,8|0|0
246,179,31489,2,0,B|162:179,2,80,8|0|0
155,46,32346,1,8
155,46,32561,1,0
153,125,32775,2,0,B|208:119|231:74,1,80
224,8,33204,2,0,B|279:13|301:60,1,80,8|0
290,124,33632,1,0
404,12,34061,6,0,B|420:69|479:68,1,80,8|0
458,145,34489,2,0,B|412:160|406:223,1,80
486,223,34918,1,8
486,223,35132,1,0
421,270,35346,2,0,B|449:308|498:306,2,80,0|0|8
277,342,36204,5,0
277,342,36418,1,0
217,289,36632,1,8
217,289,36846,1,0
154,239,37061,5,8
154,239,37275,1,8
154,239,37489,1,8
38,350,37918,6,0,B|38:187,1,160,0|8
40,109,38561,1,0
119,111,38775,2,0,B|235:111,2,80,0|0|8
80,40,39418,1,0
159,40,39632,2,0,B|269:40,1,80
388,97,40275,6,0,B|388:44,2,40,0|0|8
505,123,40811,2,0,B|513:154|484:193|439:189|439:260,1,120
406,292,41346,2,0,B|454:294|472:351,2,80,8|0|0
352,351,41989,1,0
297,292,42204,1,8
137,293,42632,1,0
138,132,43061,5,8
217,132,43275,1,0
265,68,43489,1,0
217,132,43704,1,0
259,199,43918,2,0,B|302:176|298:129,2,80,8|0|0
178,203,44561,5,0
221,270,44775,2,0,B|278:295|319:251,2,80,8|0|0
258,198,45418,1,0
337,192,45632,2,0,B|456:192,1,80,8|0
497,192,46061,1,0
458,347,46489,6,0,B|458:262,1,80,8|0
377,269,46918,2,0,B|377:364,1,80
297,349,47346,2,0,B|297:249,1,80,8|0
216,268,47775,2,0,B|216:371,1,80
143,313,48204,5,8
144,312,48418,1,0
92,250,48632,5,0
92,250,48846,1,0
139,185,49061,5,8
139,185,49275,1,0
215,208,49489,5,0
215,208,49704,1,0
213,287,49918,5,8
213,127,50346,1,8
373,128,50775,1,8
376,288,51204,5,8
376,288,51418,1,0
376,288,51632,1,0
373,127,52061,1,8
223,71,52489,2,0,B|223:16,4,40,0|0|0|0|8
224,151,53132,1,0
153,112,53346,1,0
20,22,53775,2,0,B|105:83,1,80,8|0
84,148,54204,6,8,B|41:175|19:223|24:296|70:336|139:347|188:328|217:281,1,320
464,193,55704,5,0
463,194,55918,1,8
463,194,56132,1,0
422,124,56346,1,8
422,124,56561,1,0
342,126,56775,1,8
379,55,56989,1,0
459,53,57204,1,8
498,122,57418,1,8
463,194,57632,1,8
468,354,58061,6,0,B|467:262,1,80,8|0
463,194,58489,1,0
302,196,58918,1,8
304,355,59346,2,0,B|125:356,1,160,0|8
184,280,59989,1,0
263,283,60204,2,0,B|217:259|174:288,1,80
106,281,60632,1,8
36,136,61061,5,0
36,136,61275,1,0
36,56,61489,2,8,B|208:56,1,160
403,41,62561,5,0
475,74,62775,1,8
473,153,62989,1,0
399,120,63204,2,0,B|324:166,1,80,8|0
378,226,63632,1,8
256,330,64061,1,8
219,174,64489,1,8
89,80,64918,5,8
89,80,65132,1,0
168,79,65346,1,0
328,80,65775,1,8
257,224,66204,2,0,B|257:276,4,40,0|0|0|0|8
255,144,66846,1,0
187,187,67061,2,0,B|95:187,1,80
27,184,67489,1,8
91,330,67918,6,0,B|119:287|118:285|164:293,1,80
223,329,68346,1,8
294,293,68561,1,0
226,254,68775,1,0
339,42,69418,5,0
418,41,69632,1,0
380,111,69846,1,0
340,180,70061,1,8
419,182,70275,1,0
460,113,70489,1,0
380,111,70704,1,0
300,111,70918,2,0,B|346:192,1,80,8|0
419,182,71346,1,0
422,342,71775,6,0,B|422:251,1,80,8|0
502,262,72204,1,0
342,262,72632,1,8
181,262,73061,1,0
21,262,73489,1,8
21,262,73704,1,0
100,263,73918,2,0,B|104:209|157:185,1,80
217,197,74346,1,8
259,42,74775,6,0,B|261:211,1,160
261,201,75418,1,0
265,280,75632,2,0,B|265:364,2,80,0|0|8
345,280,76275,5,0
385,210,76489,1,0
422,281,76704,1,0
463,212,76918,1,8
423,142,77132,1,0
343,142,77346,1,8
304,212,77561,1,8
345,280,77775,1,8
386,211,77989,1,8
423,140,78204,1,8
63,67,85489,6,0,B|64:156,1,80,8|0
65,227,85918,1,0
224,225,86346,2,0,B|113:225,1,80,8|0
65,227,86775,1,0
150,362,87204,1,8
150,362,87418,1,0
218,321,87632,6,0,B|294:262,1,80
341,325,88061,2,0,B|421:265,1,80,8|0
466,327,88489,1,0
466,166,88918,6,0,B|465:66,1,80,8|0
396,125,89346,2,0,B|318:49,1,80
286,8,89775,1,8
286,8,89989,1,0
245,77,90204,2,0,B|159:19,1,80
171,111,90632,2,0,B|68:111,1,80,8|0
54,182,91061,2,0,B|100:236|236:236|283:177,1,240
275,186,91918,1,8
317,31,92346,6,0,B|424:31,1,80
477,33,92775,1,8
316,31,93204,2,0,B|316:138,1,80
319,190,93632,1,8
479,191,94061,1,0
479,191,94275,1,0
481,270,94489,6,0,B|371:270,1,80,8|0
403,350,94918,2,0,B|505:350,1,80
483,350,95346,1,8
322,351,95775,5,0
319,190,96204,1,8
159,187,96632,1,0
159,187,96846,1,0
159,267,97061,2,0,B|69:267,1,80,8|0
77,187,97489,2,0,B|78:275,1,80
78,347,97918,5,8
78,347,98132,1,0
135,291,98346,1,0
135,291,98561,1,0
196,239,98775,5,8
196,239,98989,1,8
196,239,99204,1,8
42,194,99632,6,0,B|42:26,1,160,8|0
122,36,100275,1,0
122,36,100489,2,0,B|122:135,1,80,8|0
125,196,100918,1,0
204,196,101132,2,0,B|204:108,2,80,0|8|0
364,196,101989,5,0
364,196,102204,2,0,B|353:142|302:147|301:146|301:146|176:159|155:99,1,240,8|0
232,71,103061,2,0,B|405:71,1,160,8|0
406,156,103704,1,0
485,155,103918,2,0,B|485:255,1,80,8|0
405,236,104346,2,0,B|503:236,1,80
450,308,104775,5,8
450,308,104989,1,0
369,308,105204,1,0
369,308,105418,1,0
330,237,105632,2,0,B|330:151,2,80,8|0|8
330,157,106275,5,0
331,157,106489,2,0,B|159:157,1,160,8|0
90,157,107132,1,0
10,158,107346,2,0,B|13:103|62:86,1,80,8|0
128,87,107775,6,0,B|169:115|170:161,1,80
137,226,108204,2,0,B|92:251|40:222,1,80,8|0
93,158,108632,2,0,B|133:78,1,80
162,13,109061,2,0,B|214:39|209:111,1,80,8|0
185,151,109489,1,0
258,293,109918,5,8
258,293,110132,1,0
337,294,110346,1,0
337,294,110561,1,0
416,294,110775,1,8
416,294,110989,1,0
375,224,111204,1,0
375,224,111418,1,0
319,166,111632,5,8
397,26,112061,1,8
237,26,112489,1,8
156,164,112918,5,8
156,164,113132,1,0
76,164,113346,1,0
236,165,113775,1,8
76,164,114204,2,0,B|19:164,4,40,0|0|0|0|8
78,243,114846,1,0
79,323,115061,2,0,B|190:323,1,80
157,243,115489,1,8
256,117,115918,6,0,B|245:57|279:32|313:26|339:30|372:52,1,160,0|8
391,116,116561,1,0
326,157,116775,2,0,B|376:152|394:110,1,80
330,264,117418,5,0
330,343,117632,1,8
398,302,117846,1,0
396,221,118061,1,8
325,183,118275,1,0
261,231,118489,1,8
261,311,118704,1,0
328,267,118918,1,8
261,231,119132,1,8
191,191,119346,1,8
30,192,119775,6,0,B|146:192,1,80,8|0
111,111,120204,1,0
112,270,120632,1,8
272,276,121061,2,0,B|203:225|212:171|280:152,1,160,0|8
350,156,121704,1,0
416,111,121918,2,0,B|440:158|415:202,1,80
357,236,122346,1,8
196,238,122775,6,0,B|168:281|135:310|86:283|64:214,1,160,0|8
76,159,123418,1,0
5,197,123632,1,0
161,14,124275,5,0
162,93,124489,2,0,B|264:93,1,80
240,12,124918,2,0,B|344:12,1,80,8|0
321,91,125346,1,8
245,232,125775,1,8
405,233,126204,1,8
245,232,126632,5,8
245,232,126846,1,0
164,232,127061,2,0,B|82:232,1,80
45,302,127489,1,8
205,300,127918,2,0,B|205:349,4,40,0|0|0|0|8
251,234,128561,1,0
291,302,128775,2,0,B|335:272|331:224,1,80
297,163,129204,1,8
449,114,129632,6,0,B|312:18,1,160,0|8
240,23,130275,1,0
240,23,130489,2,0,B|93:104,1,160,8|0
46,44,131132,1,0
104,98,131346,2,0,B|163:155,1,80,8|0
220,207,131775,2,0,B|279:264,1,80,8|0
357,262,132204,5,0
436,263,132418,1,0
397,332,132632,1,8
317,330,132846,1,0
275,261,133061,2,0,B|188:261,1,80
115,260,133489,6,0,B|219:260,1,80,8|0
195,179,133918,1,0
196,338,134346,1,8
35,336,134775,2,0,B|35:141,1,160,0|8
85,113,135418,1,0
118,40,135632,2,0,B|176:62|161:137,1,80
164,101,136061,1,8
314,48,136489,6,0,B|346:13|395:13|427:25|451:72,1,160,0|8
395,127,137132,1,0
337,184,137346,1,0
97,192,137989,5,0
177,191,138204,1,0
256,191,138418,1,0
214,122,138632,1,8
293,120,138846,1,0
334,188,139061,5,8
300,260,139275,5,8
220,261,139489,5,8
257,189,139704,5,8
257,189,139918,5,12
