osu file format v13

[General]
AudioFilename: Minamichita EVOLVED.mp3
AudioLeadIn: 0
PreviewTime: 88332
Countdown: 0
SampleSet: Soft
StackLeniency: 0.7
Mode: 0
LetterboxInBreaks: 0
WidescreenStoryboard: 0

[Editor]
Bookmarks: 12332,22999,38999,44332,54999,65665,70999,76332,88332,98999,109665,120332,130999,142999
DistanceSpacing: 1
BeatDivisor: 4
GridSize: 4
TimelineZoom: 1

[Metadata]
Title:Minamichita EVOLVED
TitleUnicode:Minamichita EVOLVED
Artist:Kurubukko vs yukitani
ArtistUnicode:くるぶっこちゃん vs yukitani
Creator:Cherry Blossom
Version:Normal
Source:BMS
Tags:bof2013 konzertsaal chitamusume hardbreaks obu akana marina 南知多マリナ 大府あかね dialgadu77 sayaka- rezoons
BeatmapID:352354
BeatmapSetID:136632

[Difficulty]
HPDrainRate:4
CircleSize:3
OverallDifficulty:4
ApproachRate:5
SliderMultiplier:1.3
SliderTickRate:1

[Events]
//Background and Video events
0,0,"bgme.jpg",0,0
//Break Periods
2,65865,69799
//Storyboard Layer 0 (Background)
//Storyboard Layer 1 (Fail)
//Storyboard Layer 2 (Pass)
//Storyboard Layer 3 (Foreground)
//Storyboard Sound Samples
//Background Colour Transformations
3,100,163,162,255

[TimingPoints]
1666,333.333333333333,4,2,1,40,1,0
1666,-133.333333333333,4,2,1,40,0,0
10999,-114.942528735632,4,2,1,30,0,0
11665,-114.942528735632,4,2,1,40,0,0
12332,-114.942528735632,4,1,2,60,0,0
22999,-114.942528735632,4,1,2,80,0,1
23082,-114.942528735632,4,1,2,60,0,0
38332,-114.942528735632,4,2,2,60,0,0
38999,-100,4,1,3,70,0,1
43499,-100,4,2,2,70,0,1
44332,-114.942528735632,4,1,2,60,0,0
64332,-114.942528735632,4,2,2,60,0,0
65665,-133.333333333333,4,1,2,60,0,0
71082,-133.333333333333,4,2,3,40,0,0
72332,-133.333333333333,4,2,0,40,0,0
72999,-133.333333333333,4,2,3,60,0,0
76332,-133.333333333333,4,1,2,60,0,0
76415,-133.333333333333,4,2,3,60,0,0
81665,-133.333333333333,4,1,2,60,0,0
81749,-133.333333333333,4,2,3,60,0,0
87832,-133.333333333333,4,1,2,60,0,0
87999,-133.333333333333,4,2,0,70,0,0
88332,-100,4,1,3,70,0,1
98915,-100,4,1,3,70,0,0
98999,-100,4,1,3,70,0,1
108332,-100,4,2,2,70,0,1
108832,-100,4,1,3,70,0,1
108915,-100,4,2,2,70,0,1
108999,-100,4,1,3,70,0,1
109082,-100,4,2,2,70,0,1
109332,-100,4,1,3,70,0,1
109415,-100,4,2,2,70,0,1
109582,-100,4,2,2,70,0,0
109665,-100,4,2,4,100,0,1
109749,-100,4,2,2,70,0,1
119499,-100,4,1,3,70,0,1
120249,-100,4,1,3,70,0,0
120332,-100,4,1,3,100,0,1
120415,-100,4,2,2,70,0,1
130999,375,3,1,2,60,1,0
131092,-133.333333333333,3,2,2,40,0,0
139999,-133.333333333333,3,2,2,30,0,0
141499,-133.333333333333,3,2,2,20,0,0
142999,-133.333333333333,3,2,2,5,0,0
142999,-133.333333333333,3,2,2,10,0,0

[Colours]
Combo1 : 254,41,174
Combo2 : 255,249,0
Combo3 : 0,244,214
Combo4 : 255,83,0

[HitObjects]
116,100,1666,6,0,P|184:116|260:100,1,146.250005578995,2|2,0:0|0:0,0:0:0:0:
348,60,2499,1,2,0:0:0:0:
444,80,2832,1,0,0:0:0:0:
444,80,2999,2,0,B|452:128|452:128|440:172|440:172|452:224,1,146.250005578995,2|2,0:0|0:0,0:0:0:0:
460,320,3832,2,0,L|516:308,2,48.750001859665,2|2|2,0:0|0:0|0:0,0:0:0:0:
412,332,4332,6,0,P|340:344|268:332,1,146.250005578995,2|2,0:0|0:0,0:0:0:0:
176,296,5165,1,2,0:0:0:0:
96,360,5499,2,0,P|72:292|108:220,1,146.250005578995,2|0,0:0|0:0,0:0:0:0:
120,180,6165,2,0,P|132:136|116:80,1,97.5000037193299,2|2,0:0|0:0,0:0:0:0:
32,132,6832,1,2,0:0:0:0:
32,132,6999,6,0,P|28:216|72:264,1,146.250005578995,2|2,0:0|0:0,0:0:0:0:
144,316,7832,2,0,L|256:308,1,97.5000037193299,2|0,0:0|0:0,0:0:0:0:
288,304,8332,2,0,P|360:288|400:224,1,146.250005578995,2|2,0:0|0:0,0:0:0:0:
436,140,9165,1,2,0:0:0:0:
364,76,9499,1,2,0:0:0:0:
364,76,9665,6,0,B|296:60|296:96|220:76,1,146.250005578995,2|0,0:0|0:0,0:0:0:0:
128,44,10499,2,0,P|124:96|148:140,1,97.5000037193299,2|0,0:0|0:0,0:0:0:0:
184,176,10999,2,0,P|172:288|68:332,1,226.200001898346,2|2,0:0|0:0,0:0:0:0:
80,220,11999,1,2,0:0:0:0:
184,176,12332,6,0,B|212:144|256:132|256:132|300:144|328:180,1,169.650001423759,6|2,0:0|0:0,0:0:0:0:
436,200,13165,2,0,P|380:276|304:284,1,169.650001423759,2|2,0:0|0:0,0:0:0:0:
256,268,13832,1,2,0:0:0:0:
156,212,14165,2,0,P|140:264|156:320,2,113.100000949173,2|2|2,0:0|0:0|0:0,0:0:0:0:
196,172,14999,6,0,L|364:156,1,169.650001423759,2|2,0:0|0:0,0:0:0:0:
440,72,15832,2,0,P|480:148|452:232,1,169.650001423759,2|2,0:0|0:0,0:0:0:0:
428,272,16499,1,2,0:0:0:0:
340,340,16832,1,2,0:0:0:0:
256,264,17165,1,2,0:0:0:0:
172,340,17499,1,2,0:0:0:0:
172,340,17665,6,0,L|40:332,2,113.100000949173,4|8|2,0:0|0:0|0:0,0:0:0:0:
128,236,18665,1,8,0:0:0:0:
72,136,18999,2,0,L|204:128,2,113.100000949173,2|8|2,0:0|0:0|0:0,0:0:0:0:
116,32,19999,1,8,0:0:0:0:
256,192,20332,12,4,22999,0:0:0:0:
368,200,23665,6,0,L|372:80,1,113.100000949173,2|8,0:0|0:0,0:0:0:0:
484,36,24332,2,0,L|480:164,1,113.100000949173,2|8,0:0|0:0,0:0:0:0:
472,272,24999,1,2,0:0:0:0:
356,320,25332,1,8,0:0:0:0:
356,320,25499,1,0,0:0:0:0:
356,320,25665,6,0,P|296:328|236:320,1,113.100000949173,2|8,0:0|0:0,0:0:0:0:
124,288,26332,2,0,L|104:156,1,113.100000949173,0|8,0:0|0:0,0:0:0:0:
100,116,26832,2,0,P|72:112|40:116,1,56.5500004745865,0|2,0:0|0:0,0:0:0:0:
144,40,27332,2,0,P|196:52|256:40,1,113.100000949173,8|2,0:0|0:0,0:0:0:0:
380,36,27999,1,8,0:0:0:0:
484,104,28332,6,0,P|496:160|484:216,1,113.100000949173,2|8,0:0|0:0,0:0:0:0:
380,280,28999,1,2,0:0:0:0:
268,228,29332,2,0,L|128:224,2,113.100000949173,8|2|8,0:0|0:0|0:0,0:0:0:0:
368,152,30332,1,2,0:0:0:0:
312,40,30665,1,8,0:0:0:0:
312,40,30832,1,0,0:0:0:0:
312,40,30999,6,0,B|256:28|256:28|200:40,1,113.100000949173,2|8,0:0|0:0,0:0:0:0:
120,136,31665,2,0,B|108:192|108:192|120:248,1,113.100000949173,2|8,0:0|0:0,0:0:0:0:
236,296,32332,1,2,0:0:0:0:
352,256,32665,2,0,L|476:248,2,113.100000949173,8|2|8,0:0|0:0|0:0,0:0:0:0:
256,176,33665,6,0,L|196:172,2,56.5500004745865,10|8|8,0:0|0:0|0:0,0:0:0:0:
372,128,34332,1,2,0:0:0:0:
476,200,34665,2,0,P|492:256|480:312,1,113.100000949173,8|2,0:0|0:0,0:0:0:0:
364,352,35332,1,8,0:0:0:0:
244,324,35665,2,0,B|204:320|204:320|172:336|172:336|124:332,1,113.100000949173,2|8,0:0|0:0,0:0:0:0:
72,328,36165,2,0,P|44:324|16:328,1,56.5500004745865,0|2,0:0|0:0,0:0:0:0:
52,208,36665,6,0,P|104:220|164:204,1,113.100000949173,8|2,0:0|0:0,0:0:0:0:
256,124,37332,1,8,0:0:0:0:
348,204,37665,2,0,P|402:218|456:206,2,113.100000949173,2|8|0,0:0|0:0|0:0,0:0:0:0:
404,92,38665,1,0,0:0:0:0:
404,92,38832,1,0,0:0:0:0:
404,92,38999,6,0,P|304:72|224:120,2,195,6|2|8,0:0|0:0|0:0,0:0:0:0:
328,212,40332,2,0,B|340:296|340:296|372:320|420:316|444:288,2,195,4|2|8,0:0|0:0|0:0,0:0:0:0:
184,212,41665,6,0,B|172:296|172:296|140:320|92:316|68:288,2,195,4|2|8,0:0|0:0|0:0,0:0:0:0:
108,92,42999,2,0,P|208:72|288:120,2,195,4|8|8,0:0|0:0|0:0,0:0:0:0:
44,200,44332,6,0,P|32:256|44:312,1,113.100000949173,6|0,0:0|0:0,0:0:0:0:
96,344,44832,2,0,L|224:340,1,113.100000949173,2|2,0:0|0:0,0:0:0:0:
256,300,45332,1,8,0:0:0:0:
376,340,45665,2,0,B|400:260|400:260|376:176,1,169.650001423759,2|2,0:0|0:0,0:0:0:0:
464,88,46499,2,0,L|488:164,2,56.5500004745865,2|8|0,0:0|0:0|0:0,0:0:0:0:
416,52,46999,6,0,P|360:48|304:68,1,113.100000949173,2|0,0:0|0:0,0:0:0:0:
256,100,47499,2,0,L|136:92,1,113.100000949173,2|2,0:0|0:0,0:0:0:0:
84,80,47999,1,8,0:0:0:0:
152,184,48332,2,0,B|256:192|256:192|232:252,2,169.650001423759,2|2|8,0:0|0:0|0:0,0:0:0:0:
28,176,49665,6,0,B|8:228|8:228|20:288,1,113.100000949173,6|0,0:0|0:0,0:0:0:0:
72,316,50165,2,0,B|124:332|124:296|184:312,1,113.100000949173,2|2,0:0|0:0,0:0:0:0:
244,324,50665,2,0,P|300:332|356:324,1,113.100000949173,8|2,0:0|0:0,0:0:0:0:
456,248,51332,1,0,0:0:0:0:
456,248,51499,2,0,B|452:216|452:216|460:176|460:176|456:136,1,113.100000949173,2|2,0:0|0:0,0:0:0:0:
448,76,51999,2,0,L|504:64,2,56.5500004745865,8|0|4,0:0|0:0|0:0,0:0:0:0:
328,44,52665,5,0,0:0:0:0:
328,44,52832,2,0,L|212:36,1,113.100000949173,2|2,0:0|0:0,0:0:0:0:
152,48,53332,2,0,P|132:100|140:156,1,113.100000949173,8|2,0:0|0:0,0:0:0:0:
240,228,53999,2,0,P|260:176|252:120,2,113.100000949173,8|8|8,0:0|0:0|0:0,0:0:0:0:
204,280,54832,1,0,0:0:0:0:
156,320,54999,6,0,B|76:348|76:292|-12:324,2,169.650001423759,6|2|8,0:0|0:0|0:0,0:0:0:0:
240,228,56332,2,0,P|292:216|352:228,1,113.100000949173
400,264,56832,1,2,0:0:0:0:
484,172,57165,1,2,0:0:0:0:
484,172,57332,2,0,L|476:52,2,113.100000949173,8|2|0,0:0|0:0|0:0,0:0:0:0:
488,236,58165,6,0,P|488:300|448:340,1,113.100000949173,2|2,0:0|0:0,0:0:0:0:
396,344,58665,1,8,0:0:0:0:
272,340,58999,2,0,B|208:336|208:336|176:312|176:312|108:304,2,169.650001423759,2|2|8,0:0|0:0|0:0,0:0:0:0:
340,236,60332,2,0,P|396:248|456:236,1,113.100000949173,6|0,0:0|0:0,0:0:0:0:
496,200,60832,1,2,0:0:0:0:
444,88,61165,2,0,L|512:84,2,56.5500004745865,0|8|0,0:0|0:0|0:0,0:0:0:0:
380,92,61665,6,0,B|324:96|324:96|272:76|272:76|212:80,1,169.650001423759,2|2,0:0|0:0,0:0:0:0:
92,96,62499,1,2,0:0:0:0:
92,96,62665,2,0,P|76:152|92:208,1,113.100000949173,8|2,0:0|0:0,0:0:0:0:
200,264,63332,1,0,0:0:0:0:
200,264,63498,2,0,P|216:208|200:152,1,113.100000949173,2|2,0:0|0:0,0:0:0:0:
184,96,63999,6,0,L|164:36,2,56.5500004745865,0|0|8,0:0|0:0|0:0,0:0:0:0:
328,96,64665,2,0,L|348:36,2,56.5500004745865,12|8|8,0:0|0:0|0:0,0:0:0:0:
256,200,65332,2,0,L|256:272,2,56.5500004745865,12|8|4,0:0|0:0|0:0,0:0:0:0:
72,88,70999,6,0,B|132:48|196:88|196:88|256:124|316:88|316:88|380:48|444:88,1,390.00001487732,6|2,0:0|0:0,0:0:0:0:
452,280,72999,6,0,B|404:268|352:280|352:280|372:232|352:184,1,195.00000743866,2|2,0:0|0:0,0:0:0:0:
156,188,74332,2,0,B|137:231|157:279|157:279|105:267|57:279,2,195.00000743866,2|2|2,0:0|0:0|0:0,0:0:0:0:
256,36,76332,6,0,L|256:240,1,195.00000743866,6|8,0:0|0:0,0:0:0:0:
256,328,77332,1,2,0:0:0:0:
340,280,77665,2,0,P|388:272|440:280,2,97.50000371933,2|0|8,0:0|0:0|0:0,0:0:0:0:
256,328,78665,1,2,0:0:0:0:
168,368,78999,6,0,L|64:356,1,97.50000371933,2|0,0:0|0:0,0:0:0:0:
28,268,79665,2,0,P|8:200|28:128,1,146.250005578995,8|8,0:0|0:0,0:0:0:0:
60,92,80332,1,8,0:0:0:0:
148,48,80665,2,0,B|196:40|196:40|248:48,1,97.50000371933,8|8,0:0|0:0,0:0:0:0:
332,92,81332,1,8,0:0:0:0:
420,48,81665,6,0,P|412:148|336:192,1,195.00000743866,6|8,0:0|0:0,0:0:0:0:
256,136,82665,1,2,0:0:0:0:
175,191,82999,2,0,P|96:141|92:48,1,195.00000743866,2|8,0:0|0:0,0:0:0:0:
180,92,83999,1,2,0:0:0:0:
224,72,84165,6,0,L|288:48,2,48.750001859665,0|8|8,0:0|0:0|0:0,0:0:0:0:
256,164,84832,1,0,0:0:0:0:
256,212,84999,2,0,B|244:264|268:264|256:312,1,97.50000371933,8|8,0:0|0:0,0:0:0:0:
160,288,85665,2,0,L|48:280,2,97.50000371933,8|8|2,0:0|0:0|0:0,0:0:0:0:
256,308,86665,1,8,0:0:0:0:
352,288,86999,6,0,P|448:212|416:96,1,243.750009298325,0|2,0:0|0:0,0:0:0:0:
384,80,87999,1,12,0:0:0:0:
256,52,88332,6,0,B|208:48|208:48|176:60|176:60|128:56,1,130,6|8,0:0|0:0,0:0:0:0:
64,52,88832,2,0,P|32:108|48:176,1,130,2|2,0:0|0:0,0:0:0:0:
24,300,89499,2,0,P|88:280|152:300,1,130,2|0,0:0|0:0,0:0:0:0:
204,328,89999,1,8,0:0:0:0:
268,332,90165,2,0,L|416:328,2,130,2|2|2,0:0|0:0|0:0,0:0:0:0:
236,204,91165,6,0,P|204:200|172:204,2,65,0|8|2,0:0|0:0|0:0,0:0:0:0:
364,228,91832,1,2,0:0:0:0:
364,228,91999,1,8,0:0:0:0:
364,228,92165,2,0,P|456:196|496:100,1,195,2|8,0:0|0:0,0:0:0:0:
484,48,92832,1,2,0:0:0:0:
360,92,93165,1,2,0:0:0:0:
256,16,93499,1,2,0:0:0:0:
152,92,93832,6,0,L|84:88,1,65,0|10,0:0|0:0,0:0:0:0:
24,80,94165,2,0,B|4:144|4:144|16:212,1,130,2|2,0:0|0:0,0:0:0:0:
100,304,94832,2,0,B|120:240|120:240|108:172,1,130,2|0,0:0|0:0,0:0:0:0:
24,80,95499,1,2,0:0:0:0:
152,52,95832,1,2,0:0:0:0:
152,52,95999,2,0,L|240:36,2,65,8|0|2,0:0|0:0|0:0,0:0:0:0:
108,176,96665,6,0,P|92:264|176:324,1,195,8|2,0:0|0:0,0:0:0:0:
256,228,97499,2,0,L|256:84,2,130,2|0|2,0:0|0:0|0:0,0:0:0:0:
344,323,98499,2,0,P|396:296|416:228,1,130,2|2,0:0|0:0,0:0:0:0:
408,168,98999,5,6,0:0:0:0:
324,68,99332,1,8,0:0:0:0:
324,68,99499,2,0,P|384:40|456:52,2,130,2|2|2,0:0|0:0|0:0,0:0:0:0:
272,108,100332,2,0,L|112:104,1,130,0|8,0:0|0:0,0:0:0:0:
84,76,100832,1,2,0:0:0:0:
28,192,101165,2,0,P|36:256|88:296,1,130,2|0,0:0|0:0,0:0:0:0:
148,288,101665,5,2,0:0:0:0:
256,364,101999,1,8,0:0:0:0:
256,364,102165,2,0,L|396:352,2,130,2|2|2,0:0|0:0|0:0,0:0:0:0:
256,232,103165,1,0,0:0:0:0:
256,232,103332,2,0,B|240:168|272:168|256:100,1,130,8|2,0:0|0:0,0:0:0:0:
152,24,103999,2,0,P|116:20|84:24,2,65,8|0|2,0:0|0:0|0:0,0:0:0:0:
88,144,104665,5,8,0:0:0:0:
88,144,104832,2,0,P|36:188|24:248,1,130,2|2,0:0|0:0,0:0:0:0:
88,360,105499,2,0,L|240:356,1,130,2|2,0:0|0:0,0:0:0:0:
280,244,106165,2,0,L|128:248,2,130,2|2|2,0:0|0:0|0:0,0:0:0:0:
364,344,107165,6,0,L|444:340,1,65,0|10,0:0|0:0,0:0:0:0:
496,336,107499,2,0,P|504:272|480:208,1,130,2|2,0:0|0:0,0:0:0:0:
404,108,108165,1,2,0:0:0:0:
404,108,108332,2,0,L|416:36,2,65,8|8|8,0:0|0:0|0:0,0:0:0:0:
320,208,108999,2,0,L|312:288,2,65,2|8|2,0:0|0:0|0:0,0:0:0:0:
256,96,109665,5,4,0:0:0:0:
132,56,109999,2,8,P|96:60|60:56,1,65
4,48,110332,2,0,P|36:108|32:176,1,130,8|8,0:0|0:0,0:0:0:0:
8,296,110999,2,0,P|72:312|136:296,1,130,8|8,0:0|0:0,0:0:0:0:
184,256,111499,1,8,0:0:0:0:
236,216,111665,2,0,L|372:212,2,130,8|8|10,0:0|0:0|0:0,0:0:0:0:
196,92,112665,5,8,0:0:0:0:
196,92,112832,1,8,0:0:0:0:
196,92,112999,2,0,P|256:72|320:92,1,130,8|0,0:0|0:0,0:0:0:0:
256,204,113665,2,0,L|256:344,1,130,8|8,0:0|0:0,0:0:0:0:
196,356,114165,1,2,0:0:0:0:
80,292,114499,1,2,0:0:0:0:
80,292,114665,2,0,P|48:296|16:292,2,65,8|10|8,0:0|0:0|0:0,0:0:0:0:
192,224,115332,6,0,P|256:208|324:224,1,130,8|0,0:0|0:0,0:0:0:0:
364,264,115832,2,0,P|400:268|432:264,2,65,2|8|10,0:0|0:0|0:0,0:0:0:0:
332,136,116499,1,2,0:0:0:0:
332,136,116665,1,8,0:0:0:0:
332,136,116832,2,0,P|392:120|460:136,2,130,2|0|10,0:0|0:0|0:0,0:0:0:0:
256,244,117832,5,0,0:0:0:0:
256,244,117999,2,0,B|208:240|208:240|176:224|176:224|124:220,1,130,10|0,0:0|0:0,0:0:0:0:
64,216,118499,2,0,B|44:280|44:280|56:352,2,130,2|10|0,0:0|0:0|0:0,0:0:0:0:
56,152,119332,1,8,0:0:0:0:
44,88,119499,2,0,B|76:48|124:36|124:36|176:48|212:84,1,195,2|8,0:0|0:0,0:0:0:0:
256,128,120165,1,2,0:0:0:0:
320,132,120332,6,0,L|464:124,2,130,4|8|8,0:0|0:0|0:0,0:0:0:0:
256,244,121332,1,8,0:0:0:0:
192,132,121665,2,8,L|48:124,2,130,0|8|8,0:0|0:0|0:0,0:0:0:0:
256,16,122665,1,8,0:0:0:0:
376,68,122999,6,8,P|384:108|380:140,2,65
256,116,123665,2,8,L|256:184,2,65
136,68,124332,2,8,P|128:108|132:140,2,65
256,16,124999,1,8,0:0:0:0:
376,68,125332,1,8,0:0:0:0:
384,196,125665,6,8,B|460:184|508:260|492:356|492:356|380:384|312:352|256:240|256:240|204:352|132:384|20:356|20:356|4:260|56:184|136:196,1,1040
192,76,128665,6,8,P|160:52|148:20,2,65,12|8|8,0:0|0:0|0:0,0:0:0:0:
320,76,129332,2,8,P|348:56|364:20,2,65,12|8|8,0:0|0:0|0:0,0:0:0:0:
256,184,129999,2,8,P|248:220|256:256,2,65,12|8|8,0:0|0:0|0:0,0:0:0:0:
384,168,130665,1,12,0:0:0:0:
376,284,130999,6,0,P|256:328|136:284,1,260,4|2,0:0|0:0,0:0:0:0:
208,220,132124,2,0,B|256:212|256:212|304:220,2,97.50000371933,2|2|2,0:0|0:0|0:0,0:0:0:0:
116,184,133249,2,0,P|124:92|212:48,1,195.00000743866,2|2,0:0|0:0,0:0:0:0:
304,48,134374,2,0,P|387:91|395:184,1,195.00000743866,2|2,0:0|0:0,0:0:0:0:
372,280,135499,1,2,0:0:0:0:
256,124,136249,6,0,B|252:88|252:88|260:56|260:56|256:24,2,97.50000371933,2|2|2,0:0|0:0|0:0,0:0:0:0:
348,160,137374,1,2,0:0:0:0:
352,256,137749,2,0,B|300:252|256:268|256:268|212:252|160:256,1,195.00000743866,2|2,0:0|0:0,0:0:0:0:
256,192,138874,12,0,142999,0:0:0:0:
